<?xml version="1.0" standalone="no"?>
<!DOCTYPE svg PUBLIC "-//W3C//DTD SVG 1.1//EN" "http://www.w3.org/Graphics/SVG/1.1/DTD/svg11.dtd" >
<svg xmlns="http://www.w3.org/2000/svg">
<metadata>
This is a custom SVG font generated by IcoMoon.
<iconset grid="48"></iconset>
</metadata>
<defs>
<font id="wpzoom" horiz-adv-x="1536" >
<font-face units-per-em="1536" ascent="1472" descent="-64" />
<missing-glyph horiz-adv-x="1536" />
<glyph class="hidden" unicode="&#xf000;" d="M0,1472L 1536 -64L0 -64 z" horiz-adv-x="0" />
<glyph unicode="&#xe000;" d="M0,64.001c0-70.719, 57.279-128.001, 128.001-128.001l 1280.001,0 c 70.719,0, 128.001,57.279, 128.001,128.001L 1536,1343.999 c0,70.719-57.279,128.001-128.001,128.001L 128.001,1472 
	C 57.279,1472,0,1414.721,0,1343.999L0,64.001 z M 800.001,128L 800.001,640.001 l-128.001,0 l0,192 l 128.001,0 C 800.001,1161.92, 814.047,1184, 1215.999,1184l0-192 c-211.839,0-192-11.841-192-159.999l 192,0 l0-192 l-192,0 l0-512.001 L 800.001,128 z"  />
<glyph unicode="&#xe001;" d="M0,64.001c0-70.719, 57.279-128.001, 128.001-128.001l 1280.001,0 c 70.719,0, 128.001,57.279, 128.001,128.001L 1536,1343.999 c0,70.719-57.279,128.001-128.001,128.001L 128.001,1472 
	C 57.279,1472,0,1414.721,0,1343.999L0,64.001 z M 992.001,671.999L 672,671.999 l0-96 c0-35.199, 28.8-63.999, 63.999-63.999l 255.999,0 c 70.719,0, 128.001-57.279, 128.001-128.001s-57.279-128.001-128.001-128.001L 672,256.001 c-141.441,0-255.999,114.561-255.999,255.999L 416.001,1055.999 c0,70.719, 57.279,128.001, 128.001,128.001
	s 128.001-57.279, 128.001-128.001l0-128.001 l 320.001,0 c 70.719,0, 128.001-57.279, 128.001-128.001S 1062.72,671.999, 992.001,671.999z"  />
<glyph unicode="&#xe002;" d="M0,64.001c0-70.719, 57.279-128.001, 128.001-128.001l 1280.001,0 c 70.719,0, 128.001,57.279, 128.001,128.001L 1536,1343.999 c0,70.719-57.279,128.001-128.001,128.001L 128.001,1472 
	C 57.279,1472,0,1414.721,0,1343.999L0,64.001 z M 288,704c0,105.921, 86.079,192, 192,192c 44.16,0, 84.801-15.039, 117.12-39.681l 267.489,121.281C 864,982.4, 864,987.2, 864,992c0,105.921, 86.049,192, 192,192
	s 192-86.079, 192-192s-86.049-192-192-192c-49.281,0-94.401,18.561-128.319,49.281l-257.919-117.12C 671.361,722.879, 672,713.6, 672,704s-0.639-18.879-2.241-28.161l 257.919-116.799
	C 961.599,589.439, 1006.719,608, 1056,608c 105.951,0, 192-86.049, 192-192s-86.049-192-192-192s-192,86.049-192,192c0,4.8,0,9.6, 0.639,14.4l-267.489,121.599
	C 564.801,527.039, 524.16,512, 480,512C 374.079,512, 288,598.049, 288,704z"  />
<glyph unicode="&#xe003;" d="M0,64.001c0-70.719, 57.279-128.001, 128.001-128.001l 1280.001,0 c 70.719,0, 128.001,57.279, 128.001,128.001L 1536,1343.999 c0,70.719-57.279,128.001-128.001,128.001L 128.001,1472 
	C 57.279,1472,0,1414.721,0,1343.999L0,64.001 z M 1248,335.999c0-44.16-35.841-80.001-80.001-80.001S 1088.001,291.839, 1088.001,335.999C 1088.001,698.24, 794.208,992, 432,992c-44.16,0-80.001,35.841-80.001,80.001
	s 35.841,80.001, 80.001,80.001c 237.441,0, 432.321-81.921, 585.279-234.879C 1174.047,760.319, 1248,565.76, 1248,335.999z M 960,335.999c0-44.16-35.841-80.001-80.001-80.001S 800.001,291.839, 800.001,335.999
	C 800.001,539.201, 635.199,704, 432,704c-44.16,0-80.001,35.841-80.001,80.001s 35.841,80.001, 80.001,80.001C 723.519,863.999, 960,627.488, 960,335.999z M 351.999,400.001
	c0,79.68, 64.32,144, 144,144s 144-64.32, 144-144S 575.679,256.001, 495.999,256.001S 351.999,320.321, 351.999,400.001z"  />
<glyph unicode="&#xe004;" d="M 1408.287,896l 95.679,0 c 8.319,0, 16.641,3.201, 23.040,9.279c 12.48,12.48, 12.48,32.961,0,45.441
	c-8.673,8.319-115.839,137.28-115.839,137.28s 107.199,128.961, 115.839,137.28c 12.48,12.48, 12.48,32.961,0,45.441C 1520.607,1276.799, 1512.288,1280, 1503.969,1280l-153.951,0 
	c-70.047,115.2-197.121,192-341.76,192c-220.8,0-399.999-179.199-399.999-399.999c0-132.48-107.52-240-240-240l-0.96,0 L 63.648,832.001 c-35.232,0-63.999-28.8-63.999-63.999l 0.321-8.64
	c 28.479-278.4, 223.329-508.8, 480.321-594.879l0-148.479 c0-44.16, 35.841-80.001, 80.001-80.001s 80.001,35.841, 80.001,80.001l0,114.879 c 21.12-1.92, 42.561-2.88, 63.999-2.88
	s 42.879,0.96, 63.999,2.88l0-114.879 c0-44.16, 35.841-80.001, 80.001-80.001s 80.001,35.841, 80.001,80.001l0,148.479 c 279.039,93.471, 480,357.12, 480,667.521L 1408.287,896 z M 1024.287,1199.999
	c0,44.16, 35.841,80.001, 80.001,80.001s 80.001-35.841, 80.001-80.001s-35.841-80.001-80.001-80.001S 1024.287,1155.839, 1024.287,1199.999z M 775.968,727.679
	c 45.12-97.953, 27.489-217.632-53.121-298.239c-79.359-79.68-197.121-97.953-294.081-54.72l-10.239,5.439c-20.481,10.881-34.209,32.319-34.209,56.961
	c0,18.879, 8.001,35.841, 20.799,47.679c 6.369,5.76, 264.639,264.321, 264.639,264.321c 25.281,25.281, 66.24,25.281, 91.2,0c 3.84-3.84, 7.359-8.001, 9.951-12.48
	L 775.968,727.679z"  />
<glyph unicode="&#xe005;" d="M0,416c0-70.719, 57.279-128.001, 128.001-128.001l 192,0 l0-197.439 c0-35.52, 28.8-63.999, 63.999-63.999
	c 17.952,0, 34.209,7.359, 45.759,19.2L 672,287.999l 704.001,0 c 70.719,0, 128.001,57.279, 128.001,128.001L 1503.999,1216.001 c0,70.719-57.279,128.001-128.001,128.001L 128.001,1343.999 C 57.279,1343.999,0,1286.72,0,1216.001L0,416 z M 384,784.001
	c0,44.16, 35.841,80.001, 80.001,80.001s 80.001-35.841, 80.001-80.001S 508.161,704, 464.001,704S 384,739.841, 384,784.001z M 672,784.001c0,44.16, 35.841,80.001, 80.001,80.001s 80.001-35.841, 80.001-80.001
	S 796.161,704, 752.001,704S 672,739.841, 672,784.001z M 960,784.001c0,44.16, 35.841,80.001, 80.001,80.001s 80.001-35.841, 80.001-80.001S 1084.161,704, 1040.001,704S 960,739.841, 960,784.001z"  />
<glyph unicode="&#xe006;" d="M0,256.001c0-70.719, 57.279-128.001, 128.001-128.001l 1280.001,0 c 70.719,0, 128.001,57.279, 128.001,128.001L 1536,1120.001 c0,70.719-57.279,128.001-128.001,128.001L 128.001,1247.999 
	c-70.719,0-128.001-57.279-128.001-128.001L0,256.001 z M 471.039,687.041l-292.8,294.72c-24.288,24.321-24.288,63.681,0,87.999c 24.351,24.321, 63.711,24.321, 87.999,0L 733.44,601.952
	c 18.879-18.561, 49.953-18.561, 68.511,0L 1269.759,1069.76c 24.321,24.321, 63.681,24.321, 87.999,0c 24.321-24.321, 24.321-63.681,0-87.999l-293.121-294.72l 293.121-292.767
	c 24.321-24.321, 24.321-63.681,0-87.999s-63.681-24.321-87.999,0l-292.8,292.479c0,0-91.488-93.12-108.129-109.761C 842.88,463.679, 807.039,448.001, 768,448.001
	c-39.681,0-75.519,15.999-101.439,41.952c-16.959,16.641-107.841,108.768-107.841,108.768l-292.512-292.479c-24.288-24.321-63.648-24.321-87.999,0
	c-24.288,24.321-24.288,63.681,0,87.999L 471.039,687.041z"  />
<glyph unicode="&#xe007;" d="M 1536,800.321c0,44.799-18.561,85.44-48.321,114.561L 881.601,1424.96c-62.721,62.721-164.481,62.721-227.199,0
	L 48.321,914.879C 18.561,885.761,0,845.12,0,800.321L0,64.001 c0-70.719, 57.279-128.001, 128.001-128.001l 1280.001,0 c 70.719,0, 128.001,57.279, 128.001,128.001L 1536,800.321 z M 326.4,928.001l 883.2,0 c 39.039,0, 70.401-31.359, 70.401-70.401
	L 1280.001,736.001 c-0.321-15.36-6.399-30.399-18.24-42.24l-197.121-198.72l 293.121-292.767c 24.321-24.321, 24.321-63.681,0-87.999s-63.681-24.321-87.999,0L 968.001,416L 567.36,416 l-301.119-301.761
	c-24.321-24.321-63.681-24.321-87.999,0c-24.321,24.321-24.321,63.681,0,87.999l 292.8,292.767l-196.8,198.72c-12.801,12.801-18.879,29.439-18.24,46.401L 255.999,857.6 
	C 255.999,896.639, 287.361,928.001, 326.4,928.001z"  />
<glyph unicode="&#xe065;" d="M 768,1472C 494.4,1472, 220.161,1423.040, 120.639,1325.441c-82.56-80.961-110.079-224.001-119.361-314.559
	c0,0-1.281-8.961-1.281-12.801c0-35.52, 28.8-63.999, 63.999-63.999c 4.161,0, 158.079,12.48, 250.881,20.16c 2.241,0.321, 4.479,0.639, 6.72,1.281c 34.56,0.96, 62.4,29.121, 62.4,63.999
	l 0.321,126.081C 384.321,1184.639, 416.001,1216.001, 455.040,1216.001l 625.887,0 C 1119.999,1216.001, 1151.679,1184.639, 1151.679,1145.6L 1152,1019.519c0-34.881, 27.84-63.039, 62.4-63.999
	c 2.208-0.639, 4.479-0.96, 6.72-1.281c 92.799-7.68, 246.72-20.16, 250.881-20.16c 35.199,0, 63.999,28.479, 63.999,63.999c0,3.84-1.281,12.801-1.281,12.801
	c-9.279,90.561-36.768,233.601-119.328,314.559C 1315.839,1423.040, 1041.6,1472, 768,1472z M 768,640.001c-70.719,0-128.001-57.279-128.001-128.001s 57.279-128.001, 128.001-128.001s 128.001,57.279, 128.001,128.001S 838.719,640.001, 768,640.001z
	 M 672,928.001l0,80.001 c0,44.16-35.841,80.001-80.001,80.001S 512.001,1052.159, 512.001,1007.999L 512.001,928.001 L 80.319,466.88C 50.559,437.759, 32.001,397.121, 32.001,352.319L 32.001,224 c0-70.719, 57.279-128.001, 128.001-128.001l 32.001,0 l0-80.001 
	C 192-28.159, 227.841-64, 272.001-64s 80.001,35.841, 80.001,80.001L 351.999,95.999 l 831.999,0 l0-80.001 c0-44.16, 35.841-80.001, 80.001-80.001s 80.001,35.841, 80.001,80.001L 1344,95.999 l 32.001,0 c 70.719,0, 128.001,57.279, 128.001,128.001l0,128.319 
	c0,44.799-18.561,85.44-48.321,114.561L 1023.999,928.001l0,80.001 c0,44.16-35.841,80.001-80.001,80.001S 864,1052.159, 864,1007.999L 864,928.001 L 672,928.001 z M 768,767.999c 141.441,0, 255.999-114.561, 255.999-255.999s-114.561-255.999-255.999-255.999
	s-255.999,114.561-255.999,255.999S 626.559,767.999, 768,767.999z"  />
<glyph unicode="&#xe009;" d="M 770.496,34.592c 131.169-131.52, 343.68-131.52, 474.849,0
	c 81.633,81.6, 112.641,194.559, 92.511,300.159c 34.56,17.601, 65.568,38.079, 91.488,57.279c 2.88,2.241, 15.681,11.199, 18.879,13.761c 14.433,11.841, 23.679,29.76, 23.679,49.953
	c0,19.2-8.319,36.48-21.759,48l-264,217.599c-10.881,8.961-24.927,14.4-40.32,14.4c-17.313,0-32.991-6.72-44.511-17.601
	c-4.512-4.479-44.127-45.12-44.127-45.12c-27.552-27.519-72-27.519-99.552,0l-269.409,269.76c-27.519,27.519-27.519,72.321,0,99.84l 43.839,43.839
	c 11.52,11.52, 18.24,27.519, 18.24,44.769c0,17.28-6.72,32.673-17.601,44.16l-226.239,273.279c-11.841,14.079-29.76,23.361-49.599,23.361
	c-21.12,0-39.681-10.239-51.519-25.92l-3.84-5.121c-49.281-66.561-113.601-172.161-113.601-271.359c0-273.279, 609.312-881.601, 879.999-881.601
	c 5.121,0, 10.239,0.321, 15.072,0.321c 4.8-50.241-12.192-102.048-50.559-140.799c-68.799-68.769-180.192-68.769-248.991,0l-441.888,454.080
	c-93.759,93.759-245.439,93.759-339.201,0c-93.759-93.759-93.759-245.439,0-339.201l 144.96-143.040c 31.359-31.071, 81.921-31.071, 113.28,0c 31.041,31.329, 31.041,81.921,0,113.247
	l-145.281,142.752c-31.041,31.329-31.041,81.921,0,113.247c 31.359,31.071, 81.921,31.071, 113.28,0L 770.496,34.592z"  />
<glyph unicode="&#xe00a;" d="M 224.001,64.001c0-70.719, 57.279-128.001, 128.001-128.001l 800.001,0 c 70.719,0, 128.001,57.279, 128.001,128.001L 1280.001,1391.999 C 1280.001,1436.159, 1244.16,1472, 1200,1472
	S 1119.999,1436.159, 1119.999,1391.999L 1119.999,1312.001 L 351.999,1312.001 C 281.28,1312.001, 224.001,1254.719, 224.001,1184L 224.001,64.001 z M 454.401,1151.999l 595.2,0 c 39.039,0, 70.401-31.359, 70.401-70.401l0-339.201 c0-39.039-31.359-70.401-70.401-70.401L 454.401,671.999 
	c-39.039,0-70.401,31.359-70.401,70.401L 384,1081.601 C 384,1120.64, 415.359,1151.999, 454.401,1151.999z M 384,464c0,44.16, 35.841,80.001, 80.001,80.001s 80.001-35.841, 80.001-80.001S 508.161,383.999, 464.001,383.999
	S 384,419.84, 384,464z M 672,464c0,44.16, 35.841,80.001, 80.001,80.001s 80.001-35.841, 80.001-80.001S 796.161,383.999, 752.001,383.999S 672,419.84, 672,464z M 960,464
	c0,44.16, 35.841,80.001, 80.001,80.001s 80.001-35.841, 80.001-80.001S 1084.161,383.999, 1040.001,383.999S 960,419.84, 960,464z M 384,176c0,44.16, 35.841,80.001, 80.001,80.001s 80.001-35.841, 80.001-80.001
	S 508.161,95.999, 464.001,95.999S 384,131.84, 384,176z M 672,176c0,44.16, 35.841,80.001, 80.001,80.001s 80.001-35.841, 80.001-80.001S 796.161,95.999, 752.001,95.999S 672,131.84, 672,176z
	 M 960,176c0,44.16, 35.841,80.001, 80.001,80.001s 80.001-35.841, 80.001-80.001S 1084.161,95.999, 1040.001,95.999S 960,131.84, 960,176z"  />
<glyph unicode="&#xe00b;" d="M 192,64.001c0-70.719, 57.279-128.001, 128.001-128.001l 864,0 c 70.719,0, 128.001,57.279, 128.001,128.001L 1311.999,1343.999 c0,70.719-57.279,128.001-128.001,128.001L 320.001,1472 
	C 249.279,1472, 192,1414.721, 192,1343.999L 192,64.001 z M 422.4,1312.001l 659.199,0 C 1120.641,1312.001, 1152,1280.639, 1152,1241.6l0-787.2 c0-39.039-31.359-70.401-70.401-70.401L 422.4,383.999 c-39.039,0-70.401,31.359-70.401,70.401L 351.999,1241.6 
	C 351.999,1280.639, 383.361,1312.001, 422.4,1312.001z M 672,176c0,44.16, 35.841,80.001, 80.001,80.001s 80.001-35.841, 80.001-80.001S 796.161,95.999, 752.001,95.999S 672,131.84, 672,176z"  />
<glyph unicode="&#xe00c;" d="M 672,304.001c0-44.16, 35.841-80.001, 80.001-80.001s 80.001,35.841, 80.001,80.001S 796.161,383.999, 752.001,383.999
	S 672,348.161, 672,304.001z M 192,64.001c0-70.719, 57.279-128.001, 128.001-128.001l 864,0 c 70.719,0, 128.001,57.279, 128.001,128.001L 1311.999,1343.999 c0,70.719-57.279,128.001-128.001,128.001L 320.001,1472 C 249.279,1472, 192,1414.721, 192,1343.999L 192,64.001 z M 422.4,1312.001l 659.199,0 
	C 1120.641,1312.001, 1152,1280.639, 1152,1241.6l0-531.201 c0-39.039-31.359-70.401-70.401-70.401L 422.4,640.001 c-39.039,0-70.401,31.359-70.401,70.401L 351.999,1241.6 C 351.999,1280.639, 383.361,1312.001, 422.4,1312.001z M 543.999,304.001
	c0,114.879, 93.12,207.999, 207.999,207.999s 207.999-93.12, 207.999-207.999S 866.88,95.999, 752.001,95.999S 543.999,189.119, 543.999,304.001z"  />
<glyph unicode="&#xe00d;" d="M 543.999,224c 35.199,0, 63.999-28.8, 63.999-63.999s-28.8-63.999-63.999-63.999L 303.999,95.999 C 259.839,95.999, 224.001,60.161, 224.001,16.001
	S 259.839-64, 303.999-64l 896.001,0 c 44.16,0, 80.001,35.841, 80.001,80.001S 1244.16,95.999, 1200,95.999L 960,95.999 c-35.199,0-63.999,28.8-63.999,63.999s 28.8,63.999, 63.999,63.999l 416.001,0 c 70.719,0, 128.001,57.279, 128.001,128.001L 1503.999,1343.999 
	c0,70.719-57.279,128.001-128.001,128.001L 128.001,1472 C 57.279,1472,0,1414.721,0,1343.999l0-992.001 c0-70.719, 57.279-128.001, 128.001-128.001L 543.999,224 z M 672,464c0,44.16, 35.841,80.001, 80.001,80.001s 80.001-35.841, 80.001-80.001
	S 796.161,383.999, 752.001,383.999S 672,419.84, 672,464z M 230.4,1312.001l 1043.199,0 C 1312.641,1312.001, 1344,1280.639, 1344,1241.6l0-499.2 c0-39.039-31.359-70.401-70.401-70.401L 230.4,671.999 C 191.361,671.999, 159.999,703.361, 159.999,742.4
	L 159.999,1241.6 C 159.999,1280.639, 191.361,1312.001, 230.4,1312.001z"  />
<glyph unicode="&#xe00e;" d="M 1376.001,512L 1376.001,1280 c0,70.719-57.279,128.001-128.001,128.001L 288,1408.001 C 217.281,1408.001, 159.999,1350.719, 159.999,1280l0-768 L0,191.999l0-63.999 c0-70.719, 57.279-128.001, 128.001-128.001
	l 1280.001,0 c 70.719,0, 128.001,57.279, 128.001,128.001l0,63.999 L 1376.001,512z M 390.399,1247.999l 755.199,0 C 1184.64,1247.999, 1215.999,1216.64, 1215.999,1177.601l0-499.2 c0-39.039-31.359-70.401-70.401-70.401L 390.399,608 c-39.039,0-70.401,31.359-70.401,70.401
	L 320.001,1177.601 C 320.001,1216.64, 351.36,1247.999, 390.399,1247.999z M 576,320l 384,0 l 32.001-128.001L 543.999,191.999 L 576,320z"  />
<glyph unicode="&#xe00f;" d="M0,64.001c0-70.719, 57.279-128.001, 128.001-128.001l 1280.001,0 c 70.719,0, 128.001,57.279, 128.001,128.001L 1536,416 c0,70.719-57.279,128.001-128.001,128.001L 1023.999,544.001 L 1023.999,880.001 
	c0,44.16-35.841,80.001-80.001,80.001S 864,924.161, 864,880.001L 864,544.001 L 128.001,544.001 c-70.719,0-128.001-57.279-128.001-128.001L0,64.001 z M 159.999,239.999C 159.999,284.159, 195.84,320, 240,320s 80.001-35.841, 80.001-80.001
	S 284.16,160.001, 240,160.001S 159.999,195.839, 159.999,239.999z M 447.999,239.999c0,44.16, 35.841,80.001, 80.001,80.001s 80.001-35.841, 80.001-80.001S 572.16,160.001, 528,160.001S 447.999,195.839, 447.999,239.999z M 944.001,1216.001
	C 758.4,1216.001, 608.001,1065.599, 608.001,880.001c0-44.16, 35.841-80.001, 80.001-80.001s 80.001,35.841, 80.001,80.001c0,97.281, 78.72,176.001, 176.001,176.001s 176.001-78.72, 176.001-176.001
	c0-44.16, 35.841-80.001, 80.001-80.001s 80.001,35.841, 80.001,80.001C 1280.001,1065.599, 1129.599,1216.001, 944.001,1216.001z M 944.001,1472C 616.959,1472, 351.999,1207.040, 351.999,880.001c0-44.16, 35.841-80.001, 80.001-80.001
	s 80.001,35.841, 80.001,80.001C 512.001,1118.72, 705.279,1312.001, 944.001,1312.001S 1376.001,1118.72, 1376.001,880.001c0-44.16, 35.841-80.001, 80.001-80.001s 80.001,35.841, 80.001,80.001C 1536,1207.040, 1271.073,1472, 944.001,1472z"  />
<glyph unicode="&#xe010;" d="M 672,976.001c0,44.16, 35.841,80.001, 80.001,80.001s 80.001-35.841, 80.001-80.001S 796.161,896, 752.001,896
	S 672,931.841, 672,976.001z M 752.001,1184c-114.879,0-207.999-93.12-207.999-207.999s 93.12-207.999, 207.999-207.999s 207.999,93.12, 207.999,207.999S 866.88,1184, 752.001,1184z M 576,224c 35.199,0, 63.999-28.8, 63.999-63.999
	s-28.8-63.999-63.999-63.999l-240,0 C 291.84,95.999, 255.999,60.161, 255.999,16.001S 291.84-64, 336-64l 831.999,0 c 44.16,0, 80.001,35.841, 80.001,80.001S 1212.159,95.999, 1167.999,95.999L 927.999,95.999 c-35.199,0-63.999,28.8-63.999,63.999
	s 28.8,63.999, 63.999,63.999l 192,0 c 70.719,0, 128.001,57.279, 128.001,128.001L 1248,1343.999 c0,70.719-57.279,128.001-128.001,128.001L 384,1472 C 313.281,1472, 255.999,1414.721, 255.999,1343.999l0-992.001 c0-70.719, 57.279-128.001, 128.001-128.001L 576,224 z M 927.999,464
	c0,44.16, 35.841,80.001, 80.001,80.001s 80.001-35.841, 80.001-80.001S 1052.16,383.999, 1008,383.999S 927.999,419.84, 927.999,464z M 752.001,1312.001C 937.599,1312.001, 1088.001,1161.599, 1088.001,976.001S 937.599,640.001, 752.001,640.001
	S 416.001,790.4, 416.001,976.001S 566.4,1312.001, 752.001,1312.001z"  />
<glyph unicode="&#xe011;" d="M 860.799,404.159l 93.12-93.12c 30.687-30.72, 80.289-30.72, 111.009,0
	c 30.753,30.72, 30.753,80.352,0,111.039L 972.159,515.201l 92.769,92.799c0,0-351.327,150.081-365.727,155.52C 691.521,766.4, 683.52,767.999, 675.201,767.999
	c-37.119,0-67.2-29.76-67.2-66.561c0-8.64, 1.599-16.641, 4.479-24C 617.919,663.68, 768,311.039, 768,311.039L 860.799,404.159z M0,95.999c0-70.719, 57.279-128.001, 128.001-128.001l 1280.001,0 
	c 70.719,0, 128.001,57.279, 128.001,128.001L 1536,1280 c0,70.719-57.279,128.001-128.001,128.001L 128.001,1408.001 C 57.279,1408.001,0,1350.719,0,1280L0,95.999 z M 230.4,959.999l 1075.2,0 c 39.039,0, 70.401-31.359, 70.401-70.401l0-691.2 
	c0-39.039-31.359-70.401-70.401-70.401L 230.4,128 C 191.361,128, 159.999,159.359, 159.999,198.401L 159.999,889.601 C 159.999,928.64, 191.361,959.999, 230.4,959.999z M 159.999,1168.001C 159.999,1212.161, 195.84,1247.999, 240,1247.999S 320.001,1212.161, 320.001,1168.001
	S 284.16,1088, 240,1088S 159.999,1123.841, 159.999,1168.001z M 447.999,1168.001C 447.999,1212.161, 483.84,1247.999, 528,1247.999S 608.001,1212.161, 608.001,1168.001S 572.16,1088, 528,1088S 447.999,1123.841, 447.999,1168.001z M 735.999,1168.001
	C 735.999,1212.161, 771.84,1247.999, 816,1247.999S 896.001,1212.161, 896.001,1168.001S 860.16,1088, 816,1088S 735.999,1123.841, 735.999,1168.001z"  />
<glyph unicode="&#xe012;" d="M 1119.999,1136c0-44.16, 35.841-80.001, 80.001-80.001s 80.001,35.841, 80.001,80.001S 1244.16,1216.001, 1200,1216.001
	S 1119.999,1180.16, 1119.999,1136z M 1119.999,623.999c0-44.16, 35.841-80.001, 80.001-80.001s 80.001,35.841, 80.001,80.001S 1244.16,704, 1200,704S 1119.999,668.159, 1119.999,623.999z M0,416c0-70.719, 57.279-128.001, 128.001-128.001
	l 543.999,0 l0-88.32 c-15.681-10.56-29.121-24-39.681-39.681L 240,160.001 C 195.84,160.001, 159.999,124.16, 159.999,80S 195.84-0.001, 240-0.001l 392.319,0 c 25.92-38.721, 69.759-63.999, 119.679-63.999
	s 93.759,25.281, 119.679,63.999L 1296-0.001 c 44.16,0, 80.001,35.841, 80.001,80.001S 1340.16,160.001, 1296,160.001L 871.68,160.001 c-10.56,15.681-24,29.121-39.681,39.681L 831.999,287.999 l 576,0 c 70.719,0, 128.001,57.279, 128.001,128.001L 1536,1343.999 
	c0,70.719-57.279,128.001-128.001,128.001L 128.001,1472 C 57.279,1472,0,1414.721,0,1343.999L0,416 z M 230.4,1312.001l 1075.2,0 C 1344.639,1312.001, 1376.001,1280.639, 1376.001,1241.6l0-211.2 c0-39.039-31.359-70.401-70.401-70.401L 230.4,959.999 
	C 191.361,959.999, 159.999,991.361, 159.999,1030.4L 159.999,1241.6 C 159.999,1280.639, 191.361,1312.001, 230.4,1312.001z M 230.4,800l 1075.2,0 c 39.039,0, 70.401-31.359, 70.401-70.401l0-211.2 c0-39.039-31.359-70.401-70.401-70.401L 230.4,448.001 
	C 191.361,448.001, 159.999,479.36, 159.999,518.399l0,211.2 C 159.999,768.641, 191.361,800, 230.4,800z"  />
<glyph unicode="&#xe013;" d="M 831.999,880.001c0,44.16-35.841,80.001-80.001,80.001S 672,924.161, 672,880.001s 35.841-80.001, 80.001-80.001
	S 831.999,835.841, 831.999,880.001z M 255.999,1472C 167.679,1472, 96,1400.321, 96,1312.001l0-1215.999 c0-88.32, 71.679-159.999, 159.999-159.999l 992.001,0 c 88.32,0, 159.999,71.679, 159.999,159.999L 1407.999,1312.001 c0,88.32-71.679,159.999-159.999,159.999L 255.999,1472 z M 752.001,1312.001
	C 990.72,1312.001, 1184.001,1118.72, 1184.001,880.001c0-124.479-52.512-236.799-136.959-315.519c-43.2,32.673-83.52,64.671-106.56,87.999c-68.769,68.799-180.159,68.799-248.961,0
	c-52.128-52.161-64.641-129.279-37.761-193.281C 462.399,503.681, 320.001,675.2, 320.001,880.001C 320.001,1118.72, 513.279,1312.001, 752.001,1312.001z M 255.999,176c0,44.16, 35.841,80.001, 80.001,80.001
	s 80.001-35.841, 80.001-80.001S 380.16,95.999, 336,95.999S 255.999,131.84, 255.999,176z M 782.4,561.599c 19.2,19.233, 50.208,19.233, 69.759,0c 11.232-11.52, 325.791-232.959, 362.241-269.439
	c 44.769-45.12, 44.769-117.759,0-162.561c-44.799-44.769-117.471-44.769-162.561,0c-38.4,38.4-258.912,351.999-269.439,362.241C 763.2,511.361, 763.2,542.399, 782.4,561.599z"  />
<glyph unicode="&#xe014;" d="M 1311.999,992c0,159.039-128.961,288-288,288L 512.001,1280 c-59.52,0-109.791,40.641-123.84,96
	c0,0-4.161,10.56-4.161,15.999C 384,1436.159, 348.159,1472, 303.999,1472S 224.001,1436.159, 224.001,1391.999c0-6.081, 0.639-11.841, 1.953-17.601C 242.559,1231.040, 364.161,1120.001, 512.001,1120.001l 512.001,0 
	c 70.719,0, 128.001-57.279, 128.001-128.001L 128.001,992 c-70.719,0-128.001-57.279-128.001-128.001l0-800.001 c0-70.719, 57.279-128.001, 128.001-128.001l 1280.001,0 c 70.719,0, 128.001,57.279, 128.001,128.001L 1536,863.999 c0,70.719-57.279,128.001-128.001,128.001L 1311.999,992 z M 944.001,832.001
	c 44.16,0, 80.001-35.841, 80.001-80.001S 988.161,671.999, 944.001,671.999S 864,707.84, 864,752S 899.841,832.001, 944.001,832.001z M 944.001,544.001c 44.16,0, 80.001-35.841, 80.001-80.001S 988.161,383.999, 944.001,383.999
	S 864,419.84, 864,464S 899.841,544.001, 944.001,544.001z M 591.999,832.001c 44.16,0, 80.001-35.841, 80.001-80.001S 636.159,671.999, 591.999,671.999S 512.001,707.84, 512.001,752S 547.839,832.001, 591.999,832.001z
	 M 591.999,544.001c 44.16,0, 80.001-35.841, 80.001-80.001S 636.159,383.999, 591.999,383.999S 512.001,419.84, 512.001,464S 547.839,544.001, 591.999,544.001z M 240,832.001c 44.16,0, 80.001-35.841, 80.001-80.001
	S 284.16,671.999, 240,671.999S 159.999,707.84, 159.999,752S 195.84,832.001, 240,832.001z M 240,544.001c 44.16,0, 80.001-35.841, 80.001-80.001S 284.16,383.999, 240,383.999S 159.999,419.84, 159.999,464S 195.84,544.001, 240,544.001z
	 M 240,256.001c 44.16,0, 80.001-35.841, 80.001-80.001S 284.16,95.999, 240,95.999S 159.999,131.84, 159.999,176S 195.84,256.001, 240,256.001z M 1296,832.001c 44.16,0, 80.001-35.841, 80.001-80.001
	S 1340.16,671.999, 1296,671.999S 1215.999,707.84, 1215.999,752S 1251.84,832.001, 1296,832.001z M 1296,544.001c 44.16,0, 80.001-35.841, 80.001-80.001S 1340.16,383.999, 1296,383.999S 1215.999,419.84, 1215.999,464
	S 1251.84,544.001, 1296,544.001z M 1296,256.001c 44.16,0, 80.001-35.841, 80.001-80.001S 1340.16,95.999, 1296,95.999S 1215.999,131.84, 1215.999,176S 1251.84,256.001, 1296,256.001z M 1023.999,95.999L 512.001,95.999 
	c-35.199,0-63.999,28.8-63.999,63.999s 28.8,63.999, 63.999,63.999l 512.001,0 c 35.199,0, 63.999-28.8, 63.999-63.999S 1059.201,95.999, 1023.999,95.999z"  />
<glyph unicode="&#xe015;" d="M 1440,702.401c0,191.040-138.561,349.761-320.319,380.16C 1114.239,1298.561, 937.281,1472, 720,1472
	C 499.2,1472, 320.001,1292.801, 320.001,1072.001L 320.001,575.999 c0-88.32-71.679-159.999-159.999-159.999L 144,416 C 99.84,416, 63.999,380.159, 63.999,335.999S 99.84,256.001, 144,256.001L 159.999,256.001 c 176.64,0, 320.001,143.361, 320.001,320.001L 480,1072.001 
	C 480,1204.481, 587.52,1312.001, 720,1312.001c 131.199,0, 238.047-105.279, 240-236.16c-165.759-42.879-288-193.92-288-373.44l0-380.799 C 672,108.8, 843.84-64, 1056-64s 384,172.8, 384,385.599L 1440,702.401 z
	 M 1119.999,863.999l0-192 c0-35.199-28.8-63.999-63.999-63.999s-63.999,28.8-63.999,63.999l0,192 c0,35.199, 28.8,63.999, 63.999,63.999S 1119.999,899.201, 1119.999,863.999z"  />
<glyph unicode="&#xe016;" d="M 672,688.001c0,44.16, 35.841,80.001, 80.001,80.001s 80.001-35.841, 80.001-80.001S 796.161,608, 752.001,608
	S 672,643.841, 672,688.001z M 752.001,896c-114.879,0-207.999-93.12-207.999-207.999s 93.12-207.999, 207.999-207.999s 207.999,93.12, 207.999,207.999S 866.88,896, 752.001,896z M0,688.001
	C0,272.639, 336.639-64, 752.001-64C 1167.36-64, 1503.999,272.639, 1503.999,688.001C 1503.999,1103.36, 1167.36,1439.999, 752.001,1439.999C 336.639,1439.999,0,1103.36,0,688.001z M 752.001,1024.001
	C 937.599,1024.001, 1088.001,873.599, 1088.001,688.001S 937.599,352.001, 752.001,352.001S 416.001,502.4, 416.001,688.001S 566.4,1024.001, 752.001,1024.001z"  />
<glyph unicode="&#xe017;" d="M 672,400.001c0-44.16, 35.841-80.001, 80.001-80.001s 80.001,35.841, 80.001,80.001S 796.161,479.999, 752.001,479.999
	S 672,444.161, 672,400.001z M 128.001,1472C 57.279,1472,0,1414.721,0,1343.999l0-1280.001 c0-70.719, 57.279-128.001, 128.001-128.001l 1280.001,0 c 70.719,0, 128.001,57.279, 128.001,128.001L 1536,1154.561 c0,42.879-16.929,80.961-44.16,108.48L 1329.279,1424.96
	C 1300.512,1454.081, 1260.159,1472, 1215.999,1472L 128.001,1472 z M 230.4,1312.001L 320.001,1312.001 l0-249.6 c0-39.039, 31.359-70.401, 70.401-70.401l 83.199,0 c 39.039,0, 70.401,31.359, 70.401,70.401L 543.999,1312.001 l 601.599,0 C 1184.64,1312.001, 1215.999,1280.639, 1215.999,1241.6
	l0-307.2 c0-39.039-31.359-70.401-70.401-70.401L 230.4,863.999 C 191.361,863.999, 159.999,895.361, 159.999,934.4L 159.999,1241.6 C 159.999,1280.639, 191.361,1312.001, 230.4,1312.001z M 543.999,400.001c0,114.879, 93.12,207.999, 207.999,207.999
	s 207.999-93.12, 207.999-207.999S 866.88,191.999, 752.001,191.999S 543.999,285.119, 543.999,400.001z"  />
<glyph unicode="&#xe018;" d="M 192,256.001c0-70.719, 57.279-128.001, 128.001-128.001l 32.001,0 l0-111.999 c0-44.16, 35.841-80.001, 80.001-80.001s 80.001,35.841, 80.001,80.001L 512.001,128 
	l 159.999,0 l0-111.999 c0-44.16, 35.841-80.001, 80.001-80.001s 80.001,35.841, 80.001,80.001L 831.999,128 l 159.999,0 l0-111.999 c0-44.16, 35.841-80.001, 80.001-80.001s 80.001,35.841, 80.001,80.001L 1152,128 l 32.001,0 c 70.719,0, 128.001,57.279, 128.001,128.001l0,32.001 l 111.999,0 
	c 44.16,0, 80.001,35.841, 80.001,80.001S 1468.161,448.001, 1424.001,448.001L 1311.999,448.001 l0,159.999 l 111.999,0 c 44.16,0, 80.001,35.841, 80.001,80.001S 1468.161,767.999, 1424.001,767.999L 1311.999,767.999 l0,159.999 l 111.999,0 c 44.16,0, 80.001,35.841, 80.001,80.001
	S 1468.161,1088, 1424.001,1088L 1311.999,1088 l0,32.001 c0,70.719-57.279,128.001-128.001,128.001l-32.001,0 L 1152,1360.001 C 1152,1404.161, 1116.159,1439.999, 1071.999,1439.999S 992.001,1404.161, 992.001,1360.001L 992.001,1247.999 l-159.999,0 L 831.999,1360.001 C 831.999,1404.161, 796.161,1439.999, 752.001,1439.999
	S 672,1404.161, 672,1360.001L 672,1247.999 l-159.999,0 L 512.001,1360.001 C 512.001,1404.161, 476.16,1439.999, 432,1439.999S 351.999,1404.161, 351.999,1360.001L 351.999,1247.999 l-32.001,0 c-70.719,0-128.001-57.279-128.001-128.001l0-32.001 L 80.001,1088 C 35.841,1088,0,1052.159,0,1007.999
	S 35.841,928.001, 80.001,928.001L 192,928.001 l0-159.999 L 80.001,767.999 C 35.841,767.999,0,732.161,0,688.001S 35.841,608, 80.001,608L 192,608 l0-159.999 L 80.001,448.001 C 35.841,448.001,0,412.16,0,368S 35.841,287.999, 80.001,287.999L 192,287.999 L 192,256.001 z M 992.001,857.6l0-339.201 
	c0-39.039-31.359-70.401-70.401-70.401L 582.399,448.001 c-39.039,0-70.401,31.359-70.401,70.401L 512.001,857.6 c0,39.039, 31.359,70.401, 70.401,70.401l 339.201,0 C 960.639,928.001, 992.001,896.639, 992.001,857.6z"  />
<glyph unicode="&#xe019;" d="M 1103.361,1434.881c-49.311,49.599-129.312,49.599-178.911,0l-380.16-379.2l-80.928,80.961
	l-288.96-290.241C 143.040,815.039, 128.001,774.431, 128.001,732.479L 128.001,352.001 l 0.639-0.639L 37.119,259.487c-49.599-49.569-49.599-129.567,0-178.881L 144.639-26.881
	c 49.311-49.632, 129.312-49.632, 178.881,0l 91.872,91.488L 416.001,64.001l 381.12,0 c 40.929-0.639, 82.56,15.072, 113.919,46.431L 1200,400.001l-80.319,80.319l 379.2,380.16
	c 49.599,49.599, 49.599,129.6,0,178.881L 1103.361,1434.881z M 1230.048,972.8l 30.753-30.72c 25.599-25.599, 25.599-66.561,0-92.16l-30.753-30.72c-25.599-25.599-66.561-25.599-92.127,0
	l-30.753,30.72c-25.599,25.599-25.599,66.561,0,92.16l 30.753,30.72C 1163.487,998.432, 1204.479,998.432, 1230.048,972.8z M 1006.047,1196.801L 1036.8,1166.081
	c 25.599-25.599, 25.599-66.561,0-92.16l-30.753-30.72c-25.599-25.599-66.561-25.599-92.127,0l-30.753,30.72c-25.599,25.599-25.599,66.561,0,92.16l 30.753,30.72
	C 939.489,1222.433, 980.481,1222.433, 1006.047,1196.801z"  />
<glyph unicode="&#xe01a;" d="M 985.983,1449.023l-281.952-281.601l-121.953,121.599c-30.687,30.72-80.319,30.72-111.039,0
	s-30.72-80.319,0-111.039l 17.28-17.28l-136.32-136.641c-176.001-176.001-212.16-435.552-85.119-641.313l-229.761-229.761c-49.632-49.569-49.632-130.239,0-179.808
	c 49.599-49.632, 130.239-49.632, 179.487,0l 229.791,230.049c 206.4-128.001, 465.312-91.488, 641.601,84.801l 136.32,136.641l 17.631-17.631c 30.687-30.687, 80.256-30.687, 111.009,0
	c 30.753,30.753, 30.753,80.385,0,111.072l-137.952,137.952l 297.951,297.921c 30.753,30.72, 30.753,80.319,0,111.039s-80.319,30.72-111.009,0l-297.951-297.6l-288.993,288.639
	l 281.952,281.919c 30.753,30.72, 30.753,80.319,0,111.039S 1016.673,1479.743, 985.983,1449.023z"  />
<glyph unicode="&#xe01b;" d="M 480,688.001c0-44.16, 35.841-80.001, 80.001-80.001s 80.001,35.841, 80.001,80.001S 604.161,767.999, 560.001,767.999
	S 480,732.161, 480,688.001z M 864,688.001c0-44.16, 35.841-80.001, 80.001-80.001s 80.001,35.841, 80.001,80.001S 988.161,767.999, 944.001,767.999S 864,732.161, 864,688.001z M0,64.001c0-70.719, 57.279-128.001, 128.001-128.001
	l 1248,0 c 70.719,0, 128.001,57.279, 128.001,128.001L 1503.999,1312.001 c0,70.719-57.279,128.001-128.001,128.001L 128.001,1439.999 C 57.279,1439.999,0,1382.72,0,1312.001L0,64.001 z M 320.001,688.001C 320.001,926.72, 513.279,1120.001, 752.001,1120.001S 1184.001,926.72, 1184.001,688.001
	S 990.72,256.001, 752.001,256.001S 320.001,449.279, 320.001,688.001z"  />
<glyph unicode="&#xe01c;" d="M 255.999,1040l0-159.999 c0-44.16, 35.841-80.001, 80.001-80.001s 80.001,35.841, 80.001,80.001l0,159.999 
	c0,44.16-35.841,80.001-80.001,80.001S 255.999,1084.16, 255.999,1040z M 543.999,1040l0-159.999 c0-44.16, 35.841-80.001, 80.001-80.001s 80.001,35.841, 80.001,80.001l0,159.999 c0,44.16-35.841,80.001-80.001,80.001
	S 543.999,1084.16, 543.999,1040z M 831.999,1040l0-159.999 c0-44.16, 35.841-80.001, 80.001-80.001s 80.001,35.841, 80.001,80.001l0,159.999 c0,44.16-35.841,80.001-80.001,80.001S 831.999,1084.16, 831.999,1040z M 1119.999,1040l0-159.999 
	c0-44.16, 35.841-80.001, 80.001-80.001s 80.001,35.841, 80.001,80.001l0,159.999 c0,44.16-35.841,80.001-80.001,80.001S 1119.999,1084.16, 1119.999,1040z M0,64.001c0-70.719, 57.279-128.001, 128.001-128.001l 1280.001,0 
	c 70.719,0, 128.001,57.279, 128.001,128.001L 1536,1343.999 c0,70.719-57.279,128.001-128.001,128.001L 128.001,1472 C 57.279,1472,0,1414.721,0,1343.999L0,64.001 z M 230.4,1216.001l 1075.2,0 c 39.039,0, 70.401-31.359, 70.401-70.401l0-499.2 c0-39.039-31.359-70.401-70.401-70.401
	L 1215.999,575.999 l0-121.599 c0-39.039-31.359-70.401-70.401-70.401L 960,383.999 l0-121.599 c0-39.039-31.359-70.401-70.401-70.401l-243.201,0 c-39.039,0-70.401,31.359-70.401,70.401L 576,383.999 l-185.601,0 c-39.039,0-70.401,31.359-70.401,70.401
	L 320.001,575.999 L 230.4,575.999 C 191.361,575.999, 159.999,607.361, 159.999,646.4L 159.999,1145.6 C 159.999,1184.639, 191.361,1216.001, 230.4,1216.001z"  />
<glyph unicode="&#xe01d;" d="M 639.999,544.001l0-159.999 l 255.999,0 l0,159.999 c0,70.719-57.279,128.001-128.001,128.001S 639.999,614.72, 639.999,544.001z M 416.001,944l0-159.999 
	c0-44.16, 35.841-80.001, 80.001-80.001s 80.001,35.841, 80.001,80.001l0,159.999 c0,44.16-35.841,80.001-80.001,80.001S 416.001,988.16, 416.001,944z M 960,944l0-159.999 c0-44.16, 35.841-80.001, 80.001-80.001
	s 80.001,35.841, 80.001,80.001l0,159.999 c0,44.16-35.841,80.001-80.001,80.001S 960,988.16, 960,944z M0,64.001c0-70.719, 57.279-128.001, 128.001-128.001l 1280.001,0 c 70.719,0, 128.001,57.279, 128.001,128.001L 1536,1343.999 c0,70.719-57.279,128.001-128.001,128.001
	L 128.001,1472 C 57.279,1472,0,1414.721,0,1343.999L0,64.001 z M 224.001,704c0,154.56, 31.359,301.44, 87.999,435.519l 3.201,8.001C 325.44,1169.279, 347.52,1184, 373.119,1184l 789.759,0 
	c 25.632,0, 47.679-14.721, 57.951-36.48l 3.201-8.001C 1280.64,1005.44, 1311.999,858.56, 1311.999,704s-31.359-301.44-87.999-435.519l-3.201-8.001
	C 1210.56,238.721, 1188.513,224, 1162.881,224L 373.119,224 c-25.599,0-47.679,14.721-57.921,36.48l-3.201,8.001C 255.36,402.56, 224.001,549.44, 224.001,704z"  />
<glyph unicode="&#xe01e;" d="M0,64.001c0-70.719, 57.279-128.001, 128.001-128.001l 1280.001,0 c 70.719,0, 128.001,57.279, 128.001,128.001L 1536,832.001 c0,70.719-57.279,128.001-128.001,128.001l-96,0 L 1311.999,1343.999 
	c0,70.719-57.279,128.001-128.001,128.001L 351.999,1472 C 281.28,1472, 224.001,1414.721, 224.001,1343.999l0-384 L 128.001,959.999 c-70.719,0-128.001-57.279-128.001-128.001L0,64.001 z M 1152,1241.6l0-371.199 c0-39.039-31.359-70.401-70.401-70.401L 454.401,800 
	c-39.039,0-70.401,31.359-70.401,70.401L 384,1241.6 C 384,1280.639, 415.359,1312.001, 454.401,1312.001l 627.201,0 C 1120.641,1312.001, 1152,1280.639, 1152,1241.6z M 1248,95.999L 288,95.999 c-35.199,0-63.999,28.8-63.999,63.999s 28.8,63.999, 63.999,63.999l 960,0 
	c 35.199,0, 63.999-28.8, 63.999-63.999S 1283.199,95.999, 1248,95.999z M 224.001,431.999C 224.001,476.159, 259.839,512, 303.999,512s 80.001-35.841, 80.001-80.001S 348.159,352.001, 303.999,352.001S 224.001,387.839, 224.001,431.999z"  />
<glyph unicode="&#xe01f;" d="M 864,592.001c0,44.16, 35.841,80.001, 80.001,80.001s 80.001-35.841, 80.001-80.001S 988.161,512, 944.001,512
	S 864,547.841, 864,592.001z M 944.001,800c-114.879,0-207.999-93.12-207.999-207.999s 93.12-207.999, 207.999-207.999s 207.999,93.12, 207.999,207.999S 1058.88,800, 944.001,800z M0,224
	c0-70.719, 57.279-128.001, 128.001-128.001l 1280.001,0 c 70.719,0, 128.001,57.279, 128.001,128.001L 1536,959.999 c0,70.719-57.279,128.001-128.001,128.001l-120,0 l-163.839,163.839C 1105.281,1270.721, 1080.639,1280, 1056,1280l-223.68,0 
	c-24.639,0-49.599-9.279-68.16-28.161L 600.96,1088L 480,1088 L 480,1160 C 480,1191.041, 455.040,1216.001, 423.999,1216.001l-207.999,0 C 184.959,1216.001, 159.999,1191.041, 159.999,1160L 159.999,1088 L 128.001,1088 c-70.719,0-128.001-57.279-128.001-128.001L0,224 z
	 M 416.001,800L 224.001,800 c-35.199,0-63.999,28.8-63.999,63.999c0,35.199, 28.8,63.999, 63.999,63.999l 192,0 c 35.199,0, 63.999-28.8, 63.999-63.999C 480,828.8, 451.2,800, 416.001,800z M 944.001,928.001C 1129.599,928.001, 1280.001,777.599, 1280.001,592.001
	S 1129.599,256.001, 944.001,256.001S 608.001,406.4, 608.001,592.001S 758.4,928.001, 944.001,928.001z"  />
<glyph unicode="&#xe020;" d="M 1088.001,1072.001c0-44.16, 35.841-80.001, 80.001-80.001s 80.001,35.841, 80.001,80.001S 1212.159,1151.999, 1167.999,1151.999
	S 1088.001,1116.161, 1088.001,1072.001z M 288,640.001l0-87.999 C 288,512.321, 320.319,479.999, 360,479.999L 1248,479.999 l-305.952,300.801c-25.599,25.599-66.561,25.599-92.127,0l-64.671-63.681l-163.233,159.681
	c-25.599,25.599-71.649,25.599-96.927,0L 288,640.001z M0,95.999c0-70.719, 57.279-128.001, 128.001-128.001l 1280.001,0 c 70.719,0, 128.001,57.279, 128.001,128.001L 1536,1312.001 c0,70.719-57.279,128.001-128.001,128.001L 128.001,1439.999 C 57.279,1439.999,0,1382.72,0,1312.001L0,95.999 z
	 M 230.4,1280l 1075.2,0 C 1344.639,1280, 1376.001,1248.641, 1376.001,1209.599l0-787.2 c0-39.039-31.359-70.401-70.401-70.401L 230.4,352.001 C 191.361,352.001, 159.999,383.36, 159.999,422.399L 159.999,1209.599 C 159.999,1248.641, 191.361,1280, 230.4,1280z"  />
<glyph unicode="&#xe021;" d="M 575.841,704c0-105.951, 86.049-192, 192-192s 192,86.049, 192,192l0,1.599 
	c-20.511-20.799-48.639-33.6-80.001-33.6c-61.791,0-111.999,50.241-111.999,111.999c0,44.481, 26.208,83.199, 63.681,101.121c-19.839,7.041-41.28,10.881-63.681,10.881
	C 661.92,896, 575.841,809.921, 575.841,704z M 1492.959,813.119C 1373.919,964.481, 1083.999,1216.001, 768.159,1216.001c-316.161,0-606.369-251.52-725.439-402.879
	c-26.88-34.56-41.601-72-42.561-109.119c 0.96-37.119, 15.681-74.559, 42.561-109.119C 161.793,443.489, 451.68,191.999, 767.841,191.999s 606.048,251.487, 725.121,402.879
	c 27.201,34.56, 41.919,72, 42.879,109.119C 1534.881,741.119, 1520.16,778.559, 1492.959,813.119z M 767.841,383.999c-176.64,0-320.001,143.361-320.001,320.001c0,176.64, 143.361,320.001, 320.001,320.001
	s 320.001-143.361, 320.001-320.001C 1087.839,527.36, 944.481,383.999, 767.841,383.999z"  />
<glyph unicode="&#xe022;" d="M 224.001,1472C 153.279,1472, 96,1414.721, 96,1343.999l0-1280.001 c0-70.719, 57.279-128.001, 128.001-128.001l 1056,0 c 70.719,0, 128.001,57.279, 128.001,128.001L 1407.999,575.999 l-57.6,0 
	c-39.039,0-70.401,31.359-70.401,70.401l0,179.199 c0,39.039, 31.359,70.401, 70.401,70.401L 1407.999,896 L 1407.999,1154.561 c0,42.879-16.959,80.961-44.16,108.48l-162.561,161.919C 1172.481,1454.081, 1132.161,1472, 1088.001,1472L 224.001,1472 z
	 M 384,1247.999l0-288 c0-35.199-28.8-63.999-63.999-63.999s-63.999,28.8-63.999,63.999L 255.999,1247.999 c0,35.199, 28.8,63.999, 63.999,63.999S 384,1283.201, 384,1247.999z M 672,1247.999l0-288 c0-35.199-28.8-63.999-63.999-63.999s-63.999,28.8-63.999,63.999L 543.999,1247.999 c0,35.199, 28.8,63.999, 63.999,63.999
	S 672,1283.201, 672,1247.999z M 960,1247.999l0-288 c0-35.199-28.8-63.999-63.999-63.999s-63.999,28.8-63.999,63.999L 831.999,1247.999 c0,35.199, 28.8,63.999, 63.999,63.999S 960,1283.201, 960,1247.999z M 326.4,448.001l 755.199,0 c 39.039,0, 70.401-31.359, 70.401-70.401l0-211.2 
	c0-39.039-31.359-70.401-70.401-70.401L 326.4,95.999 C 287.361,95.999, 255.999,127.361, 255.999,166.4l0,211.2 C 255.999,416.639, 287.361,448.001, 326.4,448.001z" />
<glyph unicode="&#xe023;" d="M 927.999,95.999l 249.6,0 c 39.039,0, 70.401,31.359, 70.401,70.401L 1248,352.001 c0,35.199, 28.8,63.999, 63.999,63.999l 153.6,0 
	c 39.039,0, 70.401,31.359, 70.401,70.401L 1536,1113.599 C 1536,1152.641, 1504.641,1184, 1465.599,1184L 927.999,1184 L 927.999,1216.001 c0,70.719-57.279,128.001-128.001,128.001l-96,0 L 704.001,1401.599 C 704.001,1440.641, 672.639,1472, 633.6,1472L 294.399,1472 
	C 255.36,1472, 224.001,1440.641, 224.001,1401.599L 224.001,1343.999 L 128.001,1343.999 C 57.279,1343.999,0,1286.72,0,1216.001l0-1152 c0-70.719, 57.279-128.001, 128.001-128.001l 672,0 c 70.719,0, 128.001,57.279, 128.001,128.001L 927.999,95.999 z M 1215.999,944c0,44.16, 35.841,80.001, 80.001,80.001
	s 80.001-35.841, 80.001-80.001S 1340.16,863.999, 1296,863.999S 1215.999,899.84, 1215.999,944z M 927.999,944c0,44.16, 35.841,80.001, 80.001,80.001s 80.001-35.841, 80.001-80.001S 1052.16,863.999, 1008,863.999
	S 927.999,899.84, 927.999,944z M 927.999,335.999c0,44.16, 35.841,80.001, 80.001,80.001s 80.001-35.841, 80.001-80.001S 1052.16,256.001, 1008,256.001S 927.999,291.839, 927.999,335.999z M 288,1120.001l0-960 
	c0-35.199-28.8-63.999-63.999-63.999s-63.999,28.8-63.999,63.999L 159.999,1120.001 c0,35.199, 28.8,63.999, 63.999,63.999S 288,1155.2, 288,1120.001z"  />
<glyph unicode="&#xe024;" d="M 288,191.999c0-70.719, 57.279-128.001, 128.001-128.001l 992.001,0 c 70.719,0, 128.001,57.279, 128.001,128.001L 1536,928.001 c0,70.719-57.279,128.001-128.001,128.001L 1023.999,1055.999 
	c-35.199,0-63.999,28.8-63.999,63.999s 28.8,63.999, 63.999,63.999l 432,0 C 1500.159,1184, 1536,1219.841, 1536,1264.001S 1500.159,1343.999, 1455.999,1343.999L 927.999,1343.999 c-59.841,0-113.952-40.641-128.001-96l-63.681-192l-130.881,0 
	c-42.879,0-80.961-16.959-108.48-44.16l-161.919-162.561C 305.919,820.481, 288,780.161, 288,736.001l0-96 L 159.999,640.001 l0,15.999 C 159.999,700.16, 124.161,736.001, 80.001,736.001S0,700.16,0,656l0-416.001 
	C0,195.839, 35.841,160.001, 80.001,160.001S 159.999,195.839, 159.999,239.999L 159.999,256.001 l 128.001,0 L 288,191.999 z M 710.4,544.001l 595.2,0 c 39.039,0, 70.401-31.359, 70.401-70.401l0-179.199 c0-39.039-31.359-70.401-70.401-70.401L 710.4,224 
	c-39.039,0-70.401,31.359-70.401,70.401l0,179.199 C 639.999,512.639, 671.361,544.001, 710.4,544.001z M 639.999,815.999c0,44.16, 35.841,80.001, 80.001,80.001s 80.001-35.841, 80.001-80.001S 764.16,736.001, 720,736.001
	S 639.999,771.839, 639.999,815.999z"  />
<glyph unicode="&#xe025;" d="M0,592.001C0,229.76, 293.76-64, 656.001-64C 1018.239-64, 1311.999,229.76, 1311.999,592.001
	c0,123.84-53.121,281.28-96,348.159c-37.119,57.279-49.953,94.080-49.953,147.84c0,111.999, 118.080,224.001, 241.953,224.001l 15.999,0 C 1468.161,1312.001, 1503.999,1347.839, 1503.999,1391.999S 1468.161,1472, 1424.001,1472L 1407.999,1472 
	c-196.8,0-365.121-104.961-405.12-320.001C 920.928,1214.081, 793.599,1247.999, 656.001,1247.999C 293.76,1247.999,0,954.239,0,592.001z M 576,592.001c0,44.16, 35.841,80.001, 80.001,80.001s 80.001-35.841, 80.001-80.001
	S 700.161,512, 656.001,512S 576,547.841, 576,592.001z M 159.999,592.001C 159.999,671.681, 224.319,736.001, 303.999,736.001s 144-64.32, 144-144S 383.679,448.001, 303.999,448.001S 159.999,512.321, 159.999,592.001z M 864,592.001
	c0,79.68, 64.32,144, 144,144s 144-64.32, 144-144S 1087.68,448.001, 1008,448.001S 864,512.321, 864,592.001z M 512.001,239.999c0,79.68, 64.32,144, 144,144s 144-64.32, 144-144
	S 735.681,95.999, 656.001,95.999S 512.001,160.319, 512.001,239.999z M 512.001,944c0,79.68, 64.32,144, 144,144s 144-64.32, 144-144S 735.681,800, 656.001,800S 512.001,864.32, 512.001,944z"  />
<glyph unicode="&#xe026;" d="M0,64.001c0-70.719, 57.279-128.001, 128.001-128.001l 1280.001,0 c 70.719,0, 128.001,57.279, 128.001,128.001L 1536,959.999 c0,70.719-57.279,128.001-128.001,128.001L 847.041,1088 
	l 249.921,249.921c 30.753,30.72, 30.753,80.319,0,111.039c-30.72,30.72-80.319,30.72-111.009,0L 624.639,1088l-1.599,0 l-264.96,264.96c-30.72,30.72-80.319,30.72-111.039,0
	c-30.72-30.72-30.72-80.319,0-111.039l 153.6-153.921L 128.001,1088 c-70.719,0-128.001-57.279-128.001-128.001L0,64.001 z M 230.4,928.001l 787.2,0 c 39.039,0, 70.401-31.359, 70.401-70.401l0-691.2 
	c0-39.039-31.359-70.401-70.401-70.401L 230.4,95.999 C 191.361,95.999, 159.999,127.361, 159.999,166.4L 159.999,857.6 C 159.999,896.639, 191.361,928.001, 230.4,928.001z M 1215.999,848c0,44.16, 35.841,80.001, 80.001,80.001
	s 80.001-35.841, 80.001-80.001S 1340.16,767.999, 1296,767.999S 1215.999,803.84, 1215.999,848z M 1215.999,592.001c0,44.16, 35.841,80.001, 80.001,80.001s 80.001-35.841, 80.001-80.001S 1340.16,512, 1296,512
	S 1215.999,547.841, 1215.999,592.001z"  />
<glyph unicode="&#xe027;" d="M 1040.001,1024.001c-114.879,0-207.999-93.12-207.999-207.999s 93.12-207.999, 207.999-207.999s 207.999,93.12, 207.999,207.999
	S 1154.88,1024.001, 1040.001,1024.001z M 1215.999,256.001l0-80.001 c0-44.16, 35.841-80.001, 80.001-80.001s 80.001,35.841, 80.001,80.001L 1376.001,256.001 l 32.001,0 c 70.719,0, 128.001,57.279, 128.001,128.001L 1536,815.999 C 1536,1089.92, 1313.952,1312.001, 1040.001,1312.001
	c-144.321,0-274.239-61.761-364.8-159.999L 128.001,1151.999 c-70.719,0-128.001-57.279-128.001-128.001l0-639.999 c0-70.719, 57.279-128.001, 128.001-128.001l 32.001,0 l0-80.001 C 159.999,131.84, 195.84,95.999, 240,95.999s 80.001,35.841, 80.001,80.001L 320.001,256.001 L 1215.999,256.001 z
	 M 159.999,911.999C 159.999,956.159, 195.84,992, 240,992s 80.001-35.841, 80.001-80.001S 284.16,832.001, 240,832.001S 159.999,867.839, 159.999,911.999z M 1040.001,1151.999C 1225.599,1151.999, 1376.001,1001.6, 1376.001,815.999
	S 1225.599,479.999, 1040.001,479.999S 704.001,630.401, 704.001,815.999S 854.4,1151.999, 1040.001,1151.999z"  />
<glyph unicode="&#xe028;" d="M 470.016,341.792c 24.672-67.488, 98.559-102.369, 165.441-77.76l 322.911,111.009l 45.759-191.007
	c 9.888-46.047, 75.489-87.999, 123.777-87.999l 183.999,0 c 35.199,0, 63.999-28.8, 63.999-64.032l0-15.999 c0-44.193, 35.871-80.001, 80.001-80.001c 44.193,0, 80.001,35.808, 80.001,80.001l0,160.032 l0,159.999 
	c0,44.127-35.808,80.001-80.001,80.001c-44.127,0-80.001-35.871-80.001-80.001l0-15.999 c0-35.199-28.8-63.999-63.999-63.999l-96,0 c-35.199,0-55.359,29.76-63.999,63.999l-28.512,111.681l 327.681,112.671
	c 66.879,24.639, 101.439,99.489, 77.121,167.361l-242.559,674.592c-24.321,67.521-98.241,102.432-165.12,77.76L 304.896,1183.775c-66.849-24.672-101.409-99.519-77.055-167.391
	l 55.041-153.279l-120.927-44.481l-5.793,15.36c-15.039,42.24-61.44,63.999-103.041,48.639c-41.952-15.36-63.36-62.079-48.321-104.673L 148.161,379.52
	c 15.039-42.561, 61.44-64.32, 103.329-48.927c 41.631,15.681, 63.327,62.367, 47.967,104.64L 288,464.033l 47.967,26.913l 58.881,15.072L 470.016,341.792z M 1023.936,1200.065
	c0,44.16, 35.871,80.001, 79.968,80.001c 44.193,0, 80.001-35.871, 80.001-80.001s-35.808-80.001-80.001-80.001C 1059.807,1120.064, 1023.936,1155.935, 1023.936,1200.065z"  />
<glyph unicode="&#xe029;" d="M 380.16,383.999l 406.719-397.44C 798.399-24.961, 814.401-31.999, 831.999-31.999c 35.199,0, 63.999,28.512, 63.999,63.36L 896.001,1376.639 
	C 896.001,1411.52, 867.201,1439.999, 831.999,1439.999c-17.952,0-34.239-7.359-45.792-19.2L 380.481,1024.001L 128.001,1024.001 c-70.719,0-128.001-57.279-128.001-128.001l0-384 c0-70.719, 57.279-128.001, 128.001-128.001L 380.16,383.999 z M 1256.001,1096.961
	c-30.72-30.399-30.72-80.001,0-110.721c 76.161-76.479, 123.489-181.761, 123.489-298.239c0-116.511-47.649-221.76-123.807-298.239c-30.753-30.72-30.753-80.319,0-110.721
	c 30.369-30.72, 80.001-30.72, 110.721,0C 1471.041,383.681, 1536,528.32, 1536,688.001c0,159.36-64.32,303.681-168.639,408.321l-0.672,0.639
	C 1335.999,1127.681, 1286.721,1127.681, 1256.001,1096.961z M 1189.761,455.999c 59.199,59.487, 95.679,141.441, 95.679,231.999s-36.513,172.479-95.679,231.999
	c-30.72,30.72-80.319,30.72-110.721,0c-30.72-30.399-30.72-80.001,0-110.721c 30.72-31.041, 49.92-73.92, 49.92-121.281c0-47.361-19.2-90.24-49.92-121.281
	c-30.72-30.72-30.72-80.001,0-110.721C 1109.439,425.6, 1159.041,425.279, 1189.761,455.999z"  />
<glyph unicode="&#xe02a;" d="M 480,514.241C 441.6,533.12, 398.079,544.001, 351.999,544.001c-159.039,0-288-128.961-288-288c0-159.072, 128.961-288, 288-288
	s 288,128.928, 288,288L 639.999,896 c0,35.199, 28.8,63.999, 63.999,63.999l 543.999,0 c 35.199,0, 63.999-28.8, 63.999-63.999l0-381.759 C 1273.599,533.12, 1230.048,544.001, 1184.001,544.001c-159.072,0-288-128.961-288-288c0-159.072, 128.928-288, 288-288
	s 288,128.928, 288,288L 1472.001,1337.6 C 1472.001,1376.639, 1440.639,1408.001, 1401.6,1408.001L 550.401,1408.001 C 511.359,1408.001, 480,1376.639, 480,1337.6L 480,514.241 z"  />
<glyph unicode="&#xe02b;" d="M 85.344,702.113c-63.681-29.76-91.2-105.249-61.407-168.927
	c 29.76-63.681, 105.279-90.879, 168.639-61.44l 287.679,134.049l0-381.759 c0-35.199-28.8-63.999-63.999-63.999l-176.001,0 c-44.16,0-80.001-35.841-80.001-80.001s 35.841-80.001, 80.001-80.001l 639.999,0 
	c 44.16,0, 80.001,35.841, 80.001,80.001s-35.841,80.001-80.001,80.001l-176.001,0 c-35.199,0-63.999,28.8-63.999,63.999l0,456.321 l 108.159,50.559c 99.519-91.2, 248.961-119.040, 379.839-59.199l 209.952,95.649
	c 171.489,78.399, 245.76,278.4, 165.759,446.721c-80.001,168-283.839,240.672-455.679,162.24l-209.952-95.679c-129.567-59.487-203.841-187.839-197.76-319.68L 85.344,702.113z
	 M 1152.225,1168.064c0,44.16, 35.841,80.001, 80.001,80.001s 80.001-35.841, 80.001-80.001s-35.841-80.001-80.001-80.001S 1152.225,1123.904, 1152.225,1168.064z"  />
<glyph unicode="&#xe02c;" d="M 288,335.999c0-44.193, 35.841-80.001, 80.001-80.001s 80.001,35.808, 80.001,80.001
	c0,44.127-35.841,80.001-80.001,80.001S 288,380.129, 288,335.999z M 1074.561,1088L 282.561,1435.487c-35.52,13.44-74.559-4.161-86.721-39.36c-12.48-35.199, 6.399-74.88, 41.919-88.32
	L 738.879,1088L 128.001,1088 c-70.719,0-128.001-57.279-128.001-128.001l0-864 c0-70.752, 57.279-128.001, 128.001-128.001l 1152,0 c 70.719,0, 128.001,57.249, 128.001,128.001L 1407.999,544.001 l 57.6,0 c 39.039,0, 70.401,31.359, 70.401,70.368l0,179.199 
	c0,39.039-31.359,70.401-70.401,70.401L 1407.999,863.969 l0,96 c0,70.719-57.279,128.001-128.001,128.001L 1074.561,1087.967 z M 230.4,928.001l 947.199,0 c 39.039,0, 70.401-31.359, 70.401-70.401l0-115.2 c0-39.039-31.359-70.401-70.401-70.401L 543.999,671.999 
	l-96,96l-96-96L 230.4,671.999 C 191.361,671.999, 159.999,703.328, 159.999,742.4l0,115.2 C 159.999,896.639, 191.361,928.001, 230.4,928.001z M 1088.001,464c0,44.127, 35.841,80.001, 80.001,80.001s 80.001-35.871, 80.001-80.001
	c0-44.193-35.841-80.001-80.001-80.001S 1088.001,419.807, 1088.001,464z M 159.999,335.999c0,114.879, 93.12,207.999, 207.999,207.999s 207.999-93.12, 207.999-207.999S 482.88,128, 368.001,128S 159.999,221.12, 159.999,335.999z"  />
<glyph unicode="&#xe02d;" d="M 672,1103.999c0-44.16, 35.841-80.001, 80.001-80.001s 80.001,35.841, 80.001,80.001S 796.161,1184, 752.001,1184
	S 672,1148.159, 672,1103.999z M 672,431.999c0,44.16, 35.841,80.001, 80.001,80.001s 80.001-35.841, 80.001-80.001S 796.161,352.001, 752.001,352.001S 672,387.839, 672,431.999z M 752.001,640.001
	c-114.879,0-207.999-93.12-207.999-207.999s 93.12-207.999, 207.999-207.999s 207.999,93.12, 207.999,207.999S 866.88,640.001, 752.001,640.001z M 159.999,64.001c0-70.719, 57.279-128.001, 128.001-128.001l 927.999,0 c 70.719,0, 128.001,57.279, 128.001,128.001L 1344,1343.999 
	c0,70.719-57.279,128.001-128.001,128.001L 288,1472 C 217.281,1472, 159.999,1414.721, 159.999,1343.999L 159.999,64.001 z M 617.601,740.159c 37.761,17.919, 63.999,56.961, 63.999,101.76c0,34.56-15.681,65.28-40.32,85.761
	C 582.72,964.481, 543.999,1029.761, 543.999,1103.999C 543.999,1218.881, 637.119,1312.001, 752.001,1312.001S 960,1218.881, 960,1103.999c0-71.040-35.841-134.079-90.24-171.519c-28.479-20.16-46.719-53.439-46.719-90.879
	c0-45.12, 26.559-84.159, 64.959-101.76l 2.559-1.281C 1007.040,685.76, 1088.001,568.319, 1088.001,431.999C 1088.001,246.401, 937.599,95.999, 752.001,95.999S 416.001,246.401, 416.001,431.999
	C 416.001,569.951, 498.879,688.319, 617.601,740.159z"  />
<glyph unicode="&#xe02e;" d="M0,112.001C0,67.841, 35.841,32, 80.001,32c 38.721,0, 71.040,27.489, 78.399,63.999L 159.999,95.999 c0,35.199, 28.8,63.999, 63.999,63.999
	s 63.999-28.8, 63.999-63.999l0-32.001 c0-70.719, 57.279-128.001, 128.001-128.001l 128.001,0 c 70.719,0, 128.001,57.279, 128.001,128.001L 672,544.001 c0,70.719-57.279,128.001-128.001,128.001l-128.001,0 c-70.719,0-128.001-57.279-128.001-128.001l0-32.001 c0-35.199-28.8-63.999-63.999-63.999s-63.999,28.8-63.999,63.999l0,192 
	C 159.999,1039.679, 432.321,1312.001, 768,1312.001s 608.001-272.319, 608.001-608.001l0-192 c0-35.199-28.8-63.999-63.999-63.999s-63.999,28.8-63.999,63.999l0,32.001 c0,70.719-57.279,128.001-128.001,128.001l-128.001,0 c-70.719,0-128.001-57.279-128.001-128.001l0-480 
	c0-70.719, 57.279-128.001, 128.001-128.001l 128.001,0 c 70.719,0, 128.001,57.279, 128.001,128.001l0,32.001 c0,35.199, 28.8,63.999, 63.999,63.999s 63.999-28.8, 63.999-63.999l 1.599,0 c 7.329-36.513, 39.681-63.999, 78.399-63.999c 44.16,0, 80.001,35.841, 80.001,80.001L 1536,704 
	C 1536,1128.32, 1192.32,1472, 768,1472S0,1128.32,0,704L0,112.001 z"  />
<glyph unicode="&#xe02f;" d="M 1023.999,704c0-53.121, 42.879-96, 96-96s 96,42.879, 96,96s-42.879,96-96,96S 1023.999,757.121, 1023.999,704z M 320.001,704
	c0-53.121, 42.879-96, 96-96s 96,42.879, 96,96s-42.879,96-96,96S 320.001,757.121, 320.001,704z M 906.879,767.999l-277.761,0 c 7.041-20.16, 10.881-41.601, 10.881-63.999s-3.84-43.839-10.881-63.999l 277.761,0 
	C 899.841,660.161, 896.001,681.599, 896.001,704S 899.841,747.839, 906.879,767.999z M0,256.001c0-70.719, 57.279-128.001, 128.001-128.001l 1280.001,0 c 70.719,0, 128.001,57.279, 128.001,128.001L 1536,1151.999 c0,70.719-57.279,128.001-128.001,128.001L 128.001,1280 
	c-70.719,0-128.001-57.279-128.001-128.001L0,256.001 z M 416.001,479.999c-123.84,0-224.001,100.161-224.001,224.001s 100.161,224.001, 224.001,224.001l 704.001,0 c 123.84,0, 224.001-100.161, 224.001-224.001s-100.161-224.001-224.001-224.001L 416.001,479.999 z"  />
<glyph unicode="&#xe030;" d="M 576,784.001c0-68.481, 39.039-127.68, 96-156.801L 672,160.001 c0-35.199-28.8-63.999-63.999-63.999l-176.001,0 
	c-44.16,0-80.001-35.841-80.001-80.001s 35.841-80.001, 80.001-80.001l 639.999,0 c 44.16,0, 80.001,35.841, 80.001,80.001S 1116.159,95.999, 1071.999,95.999L 896.001,95.999 c-35.199,0-63.999,28.8-63.999,63.999L 831.999,627.2 
	c 56.928,29.121, 96,88.32, 96,156.801c0,97.281-78.72,176.001-176.001,176.001S 576,881.279, 576,784.001z M 320.001,777.599c0-80.001, 21.441-154.881, 58.56-219.519l 4.8-7.329
	c 13.089-26.208, 39.999-44.16, 71.040-44.16c 44.16,0, 80.001,36.159, 80.001,80.928c0,15.36-4.191,29.793-11.52,41.952l-8.673,14.721
	C 492.48,683.84, 480,729.281, 480,777.599c0,151.68, 121.953,278.4, 272.001,278.4s 272.001-126.72, 272.001-278.4c0-48.321-12.513-93.759-34.239-133.44l-8.64-14.721
	c-7.359-12.159-11.52-26.559-11.52-41.952c0-44.769, 35.841-80.928, 80.001-80.928c 31.041,0, 57.921,17.952, 71.040,44.16l 4.8,7.329
	C 1162.56,622.721, 1184.001,697.601, 1184.001,777.599C 1184.001,1018.559, 990.72,1216.001, 752.001,1216.001S 320.001,1018.559, 320.001,777.599z M 63.999,777.599c0-156.48, 51.201-300.768, 137.952-416.961l 5.76-8.001
	C 222.048,332.801, 245.76,320, 272.001,320c 44.16,0, 80.001,36.159, 80.001,80.64c0,18.561-6.048,35.871-16.641,49.632l-6.081,8.319C 263.040,547.487, 224.001,657.953, 224.001,777.599
	C 224.001,1072.001, 460.479,1312.001, 752.001,1312.001C 1043.487,1312.001, 1280.001,1072.001, 1280.001,777.599c0-119.649-39.072-230.079-105.279-319.041l-6.081-8.319C 1158.048,436.511, 1152,419.201, 1152,400.64
	c0-44.481, 35.841-80.64, 80.001-80.64c 26.208,0, 49.953,12.801, 64.32,32.64l 5.76,8.001C 1388.799,476.801, 1440,621.119, 1440,777.599C 1440,1161.281, 1131.84,1472, 752.001,1472
	S 63.999,1161.281, 63.999,777.599z"  />
<glyph unicode="&#xe031;" d="M 857.952,936.959l-97.632-96.96L 369.279,1231.040c-11.52,11.52-27.201,18.561-44.799,18.561
	c-28.479,0-52.8-18.879-60.801-44.481L 260.16,1193.6C 236.799,1120.001, 224.001,1041.599, 224.001,959.999c0-190.401, 69.12-364.512, 183.681-498.561l-12.159-15.999c-56.319-56.001-88.641-127.041-96.639-200.319
	c-107.841-28.191-193.599-108.192-227.52-211.2c0,0-7.359-19.521-7.359-33.951c0-35.199, 29.439-63.999, 65.601-63.999l 508.8,0 c 36.159,0, 65.601,28.8, 65.601,63.999
	c0,20.16-8.961,38.4-8.961,38.4c-35.841,103.329-123.84,182.721-233.601,208.641c 7.041,31.359, 22.719,61.119, 47.040,85.473l 14.721,19.2C 652.8,251.489, 815.361,191.999, 992.001,191.999
	c 80.319,0, 157.761,12.159, 230.4,35.199c 3.519,0.96, 16.32,6.399, 16.32,6.399c 24.351,8.961, 41.919,32.352, 41.919,59.841c0,17.952-7.329,34.239-19.488,45.759L 1251.201,348.8
	L 871.68,728.639l 97.248,97.281c 30.753,30.72, 30.753,80.319,0,111.039C 938.241,967.679, 888.639,967.679, 857.952,936.959z M 1088.001,880.001c0-44.16, 35.841-80.001, 80.001-80.001
	s 80.001,35.841, 80.001,80.001L 1247.679,896c-3.84,80.64-36.513,159.999-98.241,221.439C 1088.001,1179.2, 1008.639,1211.84, 927.999,1215.68L 912,1216.001C 867.84,1216.001, 831.999,1180.16, 831.999,1136
	s 35.841-80.001, 80.001-80.001c 5.439,0, 15.999-0.639, 15.999-0.639c 39.681-3.84, 78.048-20.481, 108.513-50.88c 30.369-30.399, 47.007-68.799, 50.559-108.48
	C 1087.071,896, 1088.001,885.44, 1088.001,880.001z M 1344,880.001c0-44.16, 35.841-80.001, 80.001-80.001s 80.001,35.841, 80.001,80.001L 1503.681,896c-3.84,146.241-61.44,291.201-173.121,402.561
	C 1219.2,1410.239, 1074.24,1467.839, 927.999,1471.679L 912,1472C 867.84,1472, 831.999,1436.159, 831.999,1391.999S 867.84,1312.001, 912,1312.001L 927.999,1311.68c 105.279-3.84, 209.28-46.080, 289.599-126.081
	c 80.001-80.319, 122.241-184.32, 126.081-289.599L 1344,880.001z"  />
<glyph unicode="&#xe032;" d="M 224.001,64.001c0-70.719, 57.279-128.001, 128.001-128.001l 800.001,0 c 70.719,0, 128.001,57.279, 128.001,128.001L 1280.001,1343.999 c0,70.719-57.279,128.001-128.001,128.001L 351.999,1472 
	C 281.28,1472, 224.001,1414.721, 224.001,1343.999L 224.001,64.001 z M 454.401,1312.001l 595.2,0 C 1088.64,1312.001, 1119.999,1280.639, 1119.999,1241.6l0-211.2 c0-39.039-31.359-70.401-70.401-70.401L 454.401,959.999 c-39.039,0-70.401,31.359-70.401,70.401L 384,1241.6 
	C 384,1280.639, 415.359,1312.001, 454.401,1312.001z M 384,752c0,44.16, 35.841,80.001, 80.001,80.001s 80.001-35.841, 80.001-80.001S 508.161,671.999, 464.001,671.999S 384,707.84, 384,752z M 672,752
	c0,44.16, 35.841,80.001, 80.001,80.001s 80.001-35.841, 80.001-80.001S 796.161,671.999, 752.001,671.999S 672,707.84, 672,752z M 960,752c0,44.16, 35.841,80.001, 80.001,80.001s 80.001-35.841, 80.001-80.001
	S 1084.161,671.999, 1040.001,671.999S 960,707.84, 960,752z M 384,464c0,44.16, 35.841,80.001, 80.001,80.001s 80.001-35.841, 80.001-80.001S 508.161,383.999, 464.001,383.999S 384,419.84, 384,464z
	 M 672,464c0,44.16, 35.841,80.001, 80.001,80.001s 80.001-35.841, 80.001-80.001S 796.161,383.999, 752.001,383.999S 672,419.84, 672,464z M 960,464c0,44.16, 35.841,80.001, 80.001,80.001
	s 80.001-35.841, 80.001-80.001S 1084.161,383.999, 1040.001,383.999S 960,419.84, 960,464z M 384,176c0,44.16, 35.841,80.001, 80.001,80.001s 80.001-35.841, 80.001-80.001S 508.161,95.999, 464.001,95.999
	S 384,131.84, 384,176z M 672,176c0,44.16, 35.841,80.001, 80.001,80.001s 80.001-35.841, 80.001-80.001S 796.161,95.999, 752.001,95.999S 672,131.84, 672,176z M 960,176
	c0,44.16, 35.841,80.001, 80.001,80.001s 80.001-35.841, 80.001-80.001S 1084.161,95.999, 1040.001,95.999S 960,131.84, 960,176z"  />
<glyph unicode="&#xe033;" d="M 288-64l 768,0 c 44.16,0, 84.513,17.952, 113.28,47.040l 162.561,161.919
	C 1359.072,172.511, 1376.001,210.56, 1376.001,253.439L 1376.001,1343.999 c0,70.719-57.279,128.001-128.001,128.001L 288,1472 C 217.281,1472, 159.999,1414.721, 159.999,1343.999l0-1280.001 C 159.999-6.721, 217.281-64, 288-64z M 390.399,1312.001l 755.199,0 
	C 1184.64,1312.001, 1215.999,1280.639, 1215.999,1241.6l0-339.201 c0-39.039-31.359-70.401-70.401-70.401L 390.399,832.001 c-39.039,0-70.401,31.359-70.401,70.401L 320.001,1241.6 C 320.001,1280.639, 351.36,1312.001, 390.399,1312.001z M 576,572.801L 576,479.999 l 92.799,0 
	c 37.119,0, 67.2-28.8, 67.2-63.999s-30.081-63.999-67.2-63.999L 576,352.001 l0-92.799 c0-37.119-28.8-67.2-63.999-67.2s-63.999,30.048-63.999,67.2L 447.999,352.001 l-92.799,0 C 318.081,352.001, 288,380.801, 288,416s 30.081,63.999, 67.2,63.999L 447.999,479.999 l0,92.799 
	c0,37.119, 28.8,67.2, 63.999,67.2S 576,609.953, 576,572.801z M 1056,527.999c0,44.16, 35.841,80.001, 80.001,80.001s 80.001-35.841, 80.001-80.001S 1180.161,448.001, 1136.001,448.001S 1056,483.839, 1056,527.999z
	 M 896.001,335.999c0,44.16, 35.841,80.001, 80.001,80.001s 80.001-35.841, 80.001-80.001S 1020.159,256.001, 975.999,256.001S 896.001,291.839, 896.001,335.999z"  />
<glyph unicode="&#xe034;" d="M 639.999,1135.103c-91.839,89.919-305.919,126.081-426.561-3.201C 95.361,1005.824,0,701.855,0,415.103
	c0-345.951, 289.92-393.951, 447.999-224.001c 91.521,98.559, 100.161,113.952, 159.999,192l 320.001,0 c 60.159-78.048, 68.481-93.441, 159.999-192c 158.049-169.953, 447.999-121.953, 447.999,224.001
	c0,286.752-95.361,590.721-213.441,716.799c-120.639,129.279-334.401,93.12-426.561,3.201c-35.52-34.56-128.001-48-128.001-48S 675.519,1100.543, 639.999,1135.103z M 512.001,923.903l0-92.769 
	l 92.799,0 c 37.119,0, 67.2-28.8, 67.2-64.032c0-35.199-30.081-63.999-67.2-63.999L 512.001,703.103 l0-92.769 c0-37.152-28.8-67.233-63.999-67.233s-63.999,30.048-63.999,67.233l0,92.769 L 291.201,703.103 
	c-37.119,0-67.2,28.8-67.2,63.999c0,35.232, 30.081,64.032, 67.2,64.032L 384,831.137 l0,92.769 c0,37.119, 28.8,67.2, 63.999,67.2S 512.001,961.025, 512.001,923.903z M 1088.001,879.104
	c0,44.16, 35.841,80.001, 80.001,80.001s 80.001-35.841, 80.001-80.001s-35.841-80.001-80.001-80.001S 1088.001,834.944, 1088.001,879.104z M 927.999,687.104c0,44.193, 35.841,80.001, 80.001,80.001
	s 80.001-35.808, 80.001-80.001c0-44.127-35.841-80.001-80.001-80.001S 927.999,642.977, 927.999,687.104z"  />
<glyph unicode="&#xe035;" d="M 672,688.001c0,44.16, 35.841,80.001, 80.001,80.001s 80.001-35.841, 80.001-80.001S 796.161,608, 752.001,608
	S 672,643.841, 672,688.001z M 752.001,896c-114.879,0-207.999-93.12-207.999-207.999s 93.12-207.999, 207.999-207.999s 207.999,93.12, 207.999,207.999S 866.88,896, 752.001,896z M 213.12,535.040
	c 12.159-43.2, 29.439-84.159, 51.201-122.208l-96-104.961c-27.489-27.519-27.489-72,0-99.519l 104.001-104.001c 27.519-27.489, 72-27.489, 99.519,0l 104.961,96
	c 38.049-21.759, 79.041-39.039, 122.208-51.201L 608.001,6.401c0-39.039, 31.359-70.401, 70.401-70.401l 147.201,0 c 39.039,0, 70.401,31.359, 70.401,70.401l 8.928,142.719
	c 43.233,12.159, 84.192,29.439, 122.241,51.201l 104.961-96c 27.519-27.489, 72-27.489, 99.519,0l 104.001,104.001c 27.489,27.519, 27.489,72,0,99.519l-96,104.961
	c 21.759,38.049, 39.039,79.041, 51.201,122.208L 1433.601,544.001c 39.039,0, 70.401,31.359, 70.401,70.401l0,147.201 c0,39.039-31.359,70.401-70.401,70.401l-142.719,8.961
	c-12.159,43.2-29.439,84.159-51.201,122.241l 96,104.961c 27.489,27.519, 27.489,72,0,99.519l-104.001,104.001c-27.519,27.519-72,27.519-99.519,0l-104.961-96
	c-38.049,21.759-79.041,39.039-122.241,51.201L 896.001,1369.601C 896.001,1408.64, 864.639,1439.999, 825.6,1439.999l-147.201,0 C 639.36,1439.999, 608.001,1408.64, 608.001,1369.601l-8.961-142.719
	c-43.2-12.159-84.159-29.439-122.208-51.201l-104.961,96c-27.519,27.519-72,27.519-99.519,0L 168.321,1167.68c-27.489-27.519-27.489-72,0-99.519l 96-104.961
	c-21.759-38.079-39.039-79.041-51.201-122.241L 70.401,832.001C 31.359,832.001,0,800.639,0,761.6l0-147.201 C0,575.36, 31.359,544.001, 70.401,544.001L 213.12,535.040z M 752.001,1024.001
	C 937.599,1024.001, 1088.001,873.599, 1088.001,688.001S 937.599,352.001, 752.001,352.001S 416.001,502.4, 416.001,688.001S 566.4,1024.001, 752.001,1024.001z"  />
<glyph unicode="&#xe036;" d="M 288.321,1092.479L 288.321,1088 c 10.239-281.601, 62.721-533.439, 86.721-558.048
	c 55.68-74.241, 228.159-196.512, 325.44-257.952c 24-15.36, 44.481-18.24, 67.521-18.879c 23.040,0.639, 43.488,4.479, 67.488,18.879
	c 99.231,58.56, 273.951,183.681, 329.313,257.952C 1189.119,554.561, 1237.761,806.399, 1248,1088l 0.321,4.479c0,25.92-16.641,48.321-39.681,56.64
	C 1088.001,1191.041, 911.361,1202.24, 768.321,1202.24c-143.361,0-320.001-11.199-440.319-53.121C 304.929,1140.8, 288.321,1118.399, 288.321,1092.479z M0,1277.12l 0.321-7.041
	C 16.641,819.521, 88.929,423.359, 128.001,383.999c 89.601-119.073, 375.999-303.999, 530.88-405.12c 36.801-24, 72-41.952, 109.119-42.879c 37.119,0.927, 72.321,18.879, 109.119,42.879
	C 1032,80, 1318.401,264.929, 1407.999,383.999c 39.039,39.36, 111.36,435.519, 127.68,886.080L 1536,1277.12c0,41.601-26.88,77.76-63.999,90.879C 1277.76,1435.199, 999.039,1472, 768,1472
	C 536.928,1472, 258.207,1435.199, 63.999,1367.999C 26.88,1354.88,0,1318.721,0,1277.12z M 155.199,1172.48c0,33.279, 21.441,61.761, 50.88,72.321C 359.679,1297.919, 585.279,1312.001, 768,1312.001
	s 408.321-14.079, 561.951-67.2c 29.439-10.56, 50.88-39.039, 50.88-72.321L 1380.48,1167.041C 1367.361,810.239, 1305.6,486.401, 1274.559,455.039
	c-71.073-94.080-297.633-245.088-420.159-325.089C 825.279,111.041, 797.439,96.641, 768,95.999c-29.439,0.639-57.279,15.039-86.4,33.951
	c-122.559,80.001-349.119,231.009-420.159,325.089C 230.4,486.401, 168.639,810.239, 155.487,1167.041L 155.199,1172.48z"  />
<glyph unicode="&#xe037;" d="M 384,64.001c0-70.719, 57.279-128.001, 128.001-128.001l 480,0 c 70.719,0, 128.001,57.279, 128.001,128.001l0,37.44 
	c0,30.048, 20.799,55.359, 48.927,62.049C 1322.559,187.199, 1440,320, 1440,479.999c0,72-23.679,138.561-63.999,192l0,218.88 C 1376.001,1211.84, 1096.641,1472, 752.001,1472S 128.001,1211.84, 128.001,890.879L 128.001,671.999 
	c-40.32-53.439-63.999-120-63.999-192c0-159.999, 117.441-292.8, 271.041-316.512c 28.161-6.687, 48.96-32.001, 48.96-62.049L 384,64.001 z M 320.001,704c0,88.32, 71.679,159.999, 159.999,159.999s 159.999-71.679, 159.999-159.999
	s-71.679-159.999-159.999-159.999S 320.001,615.68, 320.001,704z M 864,704c0,88.32, 71.679,159.999, 159.999,159.999s 159.999-71.679, 159.999-159.999s-71.679-159.999-159.999-159.999S 864,615.68, 864,704z M 594.207,362.24l 112.671,112.641
	c 24.96,24.96, 65.28,24.96, 90.24,0l 112.641-112.641c 24.321-24.321, 24.321-63.681,0-87.999s-63.681-24.321-87.999,0l-69.759,69.759l-69.792-69.759
	c-24.288-24.321-63.648-24.321-87.999,0C 569.952,298.559, 569.952,337.952, 594.207,362.24z"  />
<glyph unicode="&#xe038;" d="M0,431.999C0,387.839, 35.841,352.001, 80.001,352.001S 159.999,387.839, 159.999,431.999l0,73.599 C 159.999,544.64, 191.361,575.999, 230.4,575.999
	l 28.161,0 C 256.959,561.281, 255.999,545.951, 255.999,530.24c0-62.4, 11.841-121.953, 33.279-176.673L 192,248.927C 173.76,229.439, 159.999,186.239, 159.999,160.001l0-144 C 159.999-28.159, 195.84-64, 240-64
	s 80.001,35.841, 80.001,80.001l0,97.953 c0,14.367, 4.161,27.489, 11.52,38.688l 48.96,52.191c 61.44-69.441, 131.52-140.193, 235.2-168.321
	c 2.241-0.993, 4.8-1.632, 7.359-2.241C 628.479,32.639, 634.239,32, 639.999,32c 35.199,0, 63.999,28.8, 63.999,63.999L 704.001,640.001 c0,35.199, 28.8,63.999, 63.999,63.999c 35.199,0, 63.999-28.8, 63.999-63.999l0-543.999 
	c0-35.199, 28.8-63.999, 63.999-63.999c 6.72,0, 13.44,0.927, 19.839,3.201l 8.001,2.241c 99.231,27.489, 170.88,98.559, 231.648,167.361l 48.993-52.191
	C 1211.841,141.44, 1215.999,128.321, 1215.999,113.951L 1215.999,16.001 c0-44.16, 35.841-80.001, 80.001-80.001s 80.001,35.841, 80.001,80.001L 1376.001,160.001 c0,26.241-13.761,69.441-32.001,88.929l-97.281,104.673
	C 1268.16,408.32, 1280.001,467.84, 1280.001,530.24c0,15.681-0.927,31.041-2.559,45.759l 28.161,0 c 39.039,0, 70.401-31.359, 70.401-70.401l0-73.599 c0-44.16, 35.841-80.001, 80.001-80.001
	s 80.001,35.841, 80.001,80.001L 1536,575.999 c0,88.32-71.679,159.999-159.999,159.999l-150.72,0 c-14.4,26.88-30.72,52.8-47.328,78.72L 1311.999,959.999c 18.24,19.521, 32.001,65.28, 32.001,96L 1344,1199.999 
	C 1344,1244.159, 1308.159,1280, 1263.999,1280S 1184.001,1244.159, 1184.001,1199.999l0-105.6 c0-14.4-4.161-27.519-11.487-38.721l-86.079-92.16C 1050.561,1033.28, 1023.999,1112.96, 1023.999,1216.001
	c0,119.361-81.6,219.519-192,248.001L 831.999,1312.001 c0-35.199-28.8-63.999-63.999-63.999c-35.199,0-63.999,28.8-63.999,63.999L 704.001,1463.999 C 593.601,1435.52, 512.001,1335.359, 512.001,1216.001c0-102.72-26.88-182.079-62.721-251.841l-85.761,91.521
	C 356.16,1066.88, 351.999,1079.999, 351.999,1094.399L 351.999,1199.999 C 351.999,1244.159, 316.161,1280, 272.001,1280S 192,1244.159, 192,1199.999L 192,1055.999 c0-30.72, 13.761-76.479, 32.001-96l 133.44-144.639
	c-16.959-25.92-32.961-52.161-47.361-79.359L 159.999,736.001 c-88.32,0-159.999-71.679-159.999-159.999L0,431.999 z"  />
<glyph unicode="&#xe039;" d="M 752.001,1439.999C 707.841,1439.999, 672,1404.161, 672,1360.001l0-117.441 c-44.481-6.399-87.36-18.24-128.001-34.239l-58.56,101.76
	c-22.401,38.079-71.040,51.201-109.44,29.121s-51.519-71.040-29.439-109.119l 58.881-102.081c-34.56-27.519-65.919-58.881-93.441-93.441l-102.081,58.881
	c-38.079,22.080-87.039,8.961-109.119-29.439s-8.961-87.039, 29.121-109.44l 101.76-58.881c-15.999-40.32-27.84-83.199-34.239-127.68L 80.001,767.999 C 35.841,767.999,0,732.161,0,688.001
	S 35.841,608, 80.001,608l 117.441,0 c 6.399-44.511, 18.24-87.36, 34.239-127.68l-101.76-58.881c-38.079-22.401-51.201-71.040-29.121-109.44s 71.040-51.489, 109.119-29.439l 102.081,58.881
	c 27.519-34.56, 58.881-65.952, 93.441-93.441l-58.881-102.048c-22.080-38.079-8.961-87.072, 29.439-109.119c 38.4-22.080, 87.039-8.961, 109.44,29.121L 543.999,167.681
	c 40.641-15.999, 83.52-27.84, 128.001-34.239l0-117.441 c0-44.16, 35.841-80.001, 80.001-80.001s 80.001,35.841, 80.001,80.001l0,117.441 c 44.511,6.399, 87.36,18.24, 128.001,34.239l 58.56-101.76
	c 22.368-38.079, 71.040-51.231, 109.44-29.121c 38.4,22.047, 51.489,71.040, 29.439,109.119l-58.881,102.048c 34.56,27.489, 65.952,58.881, 93.441,93.441l 102.048-58.881
	c 38.079-22.047, 87.072-8.961, 109.119,29.439c 22.080,38.4, 8.961,87.039-29.121,109.44l-101.76,58.881c 15.999,40.32, 27.84,83.199, 34.239,127.68l 117.441,0 
	c 44.16,0, 80.001,35.841, 80.001,80.001S 1468.161,767.999, 1424.001,767.999l-117.441,0 c-6.399,44.481-18.24,87.36-34.239,127.68l 101.76,58.881c 38.079,22.401, 51.231,71.040, 29.121,109.44
	c-22.047,38.4-71.040,51.519-109.119,29.439l-102.048-58.881c-27.489,34.56-58.881,65.919-93.441,93.441l 58.881,102.081c 22.047,38.079, 8.961,87.039-29.439,109.119
	s-87.072,8.961-109.44-29.121L 960,1208.321c-40.641,15.999-83.487,27.84-128.001,34.239L 831.999,1360.001 C 831.999,1404.161, 796.161,1439.999, 752.001,1439.999z M 543.999,512c0,88.32, 71.679,159.999, 159.999,159.999s 159.999-71.679, 159.999-159.999
	s-71.679-159.999-159.999-159.999S 543.999,423.68, 543.999,512z M 864,815.999c0,61.761, 50.241,111.999, 111.999,111.999s 111.999-50.241, 111.999-111.999c0-61.761-50.241-111.999-111.999-111.999S 864,754.241, 864,815.999z
	 M 608.001,976.001c0,44.16, 35.841,80.001, 80.001,80.001s 80.001-35.841, 80.001-80.001S 732.159,896, 687.999,896S 608.001,931.841, 608.001,976.001z"  />
<glyph unicode="&#xe03a;" d="M0,704c0-424.32, 343.68-768, 768-768s 768,343.68, 768,768S 1192.32,1472, 768,1472S0,1128.32,0,704z
	 M 159.999,704c0,49.281, 5.76,97.281, 16.959,143.040L 320.001,704l-32.001-192l 128.001-128.001l0-175.68 C 261.12,318.401, 159.999,499.487, 159.999,704z M 628.161,1295.681C 672.96,1306.559, 719.679,1312.001, 768,1312.001
	c 53.439,0, 105.279-7.041, 154.56-19.839L 896.001,1247.999l 32.001-32.001l 96,0 l 26.559,26.559c 22.368-11.841, 43.488-24.639, 63.999-39.039L 1056,1184l-63.999-63.999l 63.999-32.001l0-32.001 l-63.999,0 l0-63.999 c0,0, 44.16-32.001, 96-32.001
	c 50.88,0, 28.161,70.080, 63.999,96c 36.159,25.92, 80.001,20.16, 80.001,20.16l 20.799-5.439c 39.039-51.519, 70.047-109.119, 91.2-171.519L 1344,896 c0,0-45.12,32.001-128.001,32.001s-159.999-32.001-159.999-32.001
	s-90.24-26.241-96-96c-9.951-120, 32.001-159.999, 32.001-159.999l 159.999-96l0-311.361 C 1047.36,147.2, 913.599,95.999, 768,95.999c-68.799,0-134.721,11.199-196.479,32.319L 735.999,512l-32.001,159.999c0,0-127.041,159.999-192,159.999
	s-96-96-96-96l-63.999,128.001l 192,128.001l 96,255.999L 628.161,1295.681z"  />
<glyph unicode="&#xe03b;" d="M0,688.001C0,272.639, 336.639-64, 752.001-64C 1167.36-64, 1503.999,272.639, 1503.999,688.001
	C 1503.999,1103.36, 1167.36,1439.999, 752.001,1439.999C 336.639,1439.999,0,1103.36,0,688.001z M 159.999,688.001c0,38.4, 3.519,75.84, 10.56,111.999l 153.6,0 C 321.279,768.32, 320.001,736.319, 320.001,704
	s 1.281-64.32, 4.161-96L 165.12,608 C 161.601,634.241, 159.999,660.8, 159.999,688.001z M 226.239,959.999c 46.719,90.561, 116.16,167.361, 200.961,223.041c-33.6-70.719-59.841-145.281-78.081-223.041L 226.239,959.999 z
	 M 667.2,1273.919L 672,1274.561L 672,959.999 l-157.44,0 C 546.24,1074.56, 598.401,1180.799, 667.2,1273.919z M 831.999,1274.561l 4.479-0.639c 68.799-93.12, 121.281-199.359, 152.961-313.92L 831.999,959.999 L 831.999,1274.561 z
	 M 1076.481,1183.040c 84.801-55.68, 154.56-132.48, 201.279-223.041l-123.201,0 C 1136.64,1037.759, 1110.048,1112.321, 1076.481,1183.040z M 1333.44,800c 7.041-36.159, 10.56-73.599, 10.56-111.999
	c0-27.201-1.953-53.76-5.439-80.001l-158.4,0 c 2.559,31.68, 3.84,63.681, 3.84,96s-1.281,64.32-3.84,96L 1333.44,800 z M 1293.441,448.001c-50.241-112.959-134.721-207.36-240.321-269.76
	c 44.799,84.159, 79.041,174.687, 101.439,269.76L 1293.441,448.001 z M 450.879,178.241C 345.279,240.641, 260.799,335.039, 210.561,448.001l 138.879,0 C 371.841,352.928, 406.080,262.049, 450.879,178.241z
	 M 484.8,800L 672,800 l0-192 l-187.2,0 c-3.201,31.68-4.8,63.681-4.8,96S 481.599,768.32, 484.8,800z M 831.999,800l 187.2,0 C 1022.4,768.32, 1023.999,736.319, 1023.999,704s-1.599-64.32-4.8-96
	L 831.999,608 L 831.999,800 z M 514.56,448.001L 672,448.001 l0-320.001 C 600.96,222.719, 546.879,330.881, 514.56,448.001z M 831.999,448.001l 157.44,0 c-32.319-117.12-86.4-225.279-157.44-320.001L 831.999,448.001 z"  />
<glyph unicode="&#xe03c;" d="M 66.561,1405.409c-104.001-104.001-66.879-323.841, 74.88-570.24C 132.48,792.929, 128.001,749.12, 128.001,704
	c0-353.601, 286.401-639.999, 639.999-639.999c 45.12,0, 88.929,4.512, 131.199,13.44c 246.399-141.759, 466.239-178.881, 570.24-74.88s 66.879,323.808-74.88,570.24
	C 1403.487,615.008, 1407.999,658.88, 1407.999,704c0,353.601-286.401,639.999-639.999,639.999c-45.12,0-88.959-4.512-131.199-13.44C 390.399,1472.288, 170.559,1509.407, 66.561,1405.409z M 1342.719,109.121
	C 955.839-14.752-17.952,1092.767, 180.48,1291.487c 46.080,45.792, 143.361,25.953, 264-35.199c-53.439-31.359-101.439-70.080-143.328-114.879
	C 436.161,802.847, 871.68,370.559, 1211.199,242.24c 43.839,41.889, 81.633,90.24, 111.999,143.328C 1373.76,275.807, 1386.561,178.241, 1342.719,109.121z"  />
<glyph unicode="&#xe03d;" d="M 224.001,64.001c0-70.719, 57.279-128.001, 128.001-128.001l 800.001,0 c 70.719,0, 128.001,57.279, 128.001,128.001L 1280.001,1216.001 c0,70.719-57.279,128.001-128.001,128.001l-159.999,0 L 992.001,1401.599 
	C 992.001,1440.641, 960.639,1472, 921.6,1472L 582.399,1472 C 543.36,1472, 512.001,1440.641, 512.001,1401.599L 512.001,1343.999 l-159.999,0 C 281.28,1343.999, 224.001,1286.72, 224.001,1216.001L 224.001,64.001 z"  />
<glyph unicode="&#xe03e;" d="M 224.001,64.001c0-70.719, 57.279-128.001, 128.001-128.001l 800.001,0 c 70.719,0, 128.001,57.279, 128.001,128.001L 1280.001,1216.001 c0,70.719-57.279,128.001-128.001,128.001l-159.999,0 L 992.001,1401.599 
	C 992.001,1440.641, 960.639,1472, 921.6,1472L 582.399,1472 C 543.36,1472, 512.001,1440.641, 512.001,1401.599L 512.001,1343.999 l-159.999,0 C 281.28,1343.999, 224.001,1286.72, 224.001,1216.001L 224.001,64.001 z M 454.401,352.001l 595.2,0 c 39.039,0, 70.401-31.359, 70.401-70.401l0-115.2 
	c0-39.039-31.359-70.401-70.401-70.401L 454.401,95.999 c-39.039,0-70.401,31.359-70.401,70.401l0,115.2 C 384,320.639, 415.359,352.001, 454.401,352.001z"  />
<glyph unicode="&#xe03f;" d="M 224.001,64.001c0-70.719, 57.279-128.001, 128.001-128.001l 800.001,0 c 70.719,0, 128.001,57.279, 128.001,128.001L 1280.001,1216.001 c0,70.719-57.279,128.001-128.001,128.001l-159.999,0 L 992.001,1401.599 
	C 992.001,1440.641, 960.639,1472, 921.6,1472L 582.399,1472 C 543.36,1472, 512.001,1440.641, 512.001,1401.599L 512.001,1343.999 l-159.999,0 C 281.28,1343.999, 224.001,1286.72, 224.001,1216.001L 224.001,64.001 z M 454.401,352.001l 595.2,0 c 39.039,0, 70.401-31.359, 70.401-70.401l0-115.2 
	c0-39.039-31.359-70.401-70.401-70.401L 454.401,95.999 c-39.039,0-70.401,31.359-70.401,70.401l0,115.2 C 384,320.639, 415.359,352.001, 454.401,352.001z M 454.401,767.999l 595.2,0 c 39.039,0, 70.401-31.359, 70.401-70.401
	l0-115.2 c0-39.039-31.359-70.401-70.401-70.401L 454.401,512 c-39.039,0-70.401,31.359-70.401,70.401l0,115.2 C 384,736.64, 415.359,767.999, 454.401,767.999z"  />
<glyph unicode="&#xe040;" d="M 224.001,64.001c0-70.719, 57.279-128.001, 128.001-128.001l 800.001,0 c 70.719,0, 128.001,57.279, 128.001,128.001L 1280.001,1216.001 c0,70.719-57.279,128.001-128.001,128.001l-159.999,0 L 992.001,1401.599 
	C 992.001,1440.641, 960.639,1472, 921.6,1472L 582.399,1472 C 543.36,1472, 512.001,1440.641, 512.001,1401.599L 512.001,1343.999 l-159.999,0 C 281.28,1343.999, 224.001,1286.72, 224.001,1216.001L 224.001,64.001 z M 454.401,1184l 595.2,0 c 39.039,0, 70.401-31.359, 70.401-70.401l0-115.2 
	c0-39.039-31.359-70.401-70.401-70.401L 454.401,928.001 c-39.039,0-70.401,31.359-70.401,70.401l0,115.2 C 384,1152.641, 415.359,1184, 454.401,1184z M 454.401,352.001l 595.2,0 c 39.039,0, 70.401-31.359, 70.401-70.401l0-115.2 
	c0-39.039-31.359-70.401-70.401-70.401L 454.401,95.999 c-39.039,0-70.401,31.359-70.401,70.401l0,115.2 C 384,320.639, 415.359,352.001, 454.401,352.001z M 454.401,767.999l 595.2,0 c 39.039,0, 70.401-31.359, 70.401-70.401
	l0-115.2 c0-39.039-31.359-70.401-70.401-70.401L 454.401,512 c-39.039,0-70.401,31.359-70.401,70.401l0,115.2 C 384,736.64, 415.359,767.999, 454.401,767.999z"  />
<glyph unicode="&#xe041;" d="M0,191.999c0-70.719, 57.279-128.001, 128.001-128.001l 1280.001,0 c 70.719,0, 128.001,57.279, 128.001,128.001L 1536,1055.999 c0,70.719-57.279,128.001-128.001,128.001L 768,1184 L 768,1241.6 
	C 768,1280.639, 736.641,1312.001, 697.599,1312.001L 358.401,1312.001 C 319.359,1312.001, 288,1280.639, 288,1241.6L 288,287.999 c0-35.199-28.8-63.999-63.999-63.999s-63.999,28.8-63.999,63.999L 159.999,1103.999 C 159.999,1148.159, 124.161,1184, 80.001,1184S0,1148.159,0,1103.999L0,191.999 z"  />
<glyph unicode="&#xe042;" d="M 948.864,1024.064c 69.12-15.999, 124.128-74.88, 140.127-139.2
	c 5.472-30.081, 31.68-52.8, 63.072-52.8c 35.199,0, 63.999,28.8, 63.999,63.999c0,46.080-38.721,116.16-91.521,168.639c-51.84,51.201-113.601,87.36-164.481,87.36c-35.199,0-63.999-29.76-63.999-64.959
	C 896.064,1055.777, 918.783,1029.503, 948.864,1024.064z M 69.183,185.024c-49.599-49.569-49.599-130.239,0-179.808c 49.599-49.632, 130.239-49.632, 179.52,0
	l 367.647,367.359c 85.791-53.505, 186.879-84.513, 295.68-84.513c 309.441,0, 560.001,250.56, 560.001,560.001c0,309.441-250.56,560.001-560.001,560.001s-560.001-250.56-560.001-560.001
	c0-108.48, 31.071-209.919, 84.513-295.68L 69.183,185.024z M 512.064,848.063c0,220.8, 179.232,399.999, 399.999,399.999c 220.8,0, 399.999-179.199, 399.999-399.999
	s-179.199-399.999-399.999-399.999C 691.296,448.097, 512.064,627.296, 512.064,848.063z"  />
<glyph unicode="&#xe043;" d="M 752.097,928.064c-44.16,0-80.001-35.841-80.001-80.001s 35.841-80.001, 80.001-80.001l 320.031,0 
	c 44.127,0, 80.001,35.841, 80.001,80.001s-35.871,80.001-80.001,80.001L 752.097,928.064 z M 69.216,185.024c-49.632-49.569-49.632-130.239,0-179.808
	c 49.599-49.632, 130.239-49.632, 179.487,0l 367.68,367.359c 85.761-53.505, 186.912-84.513, 295.713-84.513c 309.441,0, 560.001,250.56, 560.001,560.001
	c0,309.441-250.56,560.001-560.001,560.001c-309.471,0-560.031-250.56-560.031-560.001c0-108.48, 31.041-209.919, 84.48-295.68L 69.216,185.024z M 512.097,848.063
	c0,220.8, 179.199,399.999, 400.032,399.999c 220.8,0, 399.999-179.199, 399.999-399.999s-179.199-399.999-399.999-399.999C 691.296,448.097, 512.097,627.296, 512.097,848.063z"  />
<glyph unicode="&#xe044;" d="M 752.097,928.064c-44.16,0-80.001-35.841-80.001-80.001s 35.841-80.001, 80.001-80.001l 80.031,0 l0-80.001 
	c0-44.16, 35.808-79.968, 80.001-79.968c 44.127,0, 80.001,35.808, 80.001,79.968l0,80.001 l 80.001,0 c 44.127,0, 80.001,35.841, 80.001,80.001s-35.871,80.001-80.001,80.001l-80.001,0 l0,80.001 
	c0,44.16-35.871,80.001-80.001,80.001c-44.193,0-80.001-35.841-80.001-80.001l0-80.001 L 752.097,928.064 z M 69.216,185.024c-49.632-49.569-49.632-130.239,0-179.808
	c 49.599-49.632, 130.239-49.632, 179.487,0l 367.68,367.359c 85.761-53.505, 186.912-84.513, 295.713-84.513c 309.441,0, 560.001,250.56, 560.001,560.001
	c0,309.441-250.56,560.001-560.001,560.001c-309.471,0-560.031-250.56-560.031-560.001c0-108.48, 31.041-209.919, 84.48-295.68L 69.216,185.024z M 512.097,848.063
	c0,220.8, 179.199,399.999, 400.032,399.999c 220.8,0, 399.999-179.199, 399.999-399.999s-179.199-399.999-399.999-399.999C 691.296,448.097, 512.097,627.296, 512.097,848.063z"  />
<glyph unicode="&#xe045;" d="M0,64.001c0-70.719, 57.279-128.001, 128.001-128.001l 416.001,0 c 70.719,0, 128.001,57.279, 128.001,128.001L 672,575.999 l 192,0 l0-512.001 c0-70.719, 57.279-128.001, 128.001-128.001l 416.001,0 
	c 70.719,0, 128.001,57.279, 128.001,128.001L 1536,896 c0,70.719-57.279,128.001-128.001,128.001l-63.999,0 L 1344,1312.001 l 15.999,0 C 1404.159,1312.001, 1440,1347.839, 1440,1391.999S 1404.159,1472, 1359.999,1472l-416.001,0 C 899.841,1472, 864,1436.159, 864,1391.999
	S 899.841,1312.001, 944.001,1312.001L 960,1312.001 l0-288 L 576,1024.001 L 576,1312.001 l 15.999,0 C 636.159,1312.001, 672,1347.839, 672,1391.999S 636.159,1472, 591.999,1472l-416.001,0 C 131.841,1472, 96,1436.159, 96,1391.999S 131.841,1312.001, 176.001,1312.001L 192,1312.001 l0-288 L 128.001,1024.001 
	c-70.719,0-128.001-57.279-128.001-128.001L0,64.001 z M 831.999,736.001l-128.001,0 c-35.199,0-63.999,28.8-63.999,63.999s 28.8,63.999, 63.999,63.999l 128.001,0 c 35.199,0, 63.999-28.8, 63.999-63.999S 867.201,736.001, 831.999,736.001z"  />
<glyph unicode="&#xe046;" d="M 672,976.001c0,44.16, 35.841,80.001, 80.001,80.001s 80.001-35.841, 80.001-80.001S 796.161,896, 752.001,896
	S 672,931.841, 672,976.001z M 752.001,1184c-114.879,0-207.999-93.12-207.999-207.999s 93.12-207.999, 207.999-207.999c 114.879,0, 207.999,93.12, 207.999,207.999S 866.88,1184, 752.001,1184z M 255.999,984.959
	C 255.999,658.559, 640.959,407.36, 672,32l0-15.999 c0-44.16, 35.841-80.001, 80.001-80.001s 80.001,35.841, 80.001,80.001L 831.999,32 c 32.928,375.36, 416.001,626.559, 416.001,952.959
	C 1248,1254.080, 1025.952,1472, 752.001,1472C 478.080,1472, 255.999,1254.080, 255.999,984.959z M 752.001,1312.001C 937.599,1312.001, 1088.001,1161.599, 1088.001,976.001S 937.599,640.001, 752.001,640.001S 416.001,790.4, 416.001,976.001S 566.4,1312.001, 752.001,1312.001z"  />
<glyph unicode="&#xe047;" d="M 416.001,764.801l-236.799-239.040C 167.361,514.241, 159.999,497.951, 159.999,479.999c0-35.199, 28.479-63.999, 63.36-63.999L 672,416 l0-399.999 
	c0-44.16, 35.841-80.001, 80.001-80.001s 80.001,35.841, 80.001,80.001L 831.999,416 l 480.639,0 c 34.881,0, 63.36,28.8, 63.36,63.999c0,17.601-7.071,33.6-18.561,45.12L 1119.999,765.119L 1119.999,1312.001 l 48,0 
	C 1212.159,1312.001, 1248,1347.839, 1248,1391.999S 1212.159,1472, 1167.999,1472l-800.001,0 C 323.841,1472, 288,1436.159, 288,1391.999S 323.841,1312.001, 368.001,1312.001L 416.001,1312.001 L 416.001,764.801 z M 704.001,1247.999l0-416.001 c0-35.199-28.8-63.999-63.999-63.999s-63.999,28.8-63.999,63.999L 576,1247.999 
	c0,35.199, 28.8,63.999, 63.999,63.999S 704.001,1283.201, 704.001,1247.999z"  />
<glyph unicode="&#xe048;" d="M 288,1472C 217.281,1472, 159.999,1414.721, 159.999,1343.999l0-1280.001 c0-70.719, 57.279-128.001, 128.001-128.001l 960,0 c 70.719,0, 128.001,57.279, 128.001,128.001L 1376.001,1026.56 
	c0,42.879-16.929,80.961-44.16,108.48L 1041.279,1424.96C 1012.512,1454.081, 972.159,1472, 927.999,1472L 288,1472 z M 735.999,1247.999c0,35.199, 28.8,63.999, 63.999,63.999c 35.199,0, 63.999-28.8, 63.999-63.999l0-240 
	c0-26.559, 21.441-48, 48-48L 1152,959.999 c 35.199,0, 63.999-28.8, 63.999-63.999s-28.8-63.999-63.999-63.999l-288,0 c-70.719,0-128.001,57.279-128.001,128.001L 735.999,1247.999 z"  />
<glyph unicode="&#xe049;" d="M 1088.031,1104.032c0-44.16, 35.841-80.001, 80.001-80.001s 80.001,35.841, 80.001,80.001s-35.841,80.001-80.001,80.001
	S 1088.031,1148.192, 1088.031,1104.032z M 528.672-26.848c 49.281-49.632, 129.279-49.632, 178.881,0l 782.079,776.961c 31.329,31.329, 47.040,72.639, 46.401,113.919L 1536.033,1313.312 
	c0,87.681-71.073,158.721-158.721,158.721l-449.28,0 c-41.28,0.672-82.56-15.039-113.952-46.401L 37.152,643.52c-49.632-49.569-49.632-129.567,0-178.881L 528.672-26.848z
	 M 960.033,1104.032c0,114.879, 93.12,207.999, 207.999,207.999s 207.999-93.12, 207.999-207.999s-93.12-207.999-207.999-207.999S 960.033,989.153, 960.033,1104.032z"  />
<glyph unicode="&#xe04a;" d="M0,95.999c0-70.719, 57.279-128.001, 128.001-128.001l 416.001,0 c 70.719,0, 128.001,57.279, 128.001,128.001L 672,608 c0,70.719-57.279,128.001-128.001,128.001l-205.44,0 
	c-35.52,0-63.999,28.8-63.999,63.999c0,11.52, 2.88,19.521, 2.88,19.521c 46.719,154.881, 164.769,279.039, 316.161,334.080l 0.639,0.639C 639.999,1173.761, 672,1219.199, 672,1271.999
	c0,70.719-57.279,128.001-128.001,128.001c-17.28,0-33.6-3.519-48.639-9.6L 489.6,1388.159C 203.199,1276.481,0,998.081,0,671.999L0,95.999 z M 831.999,95.999c0-70.719, 57.279-128.001, 128.001-128.001l 416.001,0 
	c 70.719,0, 128.001,57.279, 128.001,128.001L 1503.999,608 c0,70.719-57.279,128.001-128.001,128.001l-205.44,0 c-35.52,0-63.999,28.8-63.999,63.999c0,11.841, 2.88,19.521, 2.88,19.521c 46.719,154.881, 164.769,279.039, 316.161,334.080
	l 0.639,0.639C 1472.001,1173.761, 1503.999,1219.199, 1503.999,1271.999c0,70.719-57.279,128.001-128.001,128.001c-17.28,0-33.6-3.519-48.639-9.6L 1321.599,1388.159C 1035.201,1276.481, 831.999,998.081, 831.999,671.999L 831.999,95.999 z"  />
<glyph unicode="&#xe04b;" d="M 1052.832,992l-560.001-563.487c-18.591-18.561-48.672-18.561-67.233,0
	c-18.561,18.528-18.561,48.927,0,67.488L 1081.983,1156.511c 27.201,27.489, 71.328,27.489, 98.529,0l 147.84-148.8c 27.201-27.201, 27.201-71.679,0-99.201L 672.033,248
	c-117.441-118.047-307.839-118.047-425.601,0c-117.471,118.401-117.471,310.047,0,428.511l 560.001,563.487c 31.041,31.041, 31.041,81.6,0,112.671
	c-30.72,31.041-80.961,31.041-111.999,0l-560.001-563.52c-179.232-180.513-179.232-473.28,0-653.76c 179.52-180.513, 470.4-180.513, 649.599,0l 705.6,710.049
	c 61.791,62.4, 61.791,163.233,0,225.6l-246.399,247.68c-61.761,62.4-162.24,62.4-224.001,0L 313.632,608.639c-80.319-80.64-80.319-211.809,0-292.767
	c 80.64-80.961, 210.879-80.961, 291.231,0l 560.001,563.52c 31.041,31.041, 31.041,81.6,0,112.641C 1133.793,1023.041, 1083.873,1023.041, 1052.832,992z"  />
<glyph unicode="&#xe04c;" d="M 447.999,1472c-70.719,0-128.001-57.279-128.001-128.001l0-1344 c0-35.199, 28.8-63.999, 63.999-63.999c 17.601,0, 33.6,7.041, 45.12,18.561
	l 165.759,164.799c 24.96,25.248, 65.601,25.248, 90.561,0l 165.441-164.799C 862.401-56.959, 878.4-64, 896.001-64c 35.199,0, 63.999,28.8, 63.999,63.999L 960,1247.999 c0,37.119, 28.8,63.999, 63.999,63.999l 80.001,0 
	C 1148.16,1312.001, 1184.001,1347.839, 1184.001,1391.999S 1148.16,1472, 1104,1472L 447.999,1472 z"  />
<glyph unicode="&#xe04d;" d="M 128.001,1343.999l0-1280.001 c0-70.719, 57.279-128.001, 128.001-128.001l 1071.999,0 c 44.16,0, 80.001,35.841, 80.001,80.001S 1372.161,95.999, 1328.001,95.999L 351.999,95.999 
	c-35.199,0-63.999,28.8-63.999,63.999s 28.8,63.999, 63.999,63.999l 927.999,0 c 70.719,0, 128.001,57.279, 128.001,128.001L 1407.999,1343.999 c0,70.719-57.279,128.001-128.001,128.001L 831.999,1472 l0-575.679 c0-8.319-3.201-16.641-9.279-23.040
	c-12.48-12.48-32.961-12.48-45.441,0C 768.96,881.951, 639.999,989.12, 639.999,989.12s-128.961-107.199-137.28-115.839c-12.48-12.48-32.961-12.48-45.441,0
	C 451.2,879.68, 447.999,887.999, 447.999,896.321L 447.999,1472 L 255.999,1472 C 185.28,1472, 128.001,1414.721, 128.001,1343.999z"  />
<glyph unicode="&#xe04e;" d="M0,160.001c0-70.719, 57.279-128.001, 128.001-128.001l 1280.001,0 c 70.719,0, 128.001,57.279, 128.001,128.001L 1536,1216.001 c0,70.719-57.279,128.001-128.001,128.001L 416.001,1343.999 
	c-70.719,0-128.001-57.279-128.001-128.001l0-960 c0-35.199-28.8-63.999-63.999-63.999s-63.999,28.8-63.999,63.999L 159.999,1103.999 C 159.999,1148.159, 124.161,1184, 80.001,1184S0,1148.159,0,1103.999L0,160.001 z M 896.001,1113.599l0-243.201 
	c0-39.039-31.359-70.401-70.401-70.401l-307.2,0 c-39.039,0-70.401,31.359-70.401,70.401l0,243.201 C 447.999,1152.641, 479.361,1184, 518.4,1184l 307.2,0 C 864.639,1184, 896.001,1152.641, 896.001,1113.599z M 1311.999,544.001L 512.001,544.001 
	c-35.199,0-63.999,28.8-63.999,63.999s 28.8,63.999, 63.999,63.999l 800.001,0 c 35.199,0, 63.999-28.8, 63.999-63.999S 1347.201,544.001, 1311.999,544.001z M 1311.999,287.999L 512.001,287.999 c-35.199,0-63.999,28.8-63.999,63.999s 28.8,63.999, 63.999,63.999l 800.001,0 c 35.199,0, 63.999-28.8, 63.999-63.999
	S 1347.201,287.999, 1311.999,287.999z M 1311.999,1055.999l-224.001,0 c-35.199,0-63.999,28.8-63.999,63.999s 28.8,63.999, 63.999,63.999l 224.001,0 c 35.199,0, 63.999-28.8, 63.999-63.999S 1347.201,1055.999, 1311.999,1055.999z M 1311.999,800l-224.001,0 c-35.199,0-63.999,28.8-63.999,63.999s 28.8,63.999, 63.999,63.999l 224.001,0 
	c 35.199,0, 63.999-28.8, 63.999-63.999S 1347.201,800, 1311.999,800z"  />
<glyph unicode="&#xe04f;" d="M0,64.001c0-70.719, 57.279-128.001, 128.001-128.001l 1280.001,0 c 70.719,0, 128.001,57.279, 128.001,128.001L 1536,1184 c0,70.719-57.279,128.001-128.001,128.001l-128.001,0 L 1280.001,1391.999 
	C 1280.001,1436.159, 1244.16,1472, 1200,1472S 1119.999,1436.159, 1119.999,1391.999L 1119.999,1312.001 l-128.001,0 L 992.001,1391.999 C 992.001,1436.159, 956.16,1472, 912,1472S 831.999,1436.159, 831.999,1391.999L 831.999,1312.001 l-128.001,0 L 704.001,1391.999 C 704.001,1436.159, 668.16,1472, 624,1472
	S 543.999,1436.159, 543.999,1391.999L 543.999,1312.001 l-128.001,0 L 416.001,1391.999 C 416.001,1436.159, 380.16,1472, 336,1472S 255.999,1436.159, 255.999,1391.999L 255.999,1312.001 L 128.001,1312.001 C 57.279,1312.001,0,1254.719,0,1184L0,64.001 z M 230.4,1151.999L 255.999,1151.999 l0-111.999 c0-44.16, 35.841-80.001, 80.001-80.001
	s 80.001,35.841, 80.001,80.001L 416.001,1151.999 l 128.001,0 l0-111.999 c0-44.16, 35.841-80.001, 80.001-80.001s 80.001,35.841, 80.001,80.001L 704.001,1151.999 l 128.001,0 l0-111.999 c0-44.16, 35.841-80.001, 80.001-80.001s 80.001,35.841, 80.001,80.001L 992.001,1151.999 l 128.001,0 l0-111.999 
	c0-44.16, 35.841-80.001, 80.001-80.001s 80.001,35.841, 80.001,80.001L 1280.001,1151.999 l 25.599,0 c 39.039,0, 70.401-31.359, 70.401-70.401l0-339.201 c0-39.039-31.359-70.401-70.401-70.401L 230.4,671.999 
	C 191.361,671.999, 159.999,703.361, 159.999,742.4L 159.999,1081.601 C 159.999,1120.64, 191.361,1151.999, 230.4,1151.999z"  />
<glyph unicode="&#xe050;" d="M 1280.001-64c 70.719,0, 128.001,57.279, 128.001,128.001l0,159.999 l 57.6,0 c 39.039,0, 70.401,31.359, 70.401,70.401L 1536,633.599 
	c0,39.039-31.359,70.401-70.401,70.401L 1407.999,704 l0,128.001 l 57.6,0 c 39.039,0, 70.401,31.359, 70.401,70.401L 1536,1241.6 C 1536,1280.639, 1504.641,1312.001, 1465.599,1312.001L 1407.999,1312.001 L 1407.999,1343.999 c0,70.719-57.279,128.001-128.001,128.001L 288,1472 
	C 217.281,1472, 159.999,1414.721, 159.999,1343.999l0-128.001 L 80.001,1216.001 C 35.841,1216.001,0,1180.16,0,1136S 35.841,1055.999, 80.001,1055.999L 159.999,1055.999 l0-128.001 L 80.001,928.001 C 35.841,928.001,0,892.16,0,848S 35.841,767.999, 80.001,767.999L 159.999,767.999 l0-128.001 L 80.001,640.001 
	C 35.841,640.001,0,604.16,0,560S 35.841,479.999, 80.001,479.999L 159.999,479.999 l0-128.001 L 80.001,352.001 C 35.841,352.001,0,316.16,0,272S 35.841,191.999, 80.001,191.999L 159.999,191.999 l0-128.001 c0-70.719, 57.279-128.001, 128.001-128.001L 1280.001-64 z M 320.001,166.4L 320.001,191.999 l 111.999,0 
	c 44.16,0, 80.001,35.841, 80.001,80.001S 476.16,352.001, 432,352.001L 320.001,352.001 l0,128.001 l 111.999,0 c 44.16,0, 80.001,35.841, 80.001,80.001S 476.16,640.001, 432,640.001L 320.001,640.001 l0,128.001 l 111.999,0 c 44.16,0, 80.001,35.841, 80.001,80.001
	S 476.16,928.001, 432,928.001L 320.001,928.001 l0,128.001 l 111.999,0 c 44.16,0, 80.001,35.841, 80.001,80.001S 476.16,1216.001, 432,1216.001L 320.001,1216.001 L 320.001,1241.6 C 320.001,1280.639, 351.36,1312.001, 390.399,1312.001l 211.2,0 C 640.641,1312.001, 672,1280.639, 672,1241.6
	l0-1075.2 c0-39.039-31.359-70.401-70.401-70.401l-211.2,0 C 351.36,95.999, 320.001,127.361, 320.001,166.4z"  />
<glyph unicode="&#xe051;" d="M 975.999,704l-447.999,0 c-44.16,0-80.001-35.841-80.001-80.001s 35.841-80.001, 80.001-80.001l 447.999,0 
	c 44.16,0, 80.001,35.841, 80.001,80.001S 1020.159,704, 975.999,704z M 975.999,416l-447.999,0 c-44.16,0-80.001-35.841-80.001-80.001s 35.841-80.001, 80.001-80.001l 447.999,0 c 44.16,0, 80.001,35.841, 80.001,80.001
	S 1020.159,416, 975.999,416z M 128.001,64.001c0-70.719, 57.279-128.001, 128.001-128.001l 992.001,0 c 70.719,0, 128.001,57.279, 128.001,128.001L 1376.001,1151.999 c0,70.719-57.279,128.001-128.001,128.001l-260.799,0 c-22.047,109.44-119.040,192-235.2,192
	s-213.12-82.56-235.2-192L 255.999,1280 c-70.719,0-128.001-57.279-128.001-128.001L 128.001,64.001 z M 358.401,1120.001L 512.001,1120.001 l0-57.6 c0-39.039, 31.359-70.401, 70.401-70.401l 339.201,0 c 39.039,0, 70.401,31.359, 70.401,70.401L 992.001,1120.001 l 153.6,0 
	c 39.039,0, 70.401-31.359, 70.401-70.401l0-883.2 c0-39.039-31.359-70.401-70.401-70.401L 358.401,95.999 C 319.359,95.999, 288,127.361, 288,166.4L 288,1049.6 C 288,1088.639, 319.359,1120.001, 358.401,1120.001z M 672,1232
	C 672,1276.16, 707.841,1312.001, 752.001,1312.001S 831.999,1276.16, 831.999,1232S 796.161,1151.999, 752.001,1151.999S 672,1187.84, 672,1232z"  />
<glyph unicode="&#xe052;" d="M 128.001,64.001c0-70.719, 57.279-128.001, 128.001-128.001l 992.001,0 c 70.719,0, 128.001,57.279, 128.001,128.001L 1376.001,1151.999 c0,70.719-57.279,128.001-128.001,128.001l-260.799,0 
	c-22.047,109.44-119.040,192-235.2,192s-213.12-82.56-235.2-192L 255.999,1280 c-70.719,0-128.001-57.279-128.001-128.001L 128.001,64.001 z M 358.401,1120.001L 512.001,1120.001 l0-57.6 c0-39.039, 31.359-70.401, 70.401-70.401l 339.201,0 
	c 39.039,0, 70.401,31.359, 70.401,70.401L 992.001,1120.001 l 153.6,0 c 39.039,0, 70.401-31.359, 70.401-70.401l0-883.2 c0-39.039-31.359-70.401-70.401-70.401L 358.401,95.999 C 319.359,95.999, 288,127.361, 288,166.4L 288,1049.6 
	C 288,1088.639, 319.359,1120.001, 358.401,1120.001z M 672,1232C 672,1276.16, 707.841,1312.001, 752.001,1312.001S 831.999,1276.16, 831.999,1232S 796.161,1151.999, 752.001,1151.999S 672,1187.84, 672,1232z"  />
<glyph unicode="&#xe053;" d="M 752.001,448.961c-35.841,45.441-67.2,67.839-144.96,75.489c-14.079,2.559-24.321,14.721-24.321,29.121
	c0,10.56, 34.56,42.24, 34.209,42.561C 652.8,632.321, 672,690.881, 672,736.001c0,70.047-62.049,128.001-144,128.001c-83.52,0-144-57.951-144-128.001
	c0-45.441, 18.879-104.319, 54.72-140.511c0,0, 34.56-31.329, 34.56-41.919c0-15.039-11.52-27.84-26.88-29.76c-76.191-7.68-106.911-30.081-142.401-74.88
	c-9.951-13.119-15.681-39.039-15.999-52.8l0-60.159 c0-26.559, 22.047-48, 49.281-48l 381.441,0 c 27.231,0, 49.281,21.441, 49.281,48l0,60.159 
	C 767.679,409.952, 762.207,435.839, 752.001,448.961z M 1136.001,800l-159.999,0 c-44.16,0-80.001-35.841-80.001-80.001s 35.841-80.001, 80.001-80.001l 159.999,0 c 44.16,0, 80.001,35.841, 80.001,80.001
	S 1180.161,800, 1136.001,800z M 1136.001,512l-159.999,0 c-44.16,0-80.001-35.841-80.001-80.001s 35.841-80.001, 80.001-80.001l 159.999,0 c 44.16,0, 80.001,35.841, 80.001,80.001S 1180.161,512, 1136.001,512z M0,128
	c0-70.719, 57.279-128.001, 128.001-128.001l 1280.001,0 c 70.719,0, 128.001,57.279, 128.001,128.001L 1536,1151.999 c0,70.719-57.279,128.001-128.001,128.001L 1023.999,1280 L 1023.999,1337.6 C 1023.999,1376.639, 992.64,1408.001, 953.601,1408.001L 582.399,1408.001 C 543.36,1408.001, 512.001,1376.639, 512.001,1337.6L 512.001,1280 L 128.001,1280 
	c-70.719,0-128.001-57.279-128.001-128.001L0,128 z M 230.4,1120.001L 512.001,1120.001 l0-57.6 c0-39.039, 31.359-70.401, 70.401-70.401l 371.199,0 c 39.039,0, 70.401,31.359, 70.401,70.401L 1023.999,1120.001 l 281.601,0 c 39.039,0, 70.401-31.359, 70.401-70.401l0-819.201 
	c0-39.039-31.359-70.401-70.401-70.401L 230.4,160.001 C 191.361,160.001, 159.999,191.36, 159.999,230.399L 159.999,1049.6 C 159.999,1088.639, 191.361,1120.001, 230.4,1120.001z"  />
<glyph unicode="&#xe054;" d="M 177.951,825.377c-31.329-31.329-46.401-76.161-54.048-121.599L 1.92,127.136
	c-17.28-102.432, 85.44-205.473, 189.153-189.471l 577.311,120.351c 42.24,7.647, 87.999,20.799, 119.361,52.161l 611.52,612.192c 48.96,49.248, 48.96,128.928,0,178.209
	l-534.081,534.72c-49.281,48.96-128.961,48.96-177.951,0L 177.951,825.377z M 764.832,210.017l-298.881-57.312l-247.68,248.001l 56.928,299.232l 445.152,445.761
	c 24.639,24.672, 64.32,24.672, 88.959,0c 24.672-24.639, 24.672-64.641,0-89.28l-411.552-412.161c-30.72-30.72-30.72-80.673,0-111.327
	c 30.72-30.753, 80.319-30.753, 111.039,0l 411.873,412.161c 24.672,24.639, 64.32,24.639, 88.959,0c 24.672-24.672, 24.672-64.353,0-88.959l-411.552-412.161
	c-30.72-30.72-30.72-80.673,0-111.36c 30.72-30.72, 80.352-30.72, 111.039,0l 411.873,412.161c 24.351,24.351, 64.353,24.351, 88.992,0
	c 24.639-24.639, 24.639-64.641,0-89.247L 764.832,210.017z"  />
<glyph unicode="&#xe055;" d="M 739.521,587.489L 197.121,45.119C 185.601,33.599, 178.56,17.6, 178.56-0.001c0-35.199, 28.479-63.999, 63.999-63.999
	c 9.279,0, 17.919,1.953, 25.92,5.439c0,0, 903.681,391.68, 913.953,396.513c 21.087,9.567, 37.44,28.128, 43.839,51.201l 146.241,527.040l 29.439-29.121
	c 30.687-30.72, 80.319-30.72, 111.009,0c 30.753,30.72, 30.753,80.352,0,111.039L 1062.048,1448.96c-30.687,30.72-80.319,30.72-111.009,0
	c-30.753-30.72-30.753-80.352,0-111.039L 980.16,1308.8l-528-146.88c-23.040-6.753-41.601-23.361-51.201-45.12L 5.121,203.489C 1.92,195.839,0,187.487,0,178.559
	c0-35.52, 28.8-63.999, 63.999-63.999c 18.24,0, 34.56,7.359, 46.080,19.488l 541.44,541.44C 644.16,694.4, 639.999,714.56, 639.999,736.001c0,88.32, 71.679,159.999, 159.999,159.999s 159.999-71.679, 159.999-159.999s-71.679-159.999-159.999-159.999
	C 778.56,575.999, 758.4,580.16, 739.521,587.489z"  />
<glyph unicode="&#xe056;" d="M 1334.049,365.12c-92.769,121.281-212.481,183.999-414.687,204.159c-36.513,7.329-63.999,39.681-63.999,78.081
	c0,28.128, 90.207,112.32, 89.568,112.929C 1038.048,856.64, 1088.001,1013.12, 1088.001,1133.441C 1088.001,1320.32, 937.599,1472, 752.001,1472S 416.001,1320.32, 416.001,1133.441
	c0-120.96, 48.639-278.4, 142.719-374.721c0,0, 89.919-83.232, 89.919-111.327c0-40.671-30.72-74.559-70.401-79.359c-198.081-20.799-316.479-83.199-408.321-202.881
	C 143.361,330.56, 128.961,261.119, 128.001,224c 0.321-9.6,0-159.999,0-159.999c0-70.719, 57.279-128.001, 128.001-128.001l 992.001,0 c 70.719,0, 128.001,57.279, 128.001,128.001c0,0-0.321,150.399,0,159.999
	C 1375.071,261.119, 1360.641,330.56, 1334.049,365.12z"  />
<glyph unicode="&#xe057;" d="M 1334.049,365.12c-67.2,87.681-148.479,144.639-264.927,176.928L 960,160.001c0-35.199-28.8-63.999-63.999-63.999s-63.999,28.8-63.999,63.999l0,303.999 c0,44.16-35.841,80.001-80.001,80.001
		S 672,508.16, 672,464L 672,160.001 c0-35.199-28.8-63.999-63.999-63.999s-63.999,28.8-63.999,63.999l-109.119,382.047c-116.481-32.64-197.76-89.247-264.96-176.928C 143.361,330.56, 128.961,261.119, 128.001,224l0-159.999 
		c0-70.719, 57.279-128.001, 128.001-128.001l 992.001,0 c 70.719,0, 128.001,57.279, 128.001,128.001l0,159.999 C 1375.041,261.119, 1360.641,330.56, 1334.049,365.12zM 752.001,671.999C 967.68,671.999, 1088.001,946.559, 1088.001,1133.441S 937.599,1472, 752.001,1472S 416.001,1320.32, 416.001,1133.441S 532.479,671.999, 752.001,671.999z"  />
<glyph unicode="&#xe058;" d="M 1334.049,365.12c-37.44,48.927-79.329,88.32-129.6,119.328
	C 1126.719,311.999, 953.28,191.999, 752.001,191.999s-374.721,120-452.511,292.479c-49.92-31.041-92.127-70.401-129.567-119.328C 143.361,330.56, 128.928,261.119, 128.001,224
	c 0.321-9.6,0-159.999,0-159.999c0-70.719, 57.279-128.001, 128.001-128.001l 992.001,0 c 70.719,0, 128.001,57.279, 128.001,128.001c0,0-0.321,150.399,0,159.999C 1375.041,261.119, 1360.641,330.56, 1334.049,365.12z M 578.208,568.001
	c-26.847-2.88-52.479-6.399-76.767-10.56c-27.84-7.041-48.96-32.319-48.96-62.4c0-12.48, 3.519-23.649, 9.6-33.6C 529.281,375.359, 634.209,320, 752.001,320
	c 114.879,0, 217.281,52.479, 284.799,134.721c 8.928,10.881, 14.049,24.96, 14.049,40.32c0,31.359-22.719,57.6-52.8,63.039c-24.927,4.512-51.201,8.352-79.329,11.232
	C 882.561,575.999, 855.36,601.601, 855.36,640.001c0,35.199, 26.208,62.049, 61.44,66.561c 3.489,0.639, 11.808,0.927, 11.808,0.927
	c 172.191,12.192, 289.311,47.073, 366.399,113.631C 1305.6,832.319, 1311.999,847.361, 1311.999,863.999c0,33.279-25.281,60.48-57.6,63.681C 1159.359,946.88, 1088.001,1025.6, 1088.001,1120.001l0,13.44 
	C 1088.001,1320.32, 937.599,1472, 752.001,1472S 416.001,1320.32, 416.001,1133.441L 416.001,1120.001 c0-94.401-71.361-173.121-166.401-192.321C 217.281,924.479, 192,897.281, 192,863.999c0-16.641, 6.399-31.68, 16.929-42.879
	c 77.472-66.561, 194.559-101.439, 367.071-113.631c 5.121,0, 9.951-0.321, 14.4-0.927c 35.808-5.121, 58.209-30.72, 58.209-66.561
	C 648.639,599.039, 617.952,572.801, 578.208,568.001z"  />
</font>
</defs>
</svg>
