<?xml version="1.0" standalone="no"?>
<!DOCTYPE svg PUBLIC "-//W3C//DTD SVG 1.1//EN" "http://www.w3.org/Graphics/SVG/1.1/DTD/svg11.dtd" >
<svg xmlns="http://www.w3.org/2000/svg">
<metadata>
This is a custom SVG font generated by IcoMoon.
<iconset grid="24"></iconset>
</metadata>
<defs>
<font id="steadysets" horiz-adv-x="768" >
<font-face units-per-em="768" ascent="736" descent="-32" />
<missing-glyph horiz-adv-x="768" />
<glyph class="hidden" unicode="&#xf000;" d="M0,736L 768 -32L0 -32 z" horiz-adv-x="0" />
<glyph unicode="&#xe000;" d="M 640,640L 640,704L 448,704L 448,640L 512,640L 512,64L 448,64L 448,0L 640,0L 640,64L 576,64L 576,640 	zM 448,565.056c0,3.328-6.24,7.328-10.24,10.176c-17.632,13.152-37.12,21.728-58.752,25.696c-21.632,4-46.88,5.984-75.936,5.984
		c-21.056,0-42.688-3.328-64.8-10.112C 216.128,590.048, 197.312,581.856, 181.76,572.128C 163.744,560.736, 149.152,547.744, 137.92,533.248
		C 126.688,518.72, 121.056,503.488, 121.056,487.584c0-15.232, 4.064-28.96, 12.192-41.248s 20.832-18.4, 38.112-18.4c 19.36,0, 34.496,4.992, 45.408,15.072
		c 10.912,9.984, 16.352,21.056, 16.352,33.184c0,11.392-1.664,23.84-4.928,37.344c-3.328,13.472-4.928,23.68-4.928,30.592
		c 5.536,5.888, 15.136,11.488, 28.8,16.864c 13.632,5.376, 28.448,8.032, 44.352,8.032c 23.168,0, 41.056-4.736, 53.696-14.24
		c 12.64-9.536, 22.4-20.672, 29.312-33.472C 385.632,509.888, 384,484, 384,484l0-76.32 c0-8.992-43.424-21.44-91.008-37.344
		s-76.512-26.784-92.096-32.672C 188.48,332.8, 176.512,326.304, 162.304,318.208c-14.176-8.16-24.96-17.376-33.632-27.776
		c-11.072-12.448-19.040-26.432-24.576-41.984S 96,215.264, 96,195.52c0-38.048, 12.448-68.832, 37.184-92.352c 24.704-23.488, 56.32-35.296, 94.688-35.296
		c 36.32,0, 67.36,14.24, 93.12,27.36C 346.816,108.448, 370.944,128, 393.408,160l 3.136,0 c 4.512-32, 14.528-50.272, 30.592-62.912L 448,96L 448,565.056 z
		 M 392.384,184.736c-12.8-16.288-28.544-30.368-47.2-42.368c-18.688-11.936-40.32-17.952-64.864-17.952c-23.2,0-42.272,6.752-57.312,20.32
		c-15.072,13.504-22.56,34.624-22.56,63.36c0,22.176, 4.992,41.376, 15.072,57.472c 9.984,16.16, 23.68,30.080, 40.928,41.856
		c 19.072,12.512, 39.616,22.88, 61.76,31.232c 22.112,8.32, 44.736,15.936, 74.176,24.544L 392.384,184.736 z"  />
<glyph unicode="&#xe001;" d="M 32,640l0-224 l 32,0 l0-352 l 640,0 L 704,416 l 32,0 L 736,640 L 32,640 z M 640,128L 128,128 l0,288 l 512,0 L 640,128 z M 672,480L 96,480 L 96,576 l 576,0 L 672,480 z M 576,384L 192,384 l0-224 l 384,0 L 576,384 z M 544,192L 224,192 l0,160 l 320,0 L 544,192 z M 512,320L 256,320 l0-32 l 256,0 L 512,320 z
			 M 416,256L 256,256 l0-32 l 160,0 L 416,256 z"  />
<glyph unicode="&#xe002;" d="M 672,384L 672,608 l-96,0 L 576,704 L 64,704 l0-320 L 32,384 l0-64 l 32,0 l0-352 l 640,0 L 704,320 l 32,0 l0,64 L 672,384 z M 608,544l0-160 L 224,384 L 224,544 L 608,544 z M 128,640l 384,0 l0-32 L 160,608 l0-224 L 128,384 L 128,640 z M 640,32L 128,32 l0,288 l 512,0 L 640,32 z M 576,288L 192,288 l0-224 l 384,0 L 576,288 z
			 M 544,96L 224,96 l0,160 l 320,0 L 544,96 z M 512,224L 256,224 l0-32 l 256,0 L 512,224 z M 416,160L 256,160 l0-32 l 160,0 L 416,160 z"  />
<glyph unicode="&#xe003;" d="M 32,544l0-64 l0-352 l 672,0 L 704,480 L 704,543.744 L 704,544 L 32,544 z M 96,192L 96,443.712 L 593.408,192L 96,192 z M 640,225.632l-204.096,109.024L 640,443.712L 640,225.632 z M 386.816,370.944L 172.224,480
	l 422.24,0 L 386.816,370.944z"  />
<glyph unicode="&#xe004;" d="M 416,544L 224,544 l0-64 l 192,0 L 416,544 z M 512,448L 224,448 l0-32 l 288,0 L 512,448 z M 512,384L 224,384 l0-32 l 288,0 L 512,384 z M 640,351.968L 640,704 L 96,704 l0-353.056 L 32,384l0-416 l 672,0 L 704,383.744 L 640,351.968z M 160,640l 416,0 l0-317.088 
		l-64-34.304L 512,320 L 224,320 l0-32 l 286.88,0 l-143.744-77.056L 160,317.92L 160,640 z M 96,32l0,251.712 L 564.832,32L 96,32 z M 640,65.632l-204.096,109.024L 640,283.712L 640,65.632 z"  />
<glyph unicode="&#xe005;" d="M 160,736l0-96 L 64,640 l0-672 l 544,0 l0,96 l 96,0 L 704,736 L 160,736 z M 544,32L 128,32 L 128,576 l 32,0 l0-512 l 384,0 L 544,32 z M 640,128L 224,128 L 224,672 l 416,0 L 640,128 z M 480,576L 288,576 l0-64 l 192,0 L 480,576 z M 576,480L 288,480 l0-32 l 288,0 L 576,480 z M 576,416L 288,416 l0-32 l 288,0 L 576,416 z
			 M 576,352L 288,352 l0-32 l 288,0 L 576,352 z M 384,288L 288,288 l0-32 l 96,0 L 384,288 z"  />
<glyph unicode="&#xe006;" d="M 692.576,352L 640,352 L 640,672 L 96,672 l0-320 L 52.576,352 C 17.376,352,0,323.2,0,288l0-64 c0-35.2, 17.376-64, 52.576-64L 96,160 l0-160 l 192,0 l0,160 l 64,0 l0-160 l 256,0 l0,160 l 84.576,0 
		c 35.2,0, 75.424,28.8, 75.424,64l0,64 C 768,323.2, 727.744,352, 692.576,352z M 224,64L 160,64 l0,96 l 64,0 L 224,64 z M 448,64l-32,0 l0,96 l 32,0 L 448,64 z M 544,64l-32,0 l0,96 l 32,0 L 544,64 z M 576,352l-75.424,0 
		l-288,0 L 160,352 L 160,608 l 416,0 L 576,352 z M 648.576,205.216c-26.944,0-48.736,21.856-48.736,48.768s 21.824,48.768, 48.736,48.768s 48.8-21.856, 48.8-48.768
		S 675.488,205.216, 648.576,205.216zM 224,512L 416,512L 416,448L 224,448zM 224,416L 512,416L 512,384L 224,384zM 32,576L 64,576L 64,416L 32,416zM 672,512L 704,512L 704,416L 672,416z" />
<glyph unicode="&#xe007;" d="M 224,512l0-64 l 192,0 L 416,512 L 224,512 z M 224,384l 288,0 l0,32 L 224,416 L 224,384 z M 512,352l-96,0 l0-32 l 96,0 L 512,352 z M 416,256l 96,0 l0,32 l-96,0 L 416,256 z M 96,672l0-320 l 64,0 L 160,608 l 416,0 l0-544 l-160,0 l0-64 l 224,0 L 640,672 L 96,672 zM 310.624,176c0,7.68-1.152,15.040-2.816,22.176l 44.416,29.792l-28.512,48.832l-44.928-30.016c-8.288,7.296-17.824,12.864-28.288,16.48L 250.496,320 
	L 196.768,320 l0-56.992 c-10.208-3.616-19.456-9.152-27.584-16.32L 124.384,276.8l-28.48-48.832l 44.416-29.76C 138.656,191.072, 137.504,183.68, 137.504,176
	c0-7.712, 1.152-15.104, 2.816-22.24L 96,124.032l 28.512-48.832l 44.672,30.112c 8.096-7.168, 17.376-12.672, 27.584-16.32L 196.768,32 l 53.728,0 l0,56.704 
	c 10.464,3.584, 20,9.152, 28.288,16.448l 44.8-29.984l 28.576,48.832l-44.352,29.76C 309.44,160.928, 310.624,168.288, 310.624,176z M 224.064,118.368
	c-29.632,0-53.728,25.824-53.728,57.632s 24.096,57.6, 53.728,57.6c 29.696,0, 53.728-25.792, 53.728-57.6S 253.76,118.368, 224.064,118.368z"  />
<glyph unicode="&#xe008;" d="M 256,512l0-64 l 192,0 L 448,512 L 256,512 z M 256,384l 288,0 l0,32 L 256,416 L 256,384 z M 544,352L 288,352 l0-32 l 256,0 L 544,352 z M 544,256l0,32 l-224,0 l0-32 L 544,256 z M 256,288L 160,288 l0-96 L 64,192 l0-96 l 96,0 l0-96 l 96,0 l0,96 l 96,0 l0,96 L 256,192 L 256,288 z M 128,672l0-320 l 64,0 L 192,608 l 416,0 
			l0-544 l-212.576,0 l-32-64L 672,0 L 672,672 L 128,672 z"  />
<glyph unicode="&#xe009;" d="M 224,512L 416,512L 416,448L 224,448zM 224,416L 512,416L 512,384L 224,384zM 224,352L 512,352L 512,320L 224,320zM 224,288L 512,288L 512,256L 224,256zM 224,224L 320,224L 320,192L 224,192zM 525.76,672L 96,672 l0-672 l 544,0 L 640,558.88 L 525.76,672z M 576,532.384L 576,512 l-96,0 L 480,608 l 19.264,0 L 576,532.384z M 160,64L 160,608 l 288,0 l0-128 l 128,0 l0-416 L 160,64 z"  />
<glyph unicode="&#xe00a;" d="M 96,672l0-672 l 544,0 L 640,672 L 96,672 z M 576,64L 160,64 L 160,608 l 416,0 L 576,64 z M 416,512L 224,512 l0-64 l 192,0 L 416,512 z M 512,416L 224,416 l0-32 l 288,0 L 512,416 z M 512,352L 224,352 l0-32 l 288,0 L 512,352 z M 512,288L 224,288 l0-32 l 288,0 L 512,288 z M 320,224L 224,224 l0-32 l 96,0 L 320,224 z"  />
<glyph unicode="&#xe00b;" d="M 96,672l0-672 l 544,0 L 640,672 L 96,672 z M 576,64L 160,64 L 160,608 l 416,0 L 576,64 z M 512,512l-192,0 l0-64 l 192,0 L 512,512 z M 512,416L 224,416 l0-32 l 288,0 L 512,416 z M 512,352L 224,352 l0-32 l 288,0 L 512,352 z M 512,288L 224,288 l0-32 l 288,0 L 512,288 z M 416,192l 96,0 l0,32 l-96,0 
			L 416,192 z"  />
<glyph unicode="&#xe00c;" d="M 96,672l0-672 l 544,0 L 640,672 L 96,672 z M 576,64L 160,64 L 160,608 l 416,0 L 576,64 z M 448,512L 256,512 l0-64 l 192,0 L 448,512 z M 512,416L 224,416 l0-32 l 288,0 L 512,416 z M 512,352L 224,352 l0-32 l 288,0 L 512,352 z M 512,288L 224,288 l0-32 l 288,0 L 512,288 z M 320,192l 96,0 l0,32 l-96,0 L 320,192 
			z"  />
<glyph unicode="&#xe00d;" d="M 96,672l0-672 l 544,0 L 640,672 L 96,672 z M 576,64L 160,64 L 160,608 l 416,0 L 576,64 z M 512,512L 224,512 l0-64 l 288,0 L 512,512 z M 512,416L 224,416 l0-32 l 288,0 L 512,416 z M 512,352L 224,352 l0-32 l 288,0 L 512,352 z M 512,288L 224,288 l0-32 l 288,0 L 512,288 z M 512,224L 224,224 l0-32 l 288,0 L 512,224 z"  />
<glyph unicode="&#xe00e;" d="M 96,672l0-672 l 544,0 L 640,672 L 96,672 z M 576,64L 160,64 L 160,608 l 416,0 L 576,64 z M 288.8,227.552l 79.2,79.2l 79.2-79.2l 45.248,45.248L 413.248,352l 79.2,79.2
			l-45.248,45.248L 368,397.248L 288.8,476.448L 243.552,431.2L 322.752,352l-79.2-79.2L 288.8,227.552z"  />
<glyph unicode="&#xe00f;" d="M0,704l0-704 l 768,0 L 768,704 L0,704 z M 704,64L 64,64 L 64,480 l 640,0 L 704,64 z M 704,512L 64,512 L 64,640 l 640,0 L 704,512 z M 352,608L 288,608 l0-64 l 64,0 L 352,608 z M 256,608L 192,608 l0-64 l 64,0 L 256,608 z M 160,608L 96,608 l0-64 l 64,0 L 160,608 z"  />
<glyph unicode="&#xe010;" d="M 96,704l0-96 L0,608 l0-608 l 672,0 l0,96 l 96,0 L 768,704 L 96,704 z M 608,64L 64,64 L 64,544 l 32,0 l0-448 l 512,0 L 608,64 z M 704,160L 160,160 L 160,480 l 544,0 L 704,160 z M 704,512L 160,512 L 160,640 l 544,0 L 704,512 z M 448,608l-64,0 l0-64 l 64,0 L 448,608 z M 352,608L 288,608 l0-64 l 64,0 L 352,608 z M 256,608
			L 192,608 l0-64 l 64,0 L 256,608 z"  />
<glyph unicode="&#xe011;" d="M0,704l0-704 l 768,0 L 768,704 L0,704 z M 704,64L 64,64 L 64,480 l 640,0 L 704,64 z M 704,512L 64,512 L 64,640 l 640,0 L 704,512 z M 352,608L 288,608 l0-64 l 64,0 L 352,608 z M 256,608L 192,608 l0-64 l 64,0 L 256,608 z M 160,608L 96,608 l0-64 l 64,0 L 160,608 z M 288.8,163.552
			l 79.2,79.2l 79.2-79.2l 45.248,45.248L 413.248,288l 79.2,79.2l-45.248,45.248L 368,333.248l-79.2,79.2l-45.248-45.248L 322.752,288
			l-79.2-79.2L 288.8,163.552z"  />
<glyph unicode="&#xe012;" d="M 448,608L 448,640 c0,35.328-28.672,64-64,64L 256,704 C 220.672,704, 192,675.328, 192,640l0-32 L 64,608 l0-96 L 32,512 l0-512 l 704,0 L 736,608 L 448,608 z M 672,64L 96,64 L 96,448 l 576,0 L 672,64 z M 672,512L 128,512 L 128,544 l 128,0 L 256,640 l 128,0 l0-96 l 288,0 L 672,512 z"  />
<glyph unicode="&#xe013;" d="M 448,640L 448,672 c0,35.328-28.672,64-64,64L 256,736 C 220.672,736, 192,707.328, 192,672l0-32 L 64,640 l0-96 L 32,544 l0-224 l 64,0 L 96,480 l 576,0 l0-384 L 320,96 l0-64 l 416,0 L 736,640 L 448,640 z M 672,544L 128,544 L 128,576 l 128,0 L 256,672 l 128,0 l0-96 l 288,0 L 672,544 zM 192,288L 96,288L 96,192L0,192L0,96L 96,96L 96,0L 192,0L 192,96L 288,96L 288,192L 192,192 	z"  />
<glyph unicode="&#xe014;" d="M 448,608L 448,640 c0,35.328-28.672,64-64,64L 256,704 C 220.672,704, 192,675.328, 192,640l0-32 L 64,608 l0-96 L 32,512 l0-224 l 64,0 L 96,448 l 576,0 l0-384 L 320,64 l0-64 l 416,0 L 736,608 L 448,608 z M 672,512L 128,512 L 128,544 l 128,0 L 256,640 l 128,0 l0-96 l 288,0 L 672,512 zM 238.336,111.328c 1.28,5.376, 1.632,10.944, 1.632,16.672c0,5.76-0.768,11.296-2.016,16.672l 49.376,29.536L 258.912,217.6l-46.56-29.664
	c-6.816,5.184-19.808,9.312-19.808,12.16L 192.544,256 L 127.456,256 l0-55.904 c0-2.848-12.992-6.976-19.808-12.16L 61.088,217.6l-28.416-43.392l 49.376-29.536
	C 80.832,139.296, 80.032,133.76, 80.032,128c0-5.728, 0.352-11.296, 1.632-16.672l-49.728-29.536l 27.616-43.424l 48.064,29.696
	c 6.848-5.184, 19.84-9.312, 19.84-12.192L 127.456,0 l 65.056,0 l0,55.872 c0,2.88, 12.992,7.008, 19.84,12.192l 48.064-29.696l 27.616,43.424L 238.336,111.328z
	 M 160,76.832C 130.624,77.024, 106.816,99.84, 106.816,128S 130.624,178.976, 160,179.168C 189.376,178.976, 213.184,156.16, 213.184,128S 189.376,77.024, 160,76.832z"  />
<glyph unicode="&#xe015;" d="M 448,608L 448,640 c0,35.328-28.672,64-64,64L 256,704 C 220.672,704, 192,675.328, 192,640l0-32 L 64,608 l0-96 L 32,512 l0-224 l 64,0 L 96,448 l 576,0 l0-384 L 320,64 l0-64 l 416,0 L 736,608 L 448,608 z M 672,512L 128,512 L 128,544 l 128,0 L 256,640 l 128,0 l0-96 l 288,0 L 672,512 zM 128.064,112L 104.288,172L 56.832,112.864L 134.912,8.192L 263.552,217.312L 216.416,244.992 	z"  />
<glyph unicode="&#xe016;" d="M 384,450.56c-62.688,0-119.424-25.408-160.512-66.496L 268.8,338.752c 29.504,29.536, 70.24,47.808, 115.2,47.808s 85.696-18.272, 115.2-47.808
			l 45.312,45.312C 503.424,425.152, 446.688,450.56, 384,450.56z M 384,317.472c-26.496,0-48-21.536-48-48.032s 21.504-48, 48-48s 48,21.504, 48,48
			S 410.496,317.472, 384,317.472z"  />
<glyph unicode="&#xe017;" d="M 223.488,322.624L 268.8,277.312c 29.504,29.504, 70.24,47.808, 115.2,47.808s 85.696-18.304, 115.2-47.808l 45.312,45.312
			C 503.424,363.712, 446.688,389.12, 384,389.12S 264.576,363.712, 223.488,322.624z M 384,535.136c-103.008,0-196.256-41.76-263.744-109.248l 45.376-45.376
			C 221.568,436.48, 298.816,471.136, 384,471.136s 162.432-34.656, 218.368-90.624l 45.376,45.376C 580.256,493.376, 487.008,535.136, 384,535.136z M 384,256
			c-26.496,0-48-21.504-48-48S 357.504,160, 384,160s 48,21.504, 48,48S 410.496,256, 384,256z"  />
<glyph unicode="&#xe018;" d="M 223.488,226.624L 268.8,181.312c 29.504,29.504, 70.24,47.808, 115.2,47.808s 85.696-18.304, 115.2-47.808l 45.312,45.312
			C 503.424,267.68, 446.688,293.12, 384,293.12S 264.576,267.68, 223.488,226.624z M 120.256,329.888l 45.376-45.376C 221.568,340.48, 298.816,375.136, 384,375.136
			s 162.432-34.656, 218.368-90.624l 45.376,45.376C 580.256,397.376, 487.008,439.136, 384,439.136S 187.744,397.376, 120.256,329.888z M 384,585.12
			c-143.328,0-273.056-58.080-367.008-152.032l 45.408-45.408C 144.8,470.080, 258.56,521.12, 384,521.12s 239.2-51.040, 321.6-133.44l 45.408,45.408
			C 657.056,527.040, 527.328,585.12, 384,585.12z M 384,160c-26.496,0-48-21.504-48-48S 357.504,64, 384,64s 48,21.504, 48,48S 410.496,160, 384,160z"  />
<glyph unicode="&#xe019;" d="M 448,672l0-128 l-128,0 l0-128 L 192,416 l0-128 L 64,288 l0-256 l 608,0 L 672,672 L 448,672 z M 224,96L 128,96 l0,128 l 96,0 L 224,96 z M 352,96L 256,96 l0,256 l 96,0 L 352,96 z M 480,96l-96,0 L 384,480 l 96,0 L 480,96 z M 608,96l-96,0 L 512,608 l 96,0 L 608,96 z"  />
<glyph unicode="&#xe01a;" d="M 448,672l0-128 l-128,0 l0-128 L 192,416 l0-128 L 64,288 l0-256 l 608,0 L 672,672 L 448,672 z M 352,96L 256,96 l0,256 l 96,0 L 352,96 z M 480,96l-96,0 L 384,480 l 96,0 L 480,96 z M 608,96l-96,0 L 512,608 l 96,0 L 608,96 z"  />
<glyph unicode="&#xe01b;" d="M 448,672l0-128 l-128,0 l0-128 L 192,416 l0-128 L 64,288 l0-256 l 608,0 L 672,672 L 448,672 z M 480,96l-96,0 L 384,480 l 96,0 L 480,96 z M 608,96l-96,0 L 512,608 l 96,0 L 608,96 z"  />
<glyph unicode="&#xe01c;" d="M 448,672l0-128 l-128,0 l0-128 L 192,416 l0-128 L 64,288 l0-256 l 608,0 L 672,672 L 448,672 z M 608,96l-96,0 L 512,608 l 96,0 L 608,96 z"  />
<glyph unicode="&#xe01d;" d="M 448,672l0-128 l-128,0 l0-128 L 192,416 l0-128 L 64,288 l0-256 l 608,0 L 672,672 L 448,672 z"  />
<glyph unicode="&#xe01e;" d="M 288.128,640l0-608 l 383.648,0 l0,256 l 95.872,0 L 767.648,640 L 288.128,640 z M 607.808,96l-255.744,0 l0,96 l 255.744,0 L 607.808,96 z M 607.808,224l-255.744,0 l0,96 l 255.744,0 L 607.808,224 z M 703.712,352L 352.064,352 
			L 352.064,448 l 351.648,0 L 703.712,352 z M 703.712,480L 352.064,480 L 352.064,576 l 351.648,0 L 703.712,480 z M 0.352,32l 223.84,0 L 224.192,640 L 0.352,640 L 0.352,32 z M 64.288,576l 95.936,0 l0-96 L 64.288,480 L 64.288,576 z M 64.288,448l 95.936,0 l0-96 L 64.288,352 L 64.288,448 z
			 M 64.288,320l 95.936,0 l0-96 L 64.288,224 L 64.288,320 z M 64.288,192l 95.936,0 l0-96 L 64.288,96 L 64.288,192 z"  />
<glyph unicode="&#xe01f;" d="M 32,672l0-672 l 671.36,0 L 703.36,672 L 32,672 z M 639.424,448l-159.872,0 L 479.552,608 l 159.872,0 L 639.424,448 z M 639.424,256l-159.872,0 l0,160 l 159.872,0 L 639.424,256 z M 639.424,64l-159.872,0 l0,160 l 159.872,0 L 639.424,64 z M 95.936,224
	l 159.872,0 l0-160 L 95.936,64 L 95.936,224 z M 95.936,416l 159.872,0 l0-160 L 95.936,256 L 95.936,416 z M 95.936,608l 159.872,0 l0-160 L 95.936,448 L 95.936,608 z M 447.616,448L 287.776,448 L 287.776,608 l 159.872,0 L 447.648,448 z M 447.616,256L 287.776,256 l0,160 l 159.872,0 
	L 447.648,256 z M 287.776,224l 159.872,0 l0-160 L 287.776,64 L 287.776,224 z"  />
<glyph unicode="&#xe020;" d="M 671.744,535.072L 671.744,608 L 96.256,608 l0-72.928 l-95.904-32l0-302.112 l 95.904-32L 96.256,96 l 575.488,0 l0,72.928 l 95.904,32L 767.648,503.072 L 671.744,535.072z M 96.256,236.416
			l-31.968,10.656L 64.288,456.928 l 31.968,10.656L 96.256,236.416 z M 607.808,160L 160.192,160 L 160.192,544 l 447.616,0 L 607.808,160 z M 703.712,247.072l-31.968-10.656L 671.744,467.584 l 31.968-10.656L 703.712,247.072 z
			 M 575.84,512L 192.16,512 l0-320 l 383.68,0 L 575.84,512 z M 543.872,224L 224.128,224 L 224.128,480 l 319.744,0 L 543.872,224 z" />
<glyph unicode="&#xe021;" d="M 665.984,480c-13.184,37.248-48.736,64-90.432,64L 95.936,544 C 43.040,544,0,500.928,0,448l0-224 c0-52.928, 43.040-96, 95.936-96l 479.584,0 
	c 41.696,0, 77.248,26.752, 90.432,64l 69.408,0 L 735.36,480 L 665.984,480 z M 607.456,224c0-17.632-14.304-32-31.936-32L 95.936,192 c-17.664,0-32,14.368-32,32L 63.936,448 
	c0,17.632, 14.336,32, 32,32l 479.584,0 c 17.632,0, 31.936-14.368, 31.936-32L 607.456,224 z M 671.424,256l-31.968,0 l0,160 l 31.968,0 L 671.424,256 zM 323.104,256l 31.936,64l 159.872,0 l-191.808,96l-32-64L 131.232,352 L 323.104,256z"  />
<glyph unicode="&#xe022;" d="M 666.24,480c-13.184,37.248-48.736,64-90.432,64L 96.224,544 C 43.328,544, 0.32,500.928, 0.32,448l0-224 c0-52.928, 43.008-96, 95.904-96l 479.584,0 
		c 41.696,0, 77.248,26.752, 90.432,64l 69.44,0 L 735.68,480 L 666.24,480 z M 607.808,224c0-17.632-14.368-32-32-32L 96.224,192 c-17.664,0-31.968,14.368-31.968,32L 64.256,448 
		c0,17.632, 14.304,32, 31.968,32l 479.584,0 c 17.632,0, 32-14.368, 32-32L 607.808,224 z M 671.744,256l-32,0 l0,160 l 32,0 L 671.744,256 z"  />
<glyph unicode="&#xe023;" d="M 666.24,480c-13.184,37.248-48.736,64-90.432,64L 96.224,544 C 43.328,544, 0.32,500.928, 0.32,448l0-224 c0-52.928, 43.008-96, 95.904-96l 479.584,0 
		c 41.696,0, 77.248,26.752, 90.432,64l 69.44,0 L 735.68,480 L 666.24,480 z M 607.808,224c0-17.632-14.368-32-32-32L 96.224,192 c-17.664,0-31.968,14.368-31.968,32L 64.256,448 
		c0,17.632, 14.304,32, 31.968,32l 479.584,0 c 17.632,0, 32-14.368, 32-32L 607.808,224 z M 671.744,256l-32,0 l0,160 l 32,0 L 671.744,256 zM 96.224,384l0-96 c0-35.2, 21.568-64, 47.968-64l 47.936,0 L 192.128,448 L 144.192,448 C 117.792,448, 96.224,419.2, 96.224,384z"  />
<glyph unicode="&#xe024;" d="M 666.24,480c-13.184,37.248-48.736,64-90.432,64L 96.224,544 C 43.328,544, 0.32,500.928, 0.32,448l0-224 c0-52.928, 43.008-96, 95.904-96l 479.584,0 
		c 41.696,0, 77.248,26.752, 90.432,64l 69.44,0 L 735.68,480 L 666.24,480 z M 607.808,224c0-17.632-14.368-32-32-32L 96.224,192 c-17.664,0-31.968,14.368-31.968,32L 64.256,448 
		c0,17.632, 14.304,32, 31.968,32l 479.584,0 c 17.632,0, 32-14.368, 32-32L 607.808,224 z M 671.744,256l-32,0 l0,160 l 32,0 L 671.744,256 zM 224.096,448L 320.032,448L 320.032,224L 224.096,224zM 96.224,384l0-96 c0-35.2, 21.568-64, 47.968-64l 47.936,0 L 192.128,448 L 144.192,448 C 117.792,448, 96.224,419.2, 96.224,384z"  />
<glyph unicode="&#xe025;" d="M 666.24,480c-13.184,37.248-48.736,64-90.432,64L 96.224,544 C 43.328,544, 0.32,500.928, 0.32,448l0-224 c0-52.928, 43.008-96, 95.904-96l 479.584,0 
		c 41.696,0, 77.248,26.752, 90.432,64l 69.44,0 L 735.68,480 L 666.24,480 z M 607.808,224c0-17.632-14.368-32-32-32L 96.224,192 c-17.664,0-31.968,14.368-31.968,32L 64.256,448 
		c0,17.632, 14.304,32, 31.968,32l 479.584,0 c 17.632,0, 32-14.368, 32-32L 607.808,224 z M 671.744,256l-32,0 l0,160 l 32,0 L 671.744,256 zM 224.096,448L 320.032,448L 320.032,224L 224.096,224zM 352,448L 447.936,448L 447.936,224L 352,224zM 96.224,384l0-96 c0-35.2, 21.568-64, 47.968-64l 47.936,0 L 192.128,448 L 144.192,448 C 117.792,448, 96.224,419.2, 96.224,384z"  />
<glyph unicode="&#xe026;" d="M 666.24,480c-13.184,37.248-48.736,64-90.432,64L 96.224,544 C 43.328,544, 0.32,500.928, 0.32,448l0-224 c0-52.928, 43.008-96, 95.904-96l 479.584,0 
		c 41.696,0, 77.248,26.752, 90.432,64l 69.44,0 L 735.68,480 L 666.24,480 z M 607.808,224c0-17.632-14.368-32-32-32L 96.224,192 c-17.664,0-31.968,14.368-31.968,32L 64.256,448 
		c0,17.632, 14.304,32, 31.968,32l 479.584,0 c 17.632,0, 32-14.368, 32-32L 607.808,224 z M 671.744,256l-32,0 l0,160 l 32,0 L 671.744,256 zM 224.096,448L 320.032,448L 320.032,224L 224.096,224zM 352,448L 447.936,448L 447.936,224L 352,224zM 527.872,448l-48,0 l0-224 l 48,0 c 26.368,0, 47.936,28.8, 47.936,64l0,96 C 575.808,419.2, 554.24,448, 527.872,448zM 96.224,384l0-96 c0-35.2, 21.568-64, 47.968-64l 47.936,0 L 192.128,448 L 144.192,448 C 117.792,448, 96.224,419.2, 96.224,384z"  />
<glyph unicode="&#xe027;" d="M 319.936,464.064c 65.248,0, 118.464-48.992, 126.4-112.064l 112.512,0 c-1.056,15.104-3.104,29.92-6.784,44.128l 90.912,52.48l-64.032,110.912
		l-90.784-52.416C 459.52,535.296, 423.84,556.128, 384,567.168L 384,672.064 L 255.936,672.064 l0-104.896 C 216.096,556.16, 180.384,535.296, 151.744,507.136L 60.992,559.52l-64.032-110.912
		l 90.848-52.448c-4.96-19.264-7.904-39.296-7.904-60.096c0-20.8, 2.912-40.864, 7.904-60.096l-90.848-52.48l 64.032-110.88l 90.72,52.384
		c 28.64-28.192, 64.384-49.024, 104.224-60.032l0-104.896 L 384,0.064 L 384,72 l0,32.96 l0,120.864 c-18.912-11.008-40.608-17.792-64.064-17.792c-70.688,0-128,57.312-128,128
		S 249.248,464.064, 319.936,464.064zM 735.936,160c0,11.84-2.112,23.104-5.152,33.984l 59.424,34.304l-31.968,55.36L 699.232,249.6c-16.032,16.32-36.48,28-59.296,33.952L 639.936,352 L 576,352 
		l0-68.448 c-22.88-5.888-43.328-17.568-59.392-33.92l-58.912,34.016l-31.968-55.36l 59.296-34.208c-3.040-10.944-5.184-22.208-5.184-34.080
		s 2.144-23.168, 5.184-34.080l-59.296-34.208l 31.968-55.36l 58.912,34.016c 16.064-16.352, 36.544-28.032, 59.392-33.92L 576-32 l 63.936,0 l0,68.48 
		c 22.816,5.952, 43.264,17.632, 59.296,33.952l 59.040-34.080l 31.968,55.36l-59.424,34.304C 733.824,136.896, 735.936,148.16, 735.936,160z M 607.872,96.064
		c-35.328,0-63.936,28.64-63.936,63.936s 28.64,63.936, 63.936,63.936s 63.936-28.64, 63.936-63.936S 643.2,96.064, 607.872,96.064z"  />
<glyph unicode="&#xe028;" d="M 575.904,416l-288,0 L 287.904,560 L 80.096,352l 207.808-208L 287.904,288 l 289.504,0 c 34.56,0, 62.496,28.608, 62.496,64S 610.464,416, 575.904,416z"  />
<glyph unicode="&#xe029;" d="M 448,128l0,288 l 144,0 L 384,623.808L 176,416L 320,416 l0-289.504 C 320,91.936, 348.608,64, 384,64S 448,93.44, 448,128z"  />
<glyph unicode="&#xe02a;" d="M 319.968,544l0-288 l-144,0 l 208-207.808l 208,207.808l-144,0 L 447.968,545.504 c0,34.56-28.608,62.496-64,62.496C 348.544,608, 319.968,578.56, 319.968,544z"  />
<glyph unicode="&#xe02b;" d="M 160,288l 288,0 l0-144 l 207.808,208L 448,560L 448,416 L 158.496,416 C 123.936,416, 96,387.392, 96,352S 125.44,288, 160,288z"  />
<glyph unicode="&#xe02c;" d="M 442.176,637.44c-143.552,0-262.24-99.776-280.256-240.416L 40.384,420.544L 160,243.616l 176.928,119.52l-111.264,21.536
	c 15.072,90.272, 108.448,188.736, 218.88,188.736c 120.64,0, 219.072-103.392, 219.072-224.064c0-120.672-120.32-218.816-216.32-218.816l0-64 c 160,0, 280.32,129.504, 280.32,285.44
	S 598.112,637.44, 442.176,637.44z"  />
<glyph unicode="&#xe02d;" d="M 175.52,374.88c 14.304,85.536, 102.72,178.816, 207.328,178.816c 60.512,0, 114.56-27.776, 152.384-70.592l 50.88,33.92
			c-49.696,59.040-123.424,97.312-205.504,97.312c-136,0-248.448-94.496-265.504-227.744L0,408.832l 113.312-167.584l 167.616,113.248L 175.52,374.88z
			 M 654.688,462.752l-167.616-113.248l 105.376-20.384c-14.272-85.536-102.72-178.848-207.328-178.816c-60.544,0-114.56,27.776-152.416,70.592l-50.848-33.92
			c 49.696-59.040, 123.424-97.312, 205.504-97.312c 135.968,0, 248.448,94.496, 265.472,227.744L 768,295.168L 654.688,462.752z"  />
<glyph unicode="&#xe02e;" d="M 408.576,704l-128-160l-128,0 C 99.616,544, 64,492.928, 64,440L 64,256 c0-52.928, 35.616-96, 88.576-96l 128,0 l 128-160c 32,0, 71.424,0, 71.424,0L 480,704 C 448,704, 440.576,704, 408.576,704z
	 M 256,224L 152.576,224 C 134.88,224, 128,238.368, 128,256L 128,440 C 128,457.632, 134.88,480, 152.576,480L 256,480 L 256,224 z M 416,96l-128,128l0,3.616 L 288,480 l 128,128L 416,96 zM 544,512l0-66.656 c 64-13.28, 64-48.48, 64-90.080c0-41.696,0-76.864-64-90.112l0-66.656 c 96,14.88, 128,79.488, 128,156.768C 672,432.512, 640,497.12, 544,512z"  />
<glyph unicode="&#xe02f;" d="M 376.576,704l-128-160l-128,0 C 67.616,544, 32,492.928, 32,440L 32,256 c0-52.928, 35.616-96, 88.576-96l 128,0 l 128-160c 32,0, 71.424,0, 71.424,0L 448,704 C 416,704, 408.576,704, 376.576,704z
	 M 224,224L 120.576,224 C 102.88,224, 96,238.368, 96,256L 96,440 C 96,457.632, 102.88,480, 120.576,480L 224,480 L 224,224 z M 384,96l-128,128l0,3.616 L 256,480 l 128,128L 384,96 zM 736,384L 672,384L 672,448L 608,448L 608,384L 544,384L 544,320L 608,320L 608,256L 672,256L 672,320L 736,320 z"  />
<glyph unicode="&#xe030;" d="M 376.576,704l-128-160l-128,0 C 67.616,544, 32,492.928, 32,440L 32,256 c0-52.928, 35.616-96, 88.576-96l 128,0 l 128-160c 32,0, 71.424,0, 71.424,0L 448,704 C 416,704, 408.576,704, 376.576,704z
	 M 224,224L 120.576,224 C 102.88,224, 96,238.368, 96,256L 96,440 C 96,457.632, 102.88,480, 120.576,480L 224,480 L 224,224 z M 384,96l-128,128l0,3.616 L 256,480 l 128,128L 384,96 zM 544,384L 736,384L 736,320L 544,320z"  />
<glyph unicode="&#xe031;" d="M 448,312.256L 448,96 l-108.128,108.128L 295.744,160l 16.8,0 l 128-160c 32,0, 71.424,0, 71.424,0L 511.968,376.256 L 448,312.256zM 160.544,251.040C 160.416,252.704, 160,254.24, 160,256L 160,440 C 160,457.632, 166.88,480, 184.576,480L 288,480 l0-101.504 l 32,32L 320,480 l 128,128l0-69.504 l 64,64L 512,704 
		c-32,0-39.424,0-71.424,0l-128-160l-128,0 C 131.616,544, 96,492.928, 96,440L 96,256 c0-20.352, 5.344-39.136, 14.816-54.688L 160.544,251.040zM 109.248,41.376L 64,86.624l 592,592l 45.248-45.248L 109.248,41.376z"  />
<glyph unicode="&#xe032;" d="M 448,704L 288,704 C 235.008,704, 192,661.024, 192,608l0-288 c0-53.024, 43.008-96, 96-96l 160,0 c 52.992,0, 96,42.976, 96,96L 544,608 C 544,661.024, 500.992,704, 448,704z M 480,544l0-32 l-64,0 l0-32 l 64,0 l0-32 l-64,0 
		l0-32 l 64,0 l0-32 l-64,0 l0-32 l 64,0 l0-32 c0-17.632, 2.304-32-15.328-32L 271.328,288 C 253.696,288, 256,302.368, 256,320l0,32 l 64,0 l0,32 L 256,384 l0,32 l 64,0 L 320,448 L 256,448 L 256,480 l 64,0 L 320,512 L 256,512 L 256,544 l 64,0 L 320,576 L 256,576 L 256,608 
		c0,17.632-2.304,32, 15.328,32l 193.312,0 C 482.304,640, 480,625.632, 480,608l0-32 l-64,0 l0-32 L 480,544 zM 608,352l0,64 l-32,0 l0-160 c0-35.872-23.328-64-74.4-64l-267.2,0 C 183.328,192, 160,220.128, 160,256l0,160 L 128,416 l0-64 L 96,352 l0-64 l 32,0 l0-32 c0-71.776, 19.456-96, 106.4-96L 288,160 l0-96 L 224,64 l0-64 l 288,0 
		l0,64 l-64,0 l0,96 l 53.6,0 C 588.544,160, 608,184.224, 608,256l0,32 l 32,0 l0,64 L 608,352 z"  />
<glyph unicode="&#xe033;" d="M 128,263.744l 32,32L 160,416 L 128,416 l0-64 L 96,352 l0-64 l 32,0 L 128,263.744 z M 608,352l0,64 l-32,0 l0-160 c0-35.872-62.208-64-113.28-64
			L 305.536,192 l-64-32L 288,160 l0-96 L 224,64 l0-64 l 288,0 l0,64 l-64,0 l0,96 l 14.72,0 c 86.944,0, 145.28,24.224, 145.28,96l0,32 l 32,0 l0,64 L 608,352 z M 416,544L 416,576 l-32,0 l0-32 L 416,544 z M 256,416l 64,0 L 320,448 L 256,448 L 256,480 l 64,0 L 320,512 L 256,512 L 256,544 l 64,0 L 320,576 L 256,576 L 256,608 
			c0,17.632-7.872,32, 9.792,32l 160,0 c 15.36,0, 27.616-11.104, 30.688-25.568l 48.128,48.128C 487.264,687.552, 458.432,704, 425.792,704l-160,0 C 212.832,704, 192,660.928, 192,608
			l0-280.256 l 64,64L 256,416 z M 425.792,288l-56.256,0 l-64-64l 120.256,0 C 478.72,224, 544,267.072, 544,320L 544,440.256 l-64-64L 480,320 C 480,302.368, 443.424,288, 425.792,288z
			 M 561.792,627.328l-448-448l 32-64l 448,448L 561.792,627.328z"  />
<glyph unicode="&#xe034;" d="M 284.576,705.984l-137.952-101.76L 128,608l0-544 l 416-96L 544,512 L 230.464,585.408l 67.84,52.608L 608,576l0-256 l 32,0 L 640,634.688 L 284.576,705.984z"  />
<glyph unicode="&#xe035;" d="M 287.36,0L 104.64,319.808l 111.136,63.488l 73.248-128.128L 553.056,704l 110.304-64.864L 287.36,0z"  />
<glyph unicode="&#xe036;" d="M 128,544l 308.864-0.448l 37.696,64L 64,608l0-320 l 64,64L 128,544 z M 128,96c-1.248,2.176, 0.736,76.896, 0.736,96.192C 94.848,242.304, 64,288, 64,288l0-256 
			l 183.616-0.448c0,0-18.688,27.68-42.944,63.552C 179.648,95.136, 140.736,96, 128,96z M 608,96l-190.112-0.448l-37.696-64L 672,32L 672,480 l-64-64L 608,96 z
			 M 576.448,688l-264-448.8l-73.248,128.128l-111.136-63.488L 310.816-16L 686.752,623.136L 576.448,688z"  />
<glyph unicode="&#xe037;" d="M 64,608l0-576 l 608,0 L 672,608 L 64,608 z M 608,96L 128,96 L 128,544 l 480,0 L 608,96 z M 543.936,352L 192,352 l0-96 l 351.936,0 L 543.936,352 z"  />
<glyph unicode="&#xe038;" d="M 677.408,585.376l-90.496,90.496c-62.4,62.368-163.904,62.368-226.272,0l-316.8-316.768l 45.248-45.248l 316.8,316.768
	c 37.44,37.44, 98.336,37.44, 135.744,0l 90.528-90.528c 37.44-37.408, 37.44-98.304,0-135.744l-316.768-316.768c-40.8-40.8-86.176-49.568-98.336-37.44
	L 202.24,64.928l-22.624,22.624l-49.504,49.504c-5.632,5.632-1.024,35.808, 15.552,52.384l 316.704,316.704c 3.712,3.68, 33.984-11.328, 56.576-33.952l0,0
	c-9.888-9.888-7.584-7.616-11.296-11.328l-229.824-229.792l 45.248-45.248l 229.824,229.792c 27.36,27.328, 61.376,51.776, 11.328,101.824l0,0
	c-50.016,50.048-100.384,80.64-147.072,33.952l-316.8-316.704c-37.376-37.44-51.936-106.432-15.488-142.88l 49.44-49.504l0,0l 37.504-37.44
	c 42.432-42.432, 125.376-25.984, 188.8,37.44l 316.768,316.768C 739.776,421.472, 739.776,522.976, 677.408,585.376z"  />
<glyph unicode="&#xe039;" d="M 480,384L 480,736L 320,736L 320,384L 193.504,384L 397.12,180.352L 600.736,384 		zM 645.12,512L 544,512 l0-64 l 101.12,0 C 662.752,448, 672,447.488, 672,429.888l0-128 l0-112 C 672,163.392, 655.552,128, 629.12,128L 138.944,128 c-26.432,0-42.88,35.392-42.88,61.888
	l0,112 l0,128 C 96.064,447.488, 105.312,448, 122.944,448l 101.12,0 L 224.064,512 l-101.12,0 c-52.928,0-90.88-29.184-90.88-82.112l0-352 c0-52.928, 37.952-109.888, 90.88-109.888L 645.12-32 
	c 52.928,0, 90.88,56.928, 90.88,109.888l0,352 C 736,482.816, 698.048,512, 645.12,512z M 672,77.888C 672,60.256, 662.752,32, 645.12,32L 122.944,32 
	c-17.632,0-26.88,28.256-26.88,45.888l0,48.416 c0-10.144, 24.8-30.272, 42.88-30.272L 629.12,96.032 c 18.048,0, 42.88,20.128, 42.88,30.272L 672,77.888 z"  />
<glyph unicode="&#xe03a;" d="M 703.552,453.728l-90.72,282.016l-292.992-90.56L 63.968,172.32l 377.536-204.064l 255.232,471.712c 0.192,0.32, 0.384,0.672, 0.544,0.96
	l 6.784,12.544L 703.552,453.728z M 567.36,469.28c-23.104-42.816-76.576-58.752-119.424-35.616c-42.848,23.2-58.752,76.64-35.584,119.392
	c 23.136,42.848, 76.672,58.752, 119.456,35.616C 574.624,565.536, 590.56,512.064, 567.36,469.28z"  />
<glyph unicode="&#xe03b;" d="M 480,608L 480,704 L 288,704 l0-96 L 160,608 l0-64 l 448,0 L 608,608 L 480,608 z M 416.576,608l-64,0 L 352.576,640 l 64,0 L 416.576,608 zM 160,512l0-480 l 64-64l 320,0 l 64,64L 608,512 L 160,512 z M 256,32L 224,32 L 224,384 l 32,0 L 256,32 z M 320,32L 288,32 L 288,384 l 32,0 L 320,32 z M 384,32l-32,0 L 352,384 l 32,0 L 384,32 z M 544,32l-128,0 L 416,384 l 128,0 L 544,32 z M 544,416L 224,416 L 224,448 l 320,0 L 544,416 z"  />
<glyph unicode="&#xe03c;" d="M 25.376,58.624l 45.248-45.248l 140.32,140.32l-44.064,46.432L 25.376,58.624z M 452,704C 295.2,704, 168,576.832, 168,420
			c0-61.408, 19.744-118.080, 52.864-164.576l 53.44-56.32c 48.672-39.264, 110.304-63.136, 177.696-63.136c 156.864,0, 284,127.168, 284,284
			S 608.864,704, 452,704z M 452,200c-121.312,0-220,98.688-220,220S 330.688,640, 452,640S 672,541.312, 672,420
			S 573.312,200, 452,200z"  />
<glyph unicode="&#xe03d;" d="M 25.376,58.624l 45.248-45.248l 140.32,140.32l-44.064,46.432L 25.376,58.624z M 452,704C 295.168,704, 168,576.832, 168,420
			c0-61.408, 19.744-118.080, 52.864-164.576l 53.44-56.32c 48.672-39.264, 110.272-63.136, 177.696-63.136c 156.832,0, 284,127.168, 284,284
			S 608.832,704, 452,704z M 452,200c-121.312,0-220,98.688-220,220S 330.688,640, 452,640S 672,541.312, 672,420
			S 573.312,200, 452,200z M 480.704,512l-64,0 l0-64 l-64,0 l0-64 l 64,0 l0-64 l 64,0 l0,64 l 64,0 L 544.704,448 l-64,0 L 480.704,512 z"  />
<glyph unicode="&#xe03e;" d="M 25.376,58.624l 45.248-45.248l 140.32,140.32l-44.064,46.432L 25.376,58.624z M 452,704C 295.168,704, 168,576.832, 168,420
			c0-61.408, 19.744-118.080, 52.864-164.576l 53.44-56.32c 48.672-39.264, 110.272-63.136, 177.696-63.136c 156.832,0, 284,127.168, 284,284
			S 608.832,704, 452,704z M 452,200c-121.312,0-220,98.688-220,220S 330.688,640, 452,640S 672,541.312, 672,420
			S 573.312,200, 452,200zM 351.936,447.936L 543.936,447.936L 543.936,383.936L 351.936,383.936z"  />
<glyph unicode="&#xe03f;" d="M 640,704L 96,704 C 43.072,704,0,660.928,0,608l0-384 c0-52.928, 64-64, 96-64l0-192 l 288,192l 256,0 c 52.928,0, 96,43.072, 96,96L 736,608 
	C 736,660.928, 692.928,704, 640,704z M 672,256c0-17.632-14.368-32-32-32l-288,0 l-192-160l0,160 L 96,224 c-17.632,0-32,14.368-32,32L 64,608 c0,17.632, 14.368,32, 32,32l 544,0 
	c 17.632,0, 32-14.368, 32-32L 672,256 z"  />
<glyph unicode="&#xe040;" d="M 208,448C 234.496,448, 256,426.528, 256,400S 234.496,352, 208,352S 160,373.472, 160,400S 181.504,448, 208,448zM 640,704L 96,704 C 43.072,704,0,660.928,0,608l0-384 c0-52.928, 64-64, 96-64l0-192 l 288,192l 256,0 c 52.928,0, 96,43.072, 96,96L 736,608 
	C 736,660.928, 692.928,704, 640,704z M 672,256c0-17.632-14.368-32-32-32l-288,0 l-192-160l0,160 L 96,224 c-17.632,0-32,14.368-32,32L 64,608 c0,17.632, 14.368,32, 32,32l 544,0 
	c 17.632,0, 32-14.368, 32-32L 672,256 z"  />
<glyph unicode="&#xe041;" d="M 208,448C 234.496,448, 256,426.528, 256,400S 234.496,352, 208,352S 160,373.472, 160,400S 181.504,448, 208,448zM 368,448c 26.496,0, 48-21.472, 48-48S 394.496,352, 368,352S 320,373.472, 320,400
	S 341.504,448, 368,448zM 640,704L 96,704 C 43.072,704,0,660.928,0,608l0-384 c0-52.928, 64-64, 96-64l0-192 l 288,192l 256,0 c 52.928,0, 96,43.072, 96,96L 736,608 
	C 736,660.928, 692.928,704, 640,704z M 672,256c0-17.632-14.368-32-32-32l-288,0 l-192-160l0,160 L 96,224 c-17.632,0-32,14.368-32,32L 64,608 c0,17.632, 14.368,32, 32,32l 544,0 
	c 17.632,0, 32-14.368, 32-32L 672,256 z"  />
<glyph unicode="&#xe042;" d="M 208,448C 234.496,448, 256,426.528, 256,400S 234.496,352, 208,352S 160,373.472, 160,400S 181.504,448, 208,448zM 368,448c 26.496,0, 48-21.472, 48-48S 394.496,352, 368,352S 320,373.472, 320,400
	S 341.504,448, 368,448zM 528,448c 26.496,0, 48-21.472, 48-48S 554.496,352, 528,352S 480,373.472, 480,400
	S 501.504,448, 528,448zM 640,704L 96,704 C 43.072,704,0,660.928,0,608l0-384 c0-52.928, 64-64, 96-64l0-192 l 288,192l 256,0 c 52.928,0, 96,43.072, 96,96L 736,608 
	C 736,660.928, 692.928,704, 640,704z M 672,256c0-17.632-14.368-32-32-32l-288,0 l-192-160l0,160 L 96,224 c-17.632,0-32,14.368-32,32L 64,608 c0,17.632, 14.368,32, 32,32l 544,0 
	c 17.632,0, 32-14.368, 32-32L 672,256 z"  />
<glyph unicode="&#xe043;" d="M 640,704L 96,704 C 43.072,704,0,660.928,0,608l0-384 c0-52.928, 64-64, 96-64l0-192 l 288,192l 256,0 c 52.928,0, 96,43.072, 96,96L 736,608 
		C 736,660.928, 692.928,704, 640,704z M 672,256c0-17.632-14.368-32-32-32l-288,0 l-192-160l0,160 L 96,224 c-17.632,0-32,14.368-32,32L 64,608 c0,17.632, 14.368,32, 32,32l 544,0 
		c 17.632,0, 32-14.368, 32-32L 672,256 zM 128,544L 512,544L 512,480L 128,480zM 128,448L 608,448L 608,416L 128,416zM 128,384L 608,384L 608,352L 128,352zM 128,320L 384,320L 384,288L 128,288z"  />
<glyph unicode="&#xe044;" d="M 640,608L 640,736 l-192,0 l0-128 l-128,0 L 320,736 L 128,736 l0-128 L0,608 l0-608 l 768,0 L 768,608 L 640,608 z M 512,672l 64,0 l0-128 l-64,0 L 512,672 z M 192,672l 64,0 l0-128 L 192,544 L 192,672 z M 704,64L 64,64 L 64,416 l 640,0 L 704,64 z M 704,448L 64,448 L 64,544 l 64,0 l0-64 l 192,0 L 320,544 l 128,0 l0-64 l 192,0 L 640,544 l 64,0 L 704,448 zM 160.032,320.032L 223.968,320.032L 223.968,256.032L 160.032,256.032zM 256.032,320.032L 319.968,320.032L 319.968,256.032L 256.032,256.032zM 351.936,320.032L 415.872,320.032L 415.872,256.032L 351.936,256.032zM 447.936,320.032L 511.872,320.032L 511.872,256.032L 447.936,256.032zM 544.032,320.032L 607.968,320.032L 607.968,256.032L 544.032,256.032zM 160.032,224.064L 223.968,224.064L 223.968,160.064L 160.032,160.064zM 256.032,224.064L 319.968,224.064L 319.968,160.064L 256.032,160.064zM 351.936,224.064L 415.872,224.064L 415.872,160.064L 351.936,160.064z"  />
<glyph unicode="&#xe045;" d="M 96,736l0-741.76 l 261.824,152.448L 640-17.632L 640,736 L 96,736 z M 160,105.568L 160,672 l 192,0 l0-460 l-20.384-9.984L 160,105.568z M 576,93.696l-177.984,108.32L 384,211.328L 384,672 l 192,0 
	L 576,93.696 z"  />
<glyph unicode="&#xe046;" d="M 344.992,279.232L 320,32l 152.64,188.576l 146.048-65.92L 768,672L 344.992,279.232z M 768,672L0,356.32L 181.312,320L 320,32l-100,288L 768,672z"  />
<glyph unicode="&#xe047;" d="M 384,107.072l-1.12-1.376L 128,432C 116.384,446.656, 96,464.352, 96,504.576c0,70.592, 57.44,128, 128,128c 70.592,0, 160-57.408, 160-128L 384,610.592 
	c-34.4,51.776-93.28,85.984-160,85.984c-105.888,0-192-86.112-192-192c0-65.792, 32-96, 40.256-117.408L 384,8.864L 384,107.072 zM 384,107.072l 1.12-1.376L 640,432c 11.616,14.656, 32,32.352, 32,72.576c0,70.592-57.44,128-128,128s-160-57.408-160-128L 384,610.592 
	c 34.432,51.776, 93.312,85.984, 160,85.984c 105.888,0, 192-86.112, 192-192c0-65.792-32-96-40.256-117.408L 384,8.864L 384,107.072 z"  />
<glyph unicode="&#xe048;" d="M 390.368,365.888L 256,500.256L 256,416 L 32,416 l0-96 l 224,0 l0-88.512 L 390.368,365.888zM 288,704L 288,596.256L 352,532.256L 352,640L 610.848,640L 416,576L 416,192L 352,192L 352,199.488L 288,135.488L 288,128L 416,128L 416,0L 704,96L 704,704 z"  />
<glyph unicode="&#xe049;" d="M 612.032,64c 91.648,0, 152.192,101.152, 152.192,204c0,88.384-72.96,166.752-161.088,178.496l-14.624,39.008C 553.024,579.328, 466.528,640, 368.128,640
	c-131.264,0-238.016-107.648-238.016-240c0-5.792, 0.288-11.456, 0.8-16.96c-71.456-8.288-127.136-69.248-127.136-143.040
	c0-68.512, 53.216-166.176, 128.256-176L 612.032,64 z M 446.88,327.168L 446.88,327.168c 28.416,40.896, 85.6,45.056, 111.136,57.472L 558.24,384l 22.144,0 
	c 62.72,0, 119.808-48, 119.808-108.736c0-58.944-39.072-147.264-102.176-147.264L 135.712,128 c-35.168,0-67.936,75.936-67.936,119.264
	c 0.032,49.376, 43.712,85.216, 95.296,74.752l 49.632-11.84l-12.192,48.224c-3.2,12.736-6.4,27.328-6.4,42.048c0,97.056, 78.048,175.776, 174.016,175.776
	c 72.64,0, 134.112-43.424, 160.512-113.152c-64.736-38.272-84.608-129.12-84.608-129.12"  />
<glyph unicode="&#xe04a;" d="M 318.272,436.384c-54.176,41.888-120.16,86.272-224,94.688L 318.272,436.384zM 318.272,340.384c-54.176,41.888-120.16,86.272-224,94.688L 318.272,340.384zM 222.24,305.568c-35.68,16.736-77.312,29.408-127.968,33.504L 222.24,305.568zM 417.728,436.384l 224,94.688C 537.888,522.656, 471.904,478.24, 417.728,436.384zM 417.728,340.384l 224,94.688C 537.888,426.656, 471.904,382.24, 417.728,340.384zM 641.728,339.072c-50.656-4.096-92.288-16.736-127.968-33.504L 641.728,339.072zM 705.728,724.384c-140.16,0-268.448-65.44-333.28-117.248l-8.864,0 C 298.72,658.944, 170.432,724.384, 30.272,724.384L0,724.384 l0-608 l 30.272,0 
		c 103.552,0, 218.336-39.872, 269.376-78.368c 15.168-11.488, 29.024-23.488, 41.216-35.712l 25.632-23.52l 3.008,0 l 25.632,23.52
		c 12.192,12.224, 26.048,24.224, 41.216,35.712c 51.040,38.496, 165.824,78.368, 269.376,78.368L 736,116.384 l0,608 L 705.728,724.384 z M 352,79.328
		c0,3.264-7.808,6.56-12.032,9.76C 286.432,129.44, 160,172.16, 64,179.328L 64,659.072 c 128-9.792, 232.416-71.968, 277.792-117.184l 8.672-9.504L 352,532.384 L 352,79.328 z
		 M 672,179.328c-96-7.168-222.432-49.888-275.968-90.24C 391.808,85.888, 384,82.56, 384,79.328L 384,532.384 l 1.568,0 l 8.672,9.504
		C 439.584,587.104, 544,649.28, 672,659.072L 672,179.328 z"  />
<glyph unicode="&#xe04b;" d="M 587.648-16.736c-12.128-0.064-24.864,3.424-37.888,10.304l-124.032,65.184c-20.736,10.944-62.72,10.944-83.52,0L 218.24-6.432
	c-31.040-16.32-62.112-12.448-79.808,8.512c-8.544,10.112-17.632,28.512-12.48,58.496l 23.68,138.112c 4.16,24.32-8.16,62.176-25.824,79.424
	l-100.384,97.792C 2.4,396.48-5.536,420.896, 1.632,442.976c 7.2,22.048, 28,37.152, 57.12,41.376l 138.624,20.16
	c 24.448,3.552, 56.672,26.944, 67.552,49.056l 62.048,125.696C 340,705.632, 360.768,720.736, 384,720.736s 44-15.136, 56.992-41.504l 62.048-125.696
	c 10.912-22.112, 43.136-45.504, 67.552-49.056l 138.624-20.16c 29.12-4.224, 49.952-19.328, 57.12-41.376c 7.168-22.048-0.768-46.496-21.856-67.072
	l-100.384-97.792c-17.664-17.248-29.984-55.136-25.824-79.424l 23.68-138.112c 5.152-30.016-3.936-48.384-12.48-58.432
	C 619.328-10.048, 604.416-16.736, 587.648-16.736z M 384,131.36c 26.56,0, 51.968-5.696, 71.52-16l 123.296-64.8l-23.52,137.312
	c-7.776,45.376, 11.232,103.872, 44.192,136.064l 99.776,97.184l-137.824,20.064c-45.632,6.624-95.392,42.752-115.744,84.064L 384,650.144l-61.696-124.896
	c-20.352-41.312-70.112-77.44-115.744-84.064L 68.736,421.12l 99.776-97.184c 32.96-32.192, 51.968-90.688, 44.192-136.064L 189.184,50.56l 123.264,64.8
	C 332.032,125.696, 357.44,131.36, 384,131.36z"  />
<glyph unicode="&#xe04c;" d="M 384,736C 171.936,736,0,564.064,0,352s 171.936-384, 384-384s 384,171.936, 384,384S 596.064,736, 384,736z M 384,32C 207.552,32, 64,175.552, 64,352S 207.552,672, 384,672
	s 320-143.552, 320-320S 560.448,32, 384,32zM 526.304,572.64c-15.808,7.872-35.040,1.472-42.944-14.304l-108.128-216.288l-64.64,64.608c-12.512,12.512-32.736,12.512-45.248,0
	s-12.512-32.736,0-45.248l 96-96C 367.424,259.328, 375.552,256, 384,256c 1.696,0, 3.424,0.128, 5.12,0.416c 10.144,1.664, 18.88,8.096, 23.488,17.28l 128,256
	C 548.544,545.504, 542.112,564.704, 526.304,572.64zM 352.064,128.064L 416.064,128.064L 416.064,96L 352.064,96zM 352.064,640L 416.064,640L 416.064,607.936L 352.064,607.936zM 96,384.064L 160,384.064L 160,352L 96,352zM 607.936,384.064L 671.936,384.064L 671.936,352L 607.936,352z"  />
<glyph unicode="&#xe04d;" d="M 704,448l-64,0 L 640,704 L 128,704 l0-256 L 64,448 c-35.2,0-64-28.8-64-64l0-320 c0-35.2, 21.6-64, 48-64L 128,0 l0-32 l 512,0 l0,32 l 80,0 c 26.4,0, 48,28.8, 48,64L 768,384 C 768,419.2, 739.2,448, 704,448z
	 M 128,32L 96,32 l0,160 l 32,0 L 128,32 z M 576,32L 192,32 l0,160 l 64,0 l0-32 l 256,0 l0,32 l 64,0 L 576,32 z M 576,448L 192,448 L 192,640 l 384,0 L 576,448 z M 672,32l-32,0 l0,160 l 32,0 L 672,32 z M 704,352l-64,0 l0,32 l 64,0 L 704,352 zM 256,96l 256,0 l0,32 L 256,128 L 256,96 z"  />
<glyph unicode="&#xe04e;" d="M 672,491.168L 672,704 l-160,0 l0-94.816 L 383.424,704L0,416l 96,0 l0-416 l 576,0 L 672,416 l 96-0.064L 672,491.168z M 384,64L 256,64 l0,256 l 128,0 L 384,64 z M 608,64l-192,0 l0,288 L 224,352 l0-288 L 160,64 L 160,448 l 224.288,160L 608,448
			L 608,64 z M 608,571.776l-32,21.344L 576,640 l 32,0 L 608,571.776 z M 576,288l-128,0 l0-128 l 128,0 L 576,288 z M 544,192l-64,0 l0,64 l 64,0 L 544,192 z M 352,192l-32,0 l0-32 l 32,0 L 352,192 z"  />
<glyph unicode="&#xe04f;" d="M 607.936,672.064l0-13.28 c-31.968,9.472-56.608,14.752-86.016,14.752c-57.376,0-114.56-17.888-168.384-35.168
	C 302.176,621.92, 252.832,606.304, 205.536,606.304c-35.808,0-65.056,9.344-94.976,28.544L 64,666.528l0-492.032 l 11.616-9.44
	c 40.512-26.048, 82.24-38.752, 130.688-38.752c 57.344,0, 112.224,17.888, 166.016,35.2c 51.36,16.512, 102.624,32.064, 149.984,32.064
	c 30.016,0, 53.696-7.008, 85.696-20.448l0-206.688 l 64,0 L 672,670.4 L 672,672.064 L 607.936,672.064 z M 608,243.424c-32,9.504-56.672,14.112-86.048,14.112
	c-57.376,0-114.56-17.888-168.384-35.136c-51.392-16.512-97.632-32.128-144.928-32.128c-30.016,0-48.64,6.56-80.64,20L 128,556.448 
	c 32-9.472, 50.496-14.112, 79.872-14.112c 57.312,0, 111.424,17.888, 165.248,35.168c 51.36,16.512, 102.24,32.096, 149.568,32.096
	C 552.672,609.568, 576,603.008, 608,589.6L 608,243.424 z"  />
<glyph unicode="&#xe050;" d="M 384,736C 171.936,736,0,564.064,0,352s 171.936-384, 384-384s 384,171.936, 384,384S 596.064,736, 384,736z M 384,32C 207.552,32, 64,175.552, 64,352S 207.552,672, 384,672
			s 320-143.552, 320-320S 560.448,32, 384,32z M 227.456,554.592c0,0-0.096-0.096-0.128-0.096C 227.328,554.464, 227.328,554.464, 227.328,554.464
			C 227.264,554.432, 227.232,554.368, 227.2,554.368C 227.168,554.336, 227.168,554.336, 227.136,554.304C 227.072,554.272, 226.976,554.176, 226.912,554.144
			C 226.88,554.112, 226.88,554.112, 226.88,554.112C 226.816,554.048, 226.784,554.048, 226.752,554.016L 226.688,553.984C 226.656,553.952, 226.624,553.952, 226.592,553.888
			c-0.032,0-0.096-0.032-0.128-0.064c0,0-0.032-0.032-0.064-0.064C 226.336,553.728, 226.304,553.696, 226.24,553.632c0,0-0.064-0.032-0.064-0.064
			c-0.064,0-0.096-0.064-0.128-0.064c0,0-0.032-0.064-0.064-0.064L 225.888,553.344C 225.856,553.312, 225.856,553.312, 225.856,553.312
			C 225.76,553.248, 225.696,553.184, 225.632,553.152l0-0.032 C 225.568,553.088, 225.504,553.056, 225.472,552.992c0,0-0.032,0-0.064,0
			C 225.376,552.928, 225.312,552.896, 225.28,552.864c0,0-0.032-0.032-0.064-0.064C 225.088,552.736, 224.992,552.64, 224.864,552.576
			C 224.832,552.544, 224.832,552.544, 224.832,552.544C 224.768,552.512, 224.704,552.448, 224.672,552.384L 224.672,552.384 c-0.224-0.16-0.416-0.32-0.608-0.448l0-0.032 
			C 220.64,549.12, 217.248,546.304, 213.952,543.36C 213.76,543.2, 213.568,543.040, 213.408,542.88L 213.376,542.88 C 213.312,542.816, 213.28,542.752, 213.216,542.688L 213.184,542.688 
			c-0.128-0.096-0.224-0.192-0.352-0.32L 212.8,542.368 C 212.768,542.304, 212.704,542.24, 212.672,542.208c0-0.032-0.032-0.032-0.032-0.032
			C 212.576,542.112, 212.544,542.080, 212.48,542.048l0-0.032 C 212.416,542.016, 212.352,541.952, 212.288,541.888c0,0-0.032,0-0.032-0.032L 212.128,541.728
			C 212.096,541.696, 212.096,541.696, 212.096,541.696C 212.032,541.632, 211.968,541.6, 211.968,541.6C 211.904,541.536, 211.904,541.536, 211.904,541.536
			C 211.84,541.472, 211.776,541.44, 211.712,541.376c0,0,0,0-0.032-0.032L 211.552,541.216C 211.52,541.184, 211.52,541.184, 211.52,541.184
			C 211.456,541.12, 211.424,541.088, 211.36,541.056c0-0.032-0.032-0.032-0.032-0.032L 211.2,540.864c0,0-0.032-0.032-0.064-0.064
			S 211.072,540.736, 211.008,540.704c0,0-0.064-0.064-0.064-0.096c0,0-0.064-0.032-0.096-0.064S 210.784,540.512, 210.752,540.512
			c0,0-0.032-0.064-0.064-0.096C 210.624,540.384, 210.592,540.32, 210.56,540.32C 210.528,540.256, 210.496,540.256, 210.432,540.192
			c0,0-0.032-0.064-0.064-0.064L 210.304,540.064C 210.24,540.032, 210.208,540, 210.176,539.968c0-0.032-0.032-0.032-0.032-0.032L 209.792,539.552L 209.76,539.552 
			C 209.728,539.488, 209.696,539.456, 209.632,539.424c0,0,0,0-0.032-0.032S 209.536,539.36, 209.536,539.36l 21.824-23.424
			C 238.144,522.24, 245.44,528.256, 252.96,533.696L 234.208,559.616C 231.936,558.016, 229.696,556.32, 227.456,554.592z M 171.36,422.688L 140.992,432.768
			c-1.92-5.792-3.616-11.616-5.12-17.568c-0.064-0.288-0.128-0.544-0.192-0.768L 135.648,414.432 c0-0.064-0.032-0.128-0.032-0.192l-0.192-0.736
			c-0.032-0.064-0.032-0.128-0.064-0.192c0,0,0,0,0-0.032c-0.064-0.256-0.128-0.48-0.192-0.704l0-0.064 
			c0-0.064-0.032-0.128-0.032-0.128l0-0.064 c-0.064-0.192-0.096-0.384-0.16-0.576c0-0.064-0.032-0.128-0.032-0.192
			c-0.032-0.064-0.032-0.128-0.064-0.192l0-0.032 c-0.032-0.16-0.096-0.352-0.128-0.544c0,0,0,0,0-0.032
			c-0.032-0.064-0.032-0.096-0.032-0.16c0-0.032,0-0.064-0.032-0.064c0-0.064-0.032-0.128-0.032-0.16l0-0.032 
			c-0.032-0.192-0.096-0.352-0.128-0.544c0-0.032,0-0.032,0-0.032c-0.032-0.064-0.032-0.128-0.064-0.192
			c-0.064-0.256-0.096-0.512-0.16-0.736l0-0.032 c-0.032-0.064-0.032-0.096-0.064-0.16l0-0.064 c-0.064-0.256-0.096-0.512-0.16-0.704
			l0-0.032 C 134.080,407.808, 134.080,407.744, 134.048,407.68c-0.032-0.192-0.064-0.384-0.128-0.576c0-0.064-0.032-0.128-0.032-0.192
			c0,0,0-0.032,0-0.064c-0.032-0.032-0.032-0.096-0.032-0.16l-0.032-0.032c-0.032-0.256-0.096-0.512-0.16-0.736
			s-0.096-0.512-0.16-0.768c-0.032-0.064-0.032-0.128-0.032-0.192c-0.224-1.024-0.448-2.080-0.672-3.104l 31.392-6.208
			C 166.048,404.768, 168.448,413.888, 171.36,422.688z M 384,576c 2.56,0, 5.088-0.064, 7.616-0.128l 1.056,32C 390.528,607.936, 388.384,607.968, 386.176,608
			l-0.032,0 c-0.064,0-0.16,0-0.16,0l-0.64,0 c0,0,0,0-0.032,0l-0.224,0 c-0.032,0-0.032,0-0.032,0l-0.544,0 c0,0-0.032,0-0.064,0L 384.32,608 
			c0,0-0.032,0-0.064,0l-0.512,0 c0,0-0.032,0-0.064,0l-0.256,0 c0,0-0.096,0-0.16,0c0,0-0.032,0-0.064,0L 383.040,608 c0,0-0.032,0-0.064,0
			l-0.224,0 C 382.72,608, 382.72,608, 382.72,608l-1.728,0 c0,0-0.032,0-0.064,0l-0.224,0 c-0.096,0-0.16,0-0.256-0.032l-0.256,0 c0,0-0.032,0-0.064,0
			l-0.16,0 c-0.032,0-0.064,0-0.064,0l-0.192,0 c-0.032,0-0.032,0-0.032,0c-0.192,0-0.352-0.032-0.512-0.032c-0.032,0-0.032,0-0.032,0
			l-0.224,0 c-0.032,0-0.032,0-0.032,0l-0.992,0 c0,0,0,0-0.032,0l-0.224,0 c-0.256,0-0.512-0.032-0.736-0.032c-0.096,0-0.192,0-0.256-0.032
			l-1.28,0 c-7.104-0.256-14.144-0.768-21.12-1.568c-0.224-0.064-0.48-0.064-0.704-0.128L 353.28,606.176 c-0.064,0-0.128-0.032-0.128-0.032
			c-0.064,0-0.096,0-0.128-0.032l-0.16,0 c-0.032,0-0.032,0-0.032,0c-0.096,0-0.192-0.032-0.256-0.032
			c-0.032,0-0.064-0.032-0.096-0.032l-0.256,0 l-0.096-0.032l-0.096,0 l 3.968-31.744C 365.248,575.424, 374.656,576, 384,576z M 139.68,275.36l0-0.064 
			c 0.032-0.128, 0.096-0.288, 0.128-0.448c 0.032-0.096, 0.064-0.16, 0.064-0.256l 0.032,0 c 3.168-9.984, 6.912-19.712, 11.232-29.12l 29.088,13.312
			c-3.872,8.48-7.232,17.248-9.984,26.112L 139.68,275.36z M 629.6,424.512c-2.528,8.64-5.536,17.12-8.96,25.344L 620.64,449.888 
			c-0.032,0.064-0.032,0.096-0.032,0.096l-0.032,0.096c-0.064,0.16-0.16,0.32-0.224,0.512L 620.352,450.592 
			c-0.032,0.032-0.064,0.096-0.064,0.16l-0.032,0.032c-0.032,0.032-0.032,0.096-0.064,0.16c0,0,0,0.032-0.032,0.064
			c-0.032,0.064-0.064,0.128-0.096,0.224c0,0.032-0.032,0.064-0.032,0.096c0,0-0.032,0.064-0.032,0.096
			c-0.032,0.032-0.032,0.096-0.032,0.096c-0.032,0.064-0.064,0.064-0.064,0.128c-0.032,0.032-0.032,0.064-0.064,0.128l-0.128,0.256
			c0,0.032,0,0.064,0,0.064c-0.032,0.064-0.064,0.128-0.096,0.16c0,0,0,0.032,0,0.096c-0.032,0.032-0.064,0.064-0.064,0.128
			c-0.032,0-0.032,0.064-0.032,0.064l-0.096,0.192L 619.424,452.704 c-0.032,0.064-0.064,0.16-0.096,0.224l-0.032,0.032
			c0,0.032-0.032,0.096-0.064,0.16c0,0.064,0,0.064,0,0.064c-0.064,0.064-0.064,0.128-0.096,0.192l-0.032,0.032l-0.288,0.672
			c-0.064,0.192-0.128,0.32-0.192,0.48l-29.344-12.832c 3.744-8.512, 6.976-17.312, 9.6-26.24L 629.6,424.512z M 603.008,304.64
			c-1.984-9.088-4.544-18.144-7.584-26.912l 30.176-10.592c 0.672,1.888, 1.312,3.808, 1.952,5.76l 0.832,2.624
			c 2.272,7.328, 4.256,14.784, 5.92,22.368L 603.008,304.64z M 534.688,558.976C 534.688,558.976, 534.688,559.008, 534.688,558.976
			c-0.16,0.128-0.288,0.224-0.448,0.352l-0.064,0 C 534.144,559.36, 534.112,559.36, 534.080,559.392s-0.064,0.032-0.064,0.032
			c-0.032,0.064-0.096,0.064-0.096,0.064c-0.064,0.064-0.128,0.128-0.128,0.128C 533.76,559.68, 533.728,559.68, 533.696,559.68
			c-0.032,0.064-0.064,0.064-0.128,0.096c0,0.032-0.032,0.032-0.064,0.064s-0.096,0.032-0.128,0.096c0,0-0.032,0-0.064,0.032
			C 533.248,560, 533.184,560.064, 533.12,560.096s-0.128,0.096-0.192,0.16l-0.032,0 c-0.064,0.064-0.096,0.096-0.16,0.128l-0.032,0.032
			c-5.984,4.256-12.096,8.288-18.432,12l-16.288-27.52c 7.968-4.736, 15.776-10.016, 23.136-15.744l 19.616,25.312
			c-1.952,1.504-3.904,2.976-5.92,4.448C 534.784,558.912, 534.752,558.944, 534.688,558.976z M 324.928,472.064c0,0-47.488-190.24-33.504-241.376
			c 13.952-51.168, 66.752-81.248, 117.92-67.264c 51.168,13.952, 81.28,66.752, 67.296,117.92C 462.624,332.48, 324.928,472.064, 324.928,472.064z
			 M 400.864,194.272c-34.048-9.344-69.248,10.752-78.56,44.832s 10.688,69.28, 44.832,78.624c 34.080,9.312, 69.28-10.752, 78.592-44.864
			C 455.072,238.816, 435.008,203.616, 400.864,194.272z"  />
<glyph unicode="&#xe051;" d="M 368,288c 26.4,0, 48,28.8, 48,64L 416,608 c0,35.2-21.6,64-48,64S 320,643.2, 320,608l0-256 C 320,316.8, 341.6,288, 368,288z M 480,585.984l0-70.208 
			c 76-40.288, 128-119.936, 128-211.776c0-132.352-107.648-240-240-240S 128,171.648, 128,304c0,91.84, 52,171.488, 128,211.776L 256,585.984 
			C 143.744,541.312, 64,432, 64,304c0-167.616, 136.384-304, 304-304s 304,136.384, 304,304C 672,432, 592.256,541.312, 480,585.984z"  />
<glyph unicode="&#xe052;" d="M 368,640C 200.384,640, 64,503.616, 64,336S 200.384,32, 368,32s 304,136.384, 304,304S 535.616,640, 368,640z M 128,336C 128,468.352, 235.648,576, 368,576
	c 48.832,0, 94.272-14.752, 132.224-39.904L 167.904,203.776C 142.752,241.728, 128,287.168, 128,336z M 368,96c-48.832,0-94.272,14.752-132.224,39.904
	L 568.096,468.224C 593.248,430.272, 608,384.832, 608,336C 608,203.648, 500.352,96, 368,96z"  />
<glyph unicode="&#xe053;" d="M 608,448L 608,544 c0,64-64,160-224,160S 160,608, 160,544l0-96 L 96,448 l0-352 c0-52.928, 43.072-96, 96-96l 384,0 c 52.928,0, 96,43.072, 96,96L 672,448 L 608,448 z M 224,576c0,0, 32,64, 160,64s 160-64, 160-64l0-128 L 224,448 L 224,576 z
	 M 608,96c0-17.632-14.336-32-32-32L 192,64 c-17.664,0-32,14.368-32,32l0,288 l 448,0 L 608,96 zM 352,200.864L 352,128 l 64,0 l0,72.864 c 19.072,11.104, 32,31.488, 32,55.136c0,35.328-28.672,64-64,64s-64-28.672-64-64C 320,232.384, 332.928,211.968, 352,200.864z"  />
<glyph unicode="&#xe054;" d="M 608,736c-128,0-160-96-160-160l0-160 L0,416 l0-352 c0-52.928, 43.072-96, 96-96l 384,0 c 52.928,0, 96,43.072, 96,96L 576,416 l-64,0 L 512,608 c0,0,0,64, 96,64s 96-64, 96-64l0-128 l 64,0 L 768,576 C 768,640, 736,736, 608,736z
	 M 512,64c0-17.632-14.336-32-32-32L 96,32 c-17.664,0-32,14.368-32,32l0,288 l 448,0 L 512,64 zM 256,168.864L 256,96 l 64,0 l0,72.864 c 19.072,11.104, 32,31.488, 32,55.136c0,35.328-28.672,64-64,64s-64-28.672-64-64C 224,200.384, 236.928,179.968, 256,168.864z"  />
<glyph unicode="&#xe055;" d="M 352,168.864L 352,96 l 64,0 l0,72.864 c 19.072,11.104, 32,31.488, 32,55.136c0,35.328-28.672,64-64,64s-64-28.672-64-64C 320,200.384, 332.928,179.968, 352,168.864zM 608,416L 608,544 c0,64-64,160-224,160S 160,608, 160,544l0-224 l 64,0 L 224,576 c0,0, 32,64, 160,64s 160-64, 160-64l0-160 L 288,416 l0-64 l 320,0 l0-288 c0-17.632-14.336-32-32-32L 192,32 c-17.664,0-32,14.368-32,32l0,186.112 L 160,256 
	L 128,256 L 96,256 l0-192 c0-52.928, 43.072-96, 96-96l 384,0 c 52.928,0, 96,43.072, 96,96L 672,416 L 608,416 z"  />
<glyph unicode="&#xe056;" d="M 480,276.384c0,0-197.824,0-272-173.12c0,0, 123.872-49.44, 272-49.44s 272,49.44, 272,49.44C 677.824,276.384, 480,276.384, 480,276.384z
			 M 480,301.056c 74.176,0, 123.616,74.176, 123.616,197.856S 480,622.56, 480,622.56s-123.616,0-123.616-123.648S 405.824,301.056, 480,301.056z M 240,385.44
			c 24.384,0, 45.312,10.112, 61.92,28.32C 295.776,438.624, 292.384,467.040, 292.384,498.912c0,47.52, 18.272,76.672, 40.768,94.656
			C 308.64,650.048, 240,650.176, 240,650.176s-101.824,0-101.824-101.824C 138.176,446.528, 178.912,385.44, 240,385.44z M 336,305.632l-3.456,40.256
			C 282.688,364.96, 240,365.088, 240,365.088s-162.912,0-224-142.56c0,0, 78.752-31.392, 180.64-39.040C 285.376,276.384, 336,305.632, 336,305.632z"  />
<glyph unicode="&#xe057;" d="M 384,256c0,0-256,0-352-224c0,0, 160.32-64, 352-64s 352,64, 352,64C 640,256, 384,256, 384,256z M 384,288c 96,0, 160,96, 160,256s-160,160-160,160S 224,704, 224,544S 288,288, 384,288z"  />
<glyph unicode="&#xe058;" d="M 754.816,97.28c-46.688,107.488-154.912,169.92-233.472,196.608c 48.128,39.328, 76.544,113.504, 76.544,210.656c0,129.12-107.936,163.264-165.024,163.264
	c-9.184,0-19.744-1.024-30.88-3.040C 371.328,692.32, 330.784,704, 298.528,704C 238.88,704, 150.144,664.896, 150.144,557.216c0-85.696, 25.024-151.328, 67.488-186.656
	c-66.816-17.472-157.824-60.608-204.448-167.968L0,172.224l 30.816-12.16c 2.752-1.088, 40.64-15.616, 97.984-28.448
	c-6.56-11.136-12.736-22.368-17.952-34.336l-13.216-30.368l 30.816-12.16C 134.144,52.544, 269.28,0, 432.832,0s 298.688,52.544, 304.384,54.752L 768,66.912
	L 754.816,97.28z M 533.888,504.512c0-109.792-38.72-177.984-101.024-177.984s-101.024,68.192-101.024,177.984c0,93.44, 84.32,99.072, 100.864,99.264
	C 449.568,603.584, 533.888,597.952, 533.888,504.512z M 298.528,640C 301.76,640, 314.56,639.456, 329.184,634.72c-34.24-24.64-61.344-65.472-61.344-130.208
	c0-35.168, 3.808-67.264, 10.816-95.872C 231.552,423.648, 214.144,492.32, 214.144,557.216C 214.144,635.008, 284.608,639.84, 298.528,640z M 298.528,318.528
	c 0.384,0, 9.28-0.192, 23.232-1.984c 13.952-17.216, 30.368-30.528, 48.864-39.648c-50.368-10.080-122.112-34.144-180.288-91.68
	c-41.92,6.752-77.824,15.808-101.92,23.040C 157.12,316.416, 292.384,318.496, 298.528,318.528z M 432.832,64c-104.832,0-210.144,24-258.272,38.848
	c 7.584,21.984, 31.552,51.040, 39.872,61.024c 89.376,86.56, 217.088,88.384, 218.304,88.384c 0.256,0, 23.328-0.352, 56.16-6.912
	c 57.024-14.4, 145.6-67.040, 191.168-142.432C 631.968,88.064, 537.824,64, 432.832,64z"  />
<glyph unicode="&#xe059;" d="M 757.632,96.32c-53.664,128.256-157.248,187.936-237.536,215.648c 35.84,49.184, 55.456,121.344, 56.224,209.6
	c 1.312,148.992-121.536,189.472-186.656,190.016c-65.152,0.576-188.672-37.76-190.016-186.752c-0.768-88.224, 17.6-160.672, 52.544-210.528
	c-80.736-26.24-185.44-84.224-241.28-211.456l-13.216-30.016l 30.368-12.48c 6.624-2.656, 164.032-66.24, 355.264-67.904
	c 191.264-1.696, 349.76,59.104, 356.448,61.664l 30.56,11.904L 757.632,96.32z M 388.896,647.584c 12.768-0.256, 124.48-5.696, 123.424-125.472
	c-0.832-95.872-26.912-168.768-71.424-200.032l-55.072-38.656l-54.272,39.584c-44,32.064-68.768,105.408-67.904,201.28
	C 264.704,644.096, 376.512,647.552, 388.896,647.584z M 383.904,56.416c-129.472,1.12-244.736,33.504-298.912,51.424c 58.56,102.56, 157.792,142.624, 233.984,157.984
	l 66.848,13.472l 66.592-14.592c 75.936-16.736, 174.464-58.528, 231.264-162.048C 629.312,85.632, 513.76,55.264, 383.904,56.416z"  />
<glyph unicode="&#xe05a;" d="M 247.68,192L 640,64L 640,640 L 247.68,512L 128,512 c-52.928,0-96-43.072-96-96l0-128 c0-52.928, 43.072-96, 96-96l 13.664,0 c-0.032-0.8-0.096-1.504-0.096-2.304
		c-0.032-20.448, 2.080-48.448, 11.712-77.12c 5.184-14.176, 11.648-28.64, 20.512-41.376c 4.416-6.368, 8.672-12.672, 13.92-17.888
		c 5.024-5.376, 9.632-10.816, 14.88-14.688c 9.984-8.672, 19.264-14.816, 26.112-18.304c 6.848-3.808, 10.72-6.048, 10.72-6.048l 1.184-0.672
		c 6.016-3.328, 12.768-5.568, 20.064-6.368c 29.44-3.328, 55.968,17.888, 59.264,47.328s-17.92,55.936-47.328,59.328c0,0-1.856,0.128-5.024,0.512
		c-3.488,0-8.128,0.736-13.664,2.432c-3.104,0.448-5.76,2.112-9.056,3.36c-3.424,1.12-6.528,3.36-10.048,5.568
		c-7.072,4.32-13.952,10.944-20.768,18.432C 201.984,158.368, 192.512,176.576, 186.272,192L 192,192 L 247.68,192 z M 544,552.928l 32,10.688l0-423.264 l-32,9.696L 544,552.928 z
		 M 288,467.264l 224,74.944L 512,159.68 l-224,77.056L 288,467.264 z M 128,256c-17.664,0-32,14.368-32,32l0,128 c0,17.632, 14.336,32, 32,32l 128,0 l0-192 L 128,256 zM 672,448L 704,448L 704,256L 672,256z"  />
<glyph unicode="&#xe05b;" d="M 640,224c-38.4,0-72.512-17.344-96-44.224L 309.632,296.96C 316,314.176, 320,332.576, 320,352s-4,37.824-10.368,55.040L 544,524.224
	C 567.488,497.344, 601.6,480, 640,480c 70.592,0, 128,57.44, 128,128s-57.408,128-128,128s-128-57.44-128-128c0-9.184, 1.056-18.112, 2.912-26.752l-239.040-119.52
	C 275.968,461.632, 276,461.504, 276.096,461.44C 246.912,492.384, 205.824,512, 160,512c-88.224,0-160-71.776-160-160s 71.776-160, 160-160c 45.824,0, 86.912,19.616, 116.096,50.56
	c-0.096-0.064-0.128-0.192-0.224-0.288l 239.040-119.52C 513.056,114.112, 512,105.184, 512,96c0-70.56, 57.408-128, 128-128s 128,57.44, 128,128S 710.592,224, 640,224z
	 M 640,672c 35.296,0, 64-28.672, 64-64s-28.704-64-64-64s-64,28.672-64,64S 604.704,672, 640,672z M 160,256c-52.928,0-96,43.072-96,96s 43.072,96, 96,96s 96-43.072, 96-96
	S 212.928,256, 160,256z M 640,32c-35.296,0-64,28.672-64,64s 28.704,64, 64,64s 64-28.672, 64-64S 675.296,32, 640,32z"  />
<glyph unicode="&#xe05c;" d="M0,672l0-448 l 312,0 L 256,128l 256,0 l-56,96L 768,224 L 768,672 L0,672 z M 704,288L 64,288 L 64,608 l 640,0 L 704,288 z M 544,96L 224,96 c-17.6,0-32-14.4-32-32s 14.4-32, 32-32l 320,0 c 17.6,0, 32,14.4, 32,32
			S 561.6,96, 544,96z"  />
<glyph unicode="&#xe05d;" d="M 512,640L 256,640 C 220.8,640, 192,611.2, 192,576l0-448 c0-35.2, 28.8-64, 64-64l 256,0 c 35.2,0, 64,28.8, 64,64L 576,576 C 576,611.2, 547.2,640, 512,640z M 416,96l-64,0 l0,64 l 64,0 L 416,96 z M 512,192L 256,192 L 256,576 l 256,0 L 512,192 z"  />
<glyph unicode="&#xe05e;" d="M 672,448l-224,0 l0-64 l 224,0 l0-256 l-224,0 c0-35.2-32-64-32-64l 256,0 c 35.2,0, 64,28.8, 64,64l0,256 C 736,419.2, 707.2,448, 672,448z M 320,640L 64,640 C 28.8,640,0,611.2,0,576l0-448 c0-35.2, 28.8-64, 64-64l 256,0 
			c 35.2,0, 64,28.8, 64,64L 384,576 C 384,611.2, 355.2,640, 320,640z M 224,96L 160,96 l0,64 l 64,0 L 224,96 z M 320,192L 64,192 L 64,576 l 256,0 L 320,192 z"  />
<glyph unicode="&#xe05f;" d="M 64,576l 256,0 l0-64 l 64,0 L 384,576 c0,35.2-28.8,64-64,64L 64,640 C 28.8,640,0,611.2,0,576l0-448 c0-35.2, 24.352-64, 59.52-64L 96,64 l0,128 L 64,192 L 64,576 z M 672,448L 224,448 c-35.2,0-64-28.8-64-64l0-256 
			c0-35.2, 28.8-64, 64-64l 448,0 c 35.2,0, 64,28.8, 64,64l0,256 C 736,419.2, 707.2,448, 672,448z M 256,224L 192,224 l0,64 l 64,0 L 256,224 z M 672,128L 288,128 l0,256 l 384,0 L 672,128 z"  />
<glyph unicode="&#xe060;" d="M 608,704L 160,704 C 124.8,704, 96,675.2, 96,640l0-576 c0-35.2, 28.8-64, 64-64l 448,0 c 35.2,0, 64,28.8, 64,64L 672,640 C 672,675.2, 643.2,704, 608,704z M 416,32l-64,0 l0,64 l 64,0 L 416,32 z M 608,128L 160,128 L 160,640 l 448,0 L 608,128 
	z"  />
<glyph unicode="&#xe061;" d="M 736,128L 736,576 c0,35.2-28.8,64-64,64L 96,640 C 60.8,640, 32,611.2, 32,576l0-448 c0-35.2, 28.8-64, 64-64l 576,0 C 707.2,64, 736,92.8, 736,128z M 64,320l0,64 l 64,0 l0-64 L 64,320 z M 160,128L 160,576 l 512,0 l0-448 L 160,128 
	z"  />
<glyph unicode="&#xe062;" d="M 96,544l 576,0 l0-320 l 64,0 L 736,608 L 32,608 l0-384 l 64,0 L 96,544 z M 512,192c-6.144-12.864-36.64-23.2-64-28.352L 448,160 l-128,0 l0,3.648 C 292.64,168.8, 262.144,179.136, 256,192L0,192 l0-32 
			c0-35.2, 96-64, 96-64l 576,0 c0,0, 96,28.8, 96,64l0,32 L 512,192 z M 640,128l-32,0 l0,32 l 32,0 L 640,128 z"  />
<glyph unicode="&#xe063;" d="M 399.968,448C 320.448,448, 256,383.52, 256,304s 64.448-144, 143.968-144c 79.488,0, 143.968,64.48, 143.968,144S 479.456,448, 399.968,448z M 344.224,400.544
	C 360.672,410.112, 379.584,416, 400,416c 57.312,0, 104.192-43.456, 110.688-99.104C 455.328,359.52, 389.888,385.824, 344.224,400.544zM 720,576l-154.688,0 L 544,640L 224,640 L 202.688,576L 80,576 C 44.672,576,0,547.328,0,512l0-384 c0-35.328, 44.672-64, 80-64l 640,0 c 35.328,0, 48,28.672, 48,64L 768,512 
	C 768,547.328, 755.328,576, 720,576z M 400,96C 285.12,96, 192,189.12, 192,304S 285.12,512, 400,512S 608,418.88, 608,304S 514.88,96, 400,96z M 704,448l-64,0 L 640,512 l 64,0 L 704,448 z"  />
<glyph unicode="&#xe064;" d="M 672,640L 96,640 C 43.072,640,0,596.928,0,544l0-352 c0-52.928, 43.072-96, 96-96l 32,0 l 32-64l 32,0 l 32,64l 320,0 l 32-64l 32,0 l 32,64l 32,0 c 52.928,0, 96,43.072, 96,96L 768,544 
		C 768,596.928, 724.928,640, 672,640z M 704,192c0-17.664-14.368-32-32-32L 96,160 c-17.632,0-32,14.336-32,32L 64,544 c0,17.632, 14.368,32, 32,32l 576,0 c 17.632,0, 32-14.368, 32-32L 704,192 zM 96,192l 480,0 L 576,544 L 96,544 L 96,192 z M 128,512l 416,0 l0-288 L 128,224 L 128,512 zM 608,512L 640,512L 640,480L 608,480zM 640,480L 672,480L 672,448L 640,448zM 608,448L 640,448L 640,416L 608,416zM 640,416L 672,416L 672,384L 640,384zM 608,320L 672,320L 672,288L 608,288zM 608,256L 672,256L 672,224L 608,224z"  />
<glyph unicode="&#xe065;" d="M 704,512l-64,0 L 640,530.88 C 640,566.112, 611.328,608, 576,608L 64,608 C 28.672,608,0,566.112,0,530.88l0-288 C0,207.552, 28.672,192, 64,192l 32,0 l0-77.12 C 96,79.552, 124.672,64, 160,64
			l 544,0 c 35.328,0, 64,15.552, 64,50.88l0,320 C 768,470.112, 739.328,512, 704,512z M 96,256L 64,256 l0,128 l 32,0 L 96,256 z M 104.896,480L 64,480 L 64,544 l 512,0 l0-32 L 160,512 C 136.448,512, 116,480, 104.896,480z M 160,128L 160,448 
			l 544,0 l 0.064-320L 160,128 z M 512,224l 160,0 l0,128 l-160,0 L 512,224 z M 544,320l 96,0 l0-64 l-96,0 L 544,320 z M 256,160l 128,0 l0,32 L 256,192 L 256,160 z M 192,352l 224,0 l0,64 L 192,416 L 192,352 z M 416.064,160l 31.872,0 l0,32 l-31.872,0 L 416.064,160 z M 192,160
			l 31.872,0 l0,32 L 192,192 L 192,160 z"  />
<glyph unicode="&#xe066;" d="M 128,224l 96,0 l0,96 L 128,320 L 128,224 z M 160,288l 32,0 l0-32 L 160,256 L 160,288 z M 256,224l 96,0 l0,96 L 256,320 L 256,224 z M 288,288l 32,0 l0-32 L 288,256 L 288,288 z M 256,96l 96,0 l0,96 
			L 256,192 L 256,96 z M 288,160l 32,0 l0-32 L 288,128 L 288,160 z M 128,96l 96,0 l0,96 L 128,192 L 128,96 z M 160,160l 32,0 l0-32 L 160,128 L 160,160 z M 384,224l 96,0 l0,96 l-96,0 L 384,224 z M 416,288l 32,0 l0-32 l-32,0 L 416,288 z M 320,416l 32,0 L 352,448 l-32,0 L 320,416 z M 256,416l 32,0 L 288,448 L 256,448 L 256,416 
			z M 128,352l 512,0 L 640,640 L 128,640 L 128,352 z M 160,608l 448,0 l0-224 L 160,384 L 160,608 z M 640,736L 128,736 C 74.976,736, 32,693.024, 32,640l0-576 c0-53.024, 42.976-96, 96-96l 512,0 c 53.024,0, 96,42.976, 96,96L 736,640 
			C 736,693.024, 693.024,736, 640,736z M 672,64c0-17.696-14.304-32-32-32L 128,32 c-17.696,0-32,14.304-32,32L 96,640 c0,17.696, 14.304,32, 32,32l 512,0 c 17.696,0, 32-14.304, 32-32L 672,64 z
			 M 384,96l 96,0 l0,96 l-96,0 L 384,96 z M 416,160l 32,0 l0-32 l-32,0 L 416,160 z M 512,96l 128,0 l0,224 l-128,0 L 512,96 z M 544,288l 64,0 l0-160 l-64,0 L 544,288 z M 192,416l 32,0 L 224,448 L 192,448 L 192,416 z"  />
<glyph unicode="&#xe067;" d="M 576,512L 576,608.128 L 480,704L 288,704 L 192,608.128L 192,512 L 96,512 l0-544 l 576,0 L 672,512 L 576,512 z M 288,640l 192,0 l 32-32L 256,608 L 288,640z M 512,576l0-64 l-32,0 L 480,576 L 512,576 z M 448,576l0-64 l-128,0 L 320,576 L 448,576 z M 256,576l 32,0 l0-64 L 256,512 L 256,576 z M 608,32L 160,32 L 160,448 
	l 448,0 L 608,32 z"  />
<glyph unicode="&#xe068;" d="M 557.056,673.056L 210.944,673.056 L0,464l 384-433.056L 768,464L 557.056,673.056z M 691.008,447.104L 690.56,449.056l-284.864,0 l 136.576,147.488L 691.008,447.104z
	 M 332.736,179.648L 108,417.056L 256,417.056 l-14.88-7.136L 332.736,179.648z M 273.184,417.056l 221.568,0 L 384,140.128L 273.184,417.056z M 512,417.056l 147.936,0 L 435.2,179.648
	l 91.616,230.272L 512,417.056z M 384,472.672L 258.752,609.056l 250.432,0 L 384,472.672z M 225.696,595.328l 136.576-146.272L 77.376,449.056 L 76.992,448.32L 225.696,595.328z"  />
<glyph unicode="&#xe069;" d="M 224,160A32,32 540 1 1 288,160A32,32 540 1 1 224,160zM 320,160A32,32 540 1 1 384,160A32,32 540 1 1 320,160zM 416,160A32,32 540 1 1 480,160A32,32 540 1 1 416,160zM 192,240A16,16 540 1 1 224,240A16,16 540 1 1 192,240zM 256,240A16,16 540 1 1 288,240A16,16 540 1 1 256,240zM 320,240A16,16 540 1 1 352,240A16,16 540 1 1 320,240zM 384,240A16,16 540 1 1 416,240A16,16 540 1 1 384,240zM 448,240A16,16 540 1 1 480,240A16,16 540 1 1 448,240zM 480,304A16,16 540 1 1 512,304A16,16 540 1 1 480,304zM 416,304A16,16 540 1 1 448,304A16,16 540 1 1 416,304zM 352,304A16,16 540 1 1 384,304A16,16 540 1 1 352,304zM 288,304A16,16 540 1 1 320,304A16,16 540 1 1 288,304zM 224,304A16,16 540 1 1 256,304A16,16 540 1 1 224,304zM 160,304A16,16 540 1 1 192,304A16,16 540 1 1 160,304zM 627.072,532.224l 28.64,57.248l-224.96,118.272L 352,512.032L 96,512.032 L 96,32 l 64,0 l0-64 l 320,0 l0,64 l 96,0 L 576,512.032 l-160,0 
		l 52.096,105.472L 627.072,532.224z M 448,32L 224,32 l0,32 l 224,0 L 448,32 z M 512,448.032L 512,304 L 512,96 L 160,96 l0,32 c 17.696,0, 32,14.304, 32,32s-14.304,32-32,32l0,112 L 160,448.032 L 512,448.032 z"  />
<glyph unicode="&#xe06a;" d="M 32,640l0-544 l 288,0 l0-64 l 416,0 L 736,640 L 32,640 z M 352,160L 96,160 l0,32 l 256,0 L 352,160 z M 672,96l-288,0 l0,32 l 288,0 L 672,96 z M 672,544l-32,0 l0-32 l 32,0 l0-126.88 
			L 672,160 l-288,0 l0,192 l-32,0 l0-128 L 96,224 l0,161.12 l0,0.416 c 23.776,1.824, 87.136,11.584, 87.136,63.584L 96,391.040L 96,576 l 576,0 L 672,544 z M 663.136,385.12l-96,64
			C 567.136,385.12, 663.136,385.12, 663.136,385.12z M 608,544l-32,0 l0-32 l 32,0 L 608,544 z M 544,544l-32,0 l0-32 l 32,0 L 544,544 z M 480,544l-32,0 l0-32 l 32,0 L 480,544 z M 416,544l-32,0 l0-32 l 32,0 L 416,544 z M 352,544l-32,0 l0-32 l 32,0 L 352,544 z
			 M 288,544L 256,544 l0-32 l 32,0 L 288,544 z M 224,544L 192,544 l0-32 l 32,0 L 224,544 z M 160,544L 128,544 l0-32 l 32,0 L 160,544 z"  />
<glyph unicode="&#xe06b;" d="M 352,480L 128,480 l0-256 l 224,0 L 352,480 z M 320,271.968c0,26.496-35.808,47.968-80,47.968S 160,298.464, 160,271.968L 160,448 l 160,0 L 320,271.968 zM 192,367.936A48,48 540 1 1 288,367.936A48,48 540 1 1 192,367.936zM 701.728,608l-640,0 C 26.368,608,0,582.176,0,546.88l0-384 C0,127.488, 26.368,96, 61.728,96l 640,0 C 737.056,96, 768,127.488, 768,162.88l0,384 
		C 768,582.176, 737.056,608, 701.728,608z M 704,160L 64,160 L 64,544 l 640,0 L 704,160 zM 416,480L 640,480L 640,416L 416,416zM 416,384L 640,384L 640,352L 416,352zM 416,320L 640,320L 640,288L 416,288zM 416,256L 512,256L 512,224L 416,224zM 543.936,256L 576,256L 576,223.936L 543.936,223.936z"  />
<glyph unicode="&#xe06c;" d="M 767.552,352l-85.056,97.952l 11.808,129.664L 568.48,608.32l-65.952,112.064L 384,668.768L 265.408,720.384L 199.52,608.32L 73.664,579.584L 85.44,449.952
			L 0.448,352l 84.992-97.952l-11.776-129.696l 125.888-28.672l 65.952-112.064L 384,35.168l 118.528-51.52l 65.888,112l 125.92,28.672l-11.808,129.76L 767.552,352z
			 M 528.608,150.944l-51.616-87.808L 384,103.52l-92.96-40.416l-51.68,87.808l-98.752,22.592l 9.248,101.632L 83.136,352l 66.72,76.768L 140.608,530.464
			l 98.816,22.592l 51.552,87.744L 384,600.416l 92.96,40.416l 51.616-87.744l 98.752-22.592l-9.248-101.632L 684.8,352l-66.72-76.832l 9.248-101.696
			L 528.608,150.944z M 384,556.128c-111.488,0-202.208-91.584-202.208-204.128c0-112.576, 90.72-204.128, 202.208-204.128s 202.208,91.552, 202.208,204.128
			C 586.208,464.544, 495.488,556.128, 384,556.128z M 384,179.296c-94.336,0-171.104,77.472-171.104,172.704S 289.664,524.704, 384,524.704
			c 94.304,0, 171.104-77.472, 171.104-172.704S 478.304,179.296, 384,179.296z"  />
<glyph unicode="&#xe06d;" d="M 640,480L 640,576 L0,576 l0-384 l 96,0 l0-96 l 640,0 L 736,480 L 640,480 z M 96,256L 64,256 L 64,512 l 512,0 l0-32 L 96,480 L 96,256 z M 672,160L 160,160 l0,256 l 512,0 L 672,160 zM 192,384l0-192 l 448,0 l0,192 L 192,384 z M 224,224l0,128 l 104.992,0 c-5.536-9.44-8.928-20.32-8.928-32l0-64 c0-11.68, 3.392-22.528, 8.96-32L 224,224 z M 480,272
		c0-26.496-21.504-48-48-48l-32,0 c-26.496,0-48,21.504-48,48l0,32 c0,26.496, 21.504,48, 48,48l 32,0 c 26.496,0, 48-21.504, 48-48L 480,272 z M 608,224
		l-104.864,0 c 5.536,9.472, 8.928,20.32, 8.928,32l0,64 c0,11.68-3.392,22.56-8.928,32L 608,352 L 608,224 z"  />
<glyph unicode="&#xe06e;" d="M 680.832,512L 627.52,672l-83.616,0 L 543.904,704 l-192,0 l0-32 L 133.408,672 L 80.096,512l 47.936,0 l 64-544l 376.864,0 l 64,544L 680.832,512 z M 179.552,608l 236.384,0 L 415.936,640 l 64,0 l0-32 l 101.504,0 l 10.688-32L 168.896,576 
	L 179.552,608z M 203.808,416l 353.408,0 l-18.816-160L 222.624,256 L 203.808,416z M 248.96,32l-22.592,192l 308.224,0 l-22.56-192L 248.96,32 z M 560.96,448L 200,448 L 192.48,512l 376,0 L 560.96,448z
	"  />
<glyph unicode="&#xe06f;" d="M 582.88,608l-101.12,0 l-51.2,64L 384,672 L 384,704 l-32,0 l0-32 L 318.304,672 L 275.616,608L 134.88,608 C 81.952,608, 32,579.072, 32,526.112l0-384 C 32,89.184, 96,32, 128,32l0-64 l 96,0 l0,64 l 256,0 l0-64 l 96,0 l0,64 
			c 64,0, 96,57.184, 96,110.112l0,384 C 672,579.072, 635.808,608, 582.88,608z M 335.424,640l 79.744,0 l 25.568-32L 314.080,608 L 335.424,640z M 608,142.112
			C 608,124.48, 600.512,96, 582.88,96l-448,0 C 117.216,96, 96,124.48, 96,142.112l0,384 C 96,543.776, 117.216,544, 134.88,544l 448,0 C 600.512,544, 608,543.776, 608,526.112L 608,142.112 z
			 M 128,224l 448,0 L 576,480 L 128,480 L 128,224 z M 160,448l 384,0 l0-192 L 160,256 L 160,448 z M 319.968,128l 63.936,0 l0,64 L 319.968,192 L 319.968,128 z" />
<glyph unicode="&#xe070;" d="M 192,224l 384,0 l0,192 L 192,416 L 192,224 z M 224,384l 320,0 l0-128 L 224,256 L 224,384 zM 192,480L 576,480L 576,448L 192,448zM 192,192L 352,192L 352,160L 192,160zM 192,128L 288,128L 288,96L 192,96zM 321.12,126.112L 353.12,126.112L 353.12,94.112L 321.12,94.112zM 416,192L 576,192L 576,160L 416,160zM 416,128L 576,128L 576,96L 416,96zM 640,608L 640,638.112 C 640,675.2, 608.064,704, 529.12,704l-384,0 C 92.192,704, 64,659.072, 64,606.112l0-544 C 64,9.184, 92.192-32, 145.12-32l 448,0 
		C 646.048-32, 640-32, 704-32L 704,608 L 640,608 z M 640,32L 145.12,32 C 127.488,32, 128,44.512, 128,62.112l0,544 C 128,623.744, 127.488,640, 145.12,640L 576,640 l0-32 L 192,608 l0-64 l 448,0 L 640,32 z"  />
<glyph unicode="&#xe071;" d="M 672,544L 672,640 L0,640 l0-480 l 96,0 l0-96 l 672,0 L 768,544 L 672,544 z M 96,224L 64,224 L 64,576 l 544,0 l0-32 L 96,544 L 96,224 z M 704,128L 160,128 L 160,480 l 544,0 L 704,128 z"  />
<glyph unicode="&#xe072;" d="M 383.968,736C 223.104,736, 92.672,605.568, 92.672,444.672c0-160.928, 228.8-476.672, 291.328-476.672c 46.24,0, 291.36,315.744, 291.36,476.672
	C 675.328,605.568, 544.896,736, 383.968,736z M 382.656,301.312c-81.76,0-148,66.24-148,148s 66.24,148, 148,148s 148-66.24, 148-148
	S 464.416,301.312, 382.656,301.312z"  />
<glyph unicode="&#xe073;" d="M 493.376,717.408l-230.432-127.68L0,736l0-585.696 l 269.888-146.304l 217.568,128.256L 736-4.64L 736,580.032 L 493.376,717.408z M 672,344.512l-160,81.984L 512,627.392 
	l 160-85.696L 672,344.512 z M 288,534.272l 160,91.424l0-200.704 l-160-91.424L 288,534.272 z M 288,296.672l 160,91.456l0-200.768 L 288,96L 288,296.672 z M 224,534.272l0-199.52 L 64,430.976L 64,625.728 
	L 224,534.272z M 64,393.6l 160-96.224L 224,96 l-160,91.36L 64,393.6 z M 512,188l0,202.528 l 160-81.984l0-206.24 L 512,188z"  />
<glyph unicode="&#xe074;" d="M 655.552,623.488C 586.048,692.992, 490.048,736, 384,736C 278.016,736, 182.016,692.992, 112.512,623.488S0,457.984,0,352c0-106.048, 43.008-202.048, 112.512-271.552
	C 182.016,11.008, 278.016-32, 384-32c 106.048,0, 202.048,43.008, 271.552,112.448C 724.992,149.952, 768,245.952, 768,352C 768,457.984, 724.992,553.984, 655.552,623.488z
	 M 512,352c0-35.328-14.368-67.328-37.504-90.496C 451.328,238.368, 419.328,224, 384,224c-35.264,0-67.264,14.368-90.432,37.504
	C 270.368,284.672, 256,316.672, 256,352c0,35.264, 14.368,67.264, 37.568,90.432S 348.736,480, 384,480c 35.328,0, 67.328-14.368, 90.496-37.568
	C 497.632,419.264, 512,387.264, 512,352z M 64,352c0,88.192, 35.872,168.192, 93.824,226.176l 90.432-90.432C 213.504,452.992, 192,404.992, 192,352
	s 21.504-100.992, 56.256-135.744l-90.432-90.432C 99.872,183.744, 64,263.744, 64,352z M 610.176,125.824l-90.432,90.432C 554.496,251.008, 576,299.008, 576,352
	s-21.504,100.992-56.256,135.744l 90.432,90.432C 668.128,520.192, 704,440.192, 704,352C 704,263.744, 668.128,183.744, 610.176,125.824z"  />
<glyph unicode="&#xe075;" d="M 256,704l0-128 L 32,576 l0-480 l 196.384,0 l 53.92-128l 352,0 L 704,32L 704,704 L 256,704 z M 96,160L 96,424 L 201.44,160L 96,160 z M 240,192l-128,320l 128,0 L 240,192 z M 640,64l-37.728-32L 320,32 L 320,640 l 320,0 L 640,64 zM 352,576L 512,576L 512,544L 352,544zM 352,384L 512,384L 512,352L 352,352zM 352,320L 512,320L 512,288L 352,288zM 352,256L 512,256L 512,224L 352,224zM 352,192L 512,192L 512,160L 352,160zM 352,128L 512,128L 512,96L 352,96zM 544.064,576.032L 608,576.032L 608,543.968L 544.064,543.968zM 544.064,512L 576.032,512L 576.032,479.936L 544.064,479.936zM 479.936,512L 511.904,512L 511.904,479.936L 479.936,479.936zM 448.064,512L 448,512L 352,512L 352,480L 352,479.936L 448.064,479.936 	zM 576.032,384L 607.904,384L 607.904,351.936L 576.032,351.936zM 576.032,320.032L 607.904,320.032L 607.904,287.968L 576.032,287.968zM 576.032,256L 607.904,256L 607.904,223.936L 576.032,223.936zM 576.032,192.032L 607.904,192.032L 607.904,159.968L 576.032,159.968z" />
<glyph unicode="&#xe076;" d="M 696.544,448C 678.944,448, 672,419.2, 672,384l0-64 c0-35.2, 6.944-64, 24.544-64s 24.544,28.8, 24.544,64L 768,320 l0,64 l-46.944,0 C 721.056,419.2, 714.112,448, 696.544,448zM 576,544c-32,0-32-28.8-32-64l0-96 L 224,384 L 224,480 c0,35.2,0,64-32,64C 156.8,544, 128,515.2, 128,480l0-256 c0-35.2, 28.8-64, 64-64c 32,0, 32,28.8, 32,64l0,96 l 320,0 l0-96 c0-35.2,0-64, 32-64
	c 35.2,0, 64,28.8, 64,64L 640,480 C 640,515.2, 611.2,544, 576,544zM 71.456,448C 89.056,448, 96,419.2, 96,384l0-64 c0-35.2-6.944-64-24.544-64s-24.544,28.8-24.544,64L0,320 l0,64 l 46.944,0 C 46.944,419.2, 53.888,448, 71.456,448z"  />
<glyph unicode="&#xe077;" d="M 416,606.4L 416,640 l 16,0 C 440.832,640, 448,647.168, 448,656l0,64 C 448,728.832, 440.832,736, 432,736l-96,0 C 327.168,736, 320,728.832, 320,720l0-64 
		C 320,647.168, 327.168,640, 336,640L 352,640 l0-33.728 c-28.832-2.944-56.544-9.728-82.656-19.808L 235.84,618.816L 177.376,677.248L 64.8,564.672l 72.672-72.672
		C 91.584,436.64, 64,365.568, 64,288c0-176.736, 143.264-320, 320-320s 320,143.264, 320,320C 704,453.952, 577.728,590.336, 416,606.4z M 352,704l 64,0 l0-32 l-64,0 L 352,704 z M 110.048,564.672
		L 177.376,632L 214.72,594.688L 147.392,527.36L 110.048,564.672z M 384,32c-141.152,0-256,114.848-256,256s 114.848,256, 256,256s 256-114.848, 256-256S 525.152,32, 384,32zM 358.624,433.312c-12.512,12.512-32.736,12.512-45.248,0s-12.512-32.736,0-45.248l 62.848-62.88L 292.128,207.68
		c-8.672-15.392-3.232-34.912, 12.192-43.552C 309.28,161.312, 314.656,160, 319.968,160c 11.2,0, 22.048,5.888, 27.904,16.32l 96,138.688
		c 7.072,12.512, 4.896,28.16-5.248,38.304L 358.624,433.312z"  />
<glyph unicode="&#xe078;" d="M 384,448.032c-52.992,0-96-43.008-96-96s 43.008-96, 96-96s 96,43.008, 96,96S 436.992,448.032, 384,448.032z M 679.392,436.32
			c-10.4,3.36-19.776,8.704-27.808,15.776c-12.928-23.808-28.864-48.224-46.048-72.704c-26.72,34.336-57.216,68.992-91.232,103.008
			c-33.76,33.76-68.544,64.384-103.232,91.328c 82.464,58.112, 161.728,93.088, 218.144,93.088c 22.912,0, 40.448-5.92, 52.096-17.568
			c 12.672-12.672, 18.272-32.576, 17.28-57.792c 1.824,0.128, 3.52,0.576, 5.376,0.576c 9.216,0, 17.984-1.888, 26.208-4.736
			c 1.984,35.872-6.528,64.864-26.24,84.608c-17.888,17.888-43.008,26.944-74.72,26.944c-65.376,0-153.984-39.008-245.184-104.864
			C 292.832,659.84, 204.224,698.88, 138.848,698.88c-6.784,0-13.152-0.64-19.328-1.472c 8.736-8.448, 15.328-18.88, 19.52-30.56
			c 56.416-0.064, 135.616-35.040, 218.016-93.12C 322.304,546.72, 287.488,516.096, 253.76,482.336c-33.6-33.632-64.224-68.48-91.392-103.488
			C 135.008,417.6, 112.448,456.032, 96.288,492.544c-11.072,24.928-18.464,47.808-22.784,68.48C 70.336,560.608, 67.264,560.032, 64,560.032
			c-8.256,0-16.064,1.632-23.552,3.936c 4.288-25.472, 12.96-53.696, 26.592-84.416c 18.144-40.992, 43.68-84.224, 75.040-127.616
			c-31.328-43.328-56.8-86.56-74.976-127.52c-38.688-87.264-39.712-155.552-2.912-192.352c 17.888-17.888, 43.008-26.944, 74.72-26.944
			c 96.64,0, 244.032,84.992, 375.52,216.544c 33.696,33.728, 64.352,68.672, 91.488,103.776c 88.64-125.248, 114.048-232, 75.36-270.688
			c-11.648-11.648-29.184-17.568-52.096-17.568c-30.176,0-67.040,10.176-107.328,28.384c-4.256-10.24-10.56-19.328-18.4-26.944
			c 46.656-21.6, 89.728-33.44, 125.728-33.44c 31.712,0, 56.832,9.056, 74.72,26.944c 55.616,55.616, 20.512,183.392-78.368,320.352
			C 645.856,380.672, 664.416,408.832, 679.392,436.32z M 138.912,37.12c-22.912,0-40.448,5.92-52.096,17.568c-26.4,26.4-22.944,83.52, 9.536,156.736
			c 16.16,36.48, 38.688,74.848, 65.984,113.6c 27.168-34.976, 57.76-69.824, 91.328-103.36c 33.952-33.952, 68.928-64.032, 103.872-91.072
			C 274.88,72.224, 195.392,37.12, 138.912,37.12z M 491.808,244.288c-35.008-35.008-71.424-66.624-107.648-94.144
			c-36.32,27.584-72.768,59.104-107.872,94.144c-35.008,35.008-66.528,71.328-94.176,107.648c 27.648,36.384, 59.264,72.736, 94.272,107.776
			C 311.36,494.72, 347.808,526.336, 384.064,553.92c 36.224-27.552, 72.64-59.168, 107.616-94.144c 36.352-36.352, 67.648-72.48, 94.464-107.52
			C 558.496,315.776, 526.912,279.392, 491.808,244.288z M 704,544.032c-17.696,0-32-14.304-32-32s 14.304-32, 32-32s 32,14.304, 32,32S 721.696,544.032, 704,544.032z
			 M 448,128.032c-17.696,0-32-14.304-32-32s 14.304-32, 32-32s 32,14.304, 32,32S 465.696,128.032, 448,128.032z M 64,608.032c 17.696,0, 32,14.304, 32,32s-14.304,32-32,32
			s-32-14.304-32-32S 46.304,608.032, 64,608.032z"  />
<glyph unicode="&#xe079;" d="M 627.264,572.64l 45.248-45.248l 45.248,45.248L 604.64,685.76L 559.36,640.512l 45.248-45.248l-67.904-67.904l-135.776,135.776l-45.248-45.248
	l 45.248-45.248L 61.568,233.216l 77.568-77.6L 50.24,18.24l 137.376,88.864l 77.568-77.568L 604.64,368.96l 45.248-45.248l 45.248,45.248l-135.776,135.744
	L 627.264,572.64z M 559.36,414.208l-67.936-67.872l-67.872,67.904l-22.624-22.624l 67.872-67.904l-45.248-45.28l-67.872,67.904l-22.624-22.624
	l 67.872-67.904l-45.248-45.248l-67.872,67.904l-22.624-22.624l 67.872-67.904l-67.872-67.872l-113.12,113.152l 294.112,294.144L 559.36,414.208z"  />
<glyph unicode="&#xe07a;" d="M 665.12,633.824C 471.808,661.312, 278.848,661.376, 85.088,633.76C 35.008,626.272,0,578.88,0,528.064l0-352 c0-50.816, 29.056-98.24, 79.424-105.792
	c 96.672-13.76, 189.312-20.704, 286.976-20.704s 204.992,6.976, 301.888,20.736C 718.432,77.824, 768,125.248, 768,176.064L 768,528 
	C 768,578.816, 715.552,626.24, 665.12,633.824z M 64,528c0,19.36, 5.696,39.616, 24.448,42.432c 84.544,12, 165.952,18.4, 250.528,19.584l-125.408-222.592L 64,367.424 
	L 64,528 z M 704,176.064c0-19.36-29.056-39.584-47.872-42.4c-187.36-26.656-374.688-26.592-561.568-0.032C 75.488,136.48, 64,156.672, 64,176.064l0,127.36 
	l 187.552,0 l 56.672,88.256l 27.168-229.76l 164.544,141.504L 704,303.424 L 704,176.064 z M 704,367.424l-226.816,0 l-91.456-90.016l-34.912,312.832
	c 5.248,0.032, 10.336,0.288, 15.584,0.288c 94.656,0, 198.976-6.784, 292.416-20.032C 677.888,567.616, 704,547.392, 704,528.064L 704,367.424 zM 512.064,512.064L 543.936,512.064L 543.936,480L 512.064,480zM 576,512.064L 608.064,512.064L 608.064,480L 576,480z"  />
<glyph unicode="&#xe07b;" d="M 531.488,365.28l-138.592,29.76l 63.968,297.792L 236.512,363.168l 111.68-24L 277.76,11.2L 531.488,365.28z"  />
<glyph unicode="&#xe07c;" d="M 655.552,623.52c-74.88,74.848-196.672,74.848-271.584,0L 112.48,352c-74.848-74.88-74.88-196.672,0-271.52c 74.88-74.848, 196.64-74.848, 271.52,0
	L 655.552,352C 730.368,426.88, 730.432,548.672, 655.552,623.52z M 610.304,578.272c 49.888-49.92, 49.888-131.136,0-181.024l-135.808-135.744L 293.504,442.496
	l 135.744,135.776C 479.2,628.192, 560.384,628.192, 610.304,578.272z"  />
<glyph unicode="&#xe07d;" d="M 698.368,262.88c-2.56,1.504-5.184,2.88-7.904,4.256l-5.952,3.872l-130.464,91.616l 37.888,28.256
	c 35.808-15.2, 83.36,14.88, 103.936,27.808c 52.256,32.992, 67.872,102.304, 34.88,154.496C 700.672,620.8, 640.384,638.048, 590.368,615.68L 589.824,616.64
	c-28.256,44.736-87.68,58.176-132.448,29.952c-29.376-18.56-50.88-71.328-27.424-130.88l-45.44-34.048l-52,36.512
	c 21.568,60.256-1.504,112.32-31.424,129.984c-45.632,26.88-104.64,11.616-131.424-33.984l-0.64-0.928C 118.368,633.952, 58.624,614.88, 30.016,566.368
	c-31.328-53.184-13.6-121.984, 39.616-153.376c 20.96-12.32, 69.504-40.864, 104.8-24.576l 44.256-31.008l-133.056-99.616L 79.808,253.76
	c-2.624-1.44-5.184-2.88-7.68-4.512c-52.288-32.928-67.872-102.304-34.944-154.496c 32.992-52.192, 102.304-67.872, 154.496-34.88
	c 24.992,15.744, 42.24,40.256, 48.928,68.736l 147.584,110.176l 145.376-101.76c 7.584-28.256, 25.6-52.192, 51.040-67.2c 53.184-31.36, 122.048-13.568, 153.344,39.616
	C 769.376,162.688, 751.552,231.488, 698.368,262.88z M 443.2,440.448l 72.576,53.76l-17.056,27.072c-24.064,38.048-12.224,67.008-7.136,71.2
	c 14.88,9.44, 34.688,4.928, 44.128-9.952l 34.176-54.112l 40.576,25.632c 22.336,14.112, 52.064,7.424, 66.24-14.944
	c 14.112-22.368, 7.36-52.128-15.008-66.24c-24.512-15.488-36.864-20.576-43.104-21.632L 604.064,474.24l-88.32-64.192l-25.696-18.688l-59.584,39.616
	L 443.2,440.448z M 297.344,251.264l-116.576-84.736l-1.344-15.808c-1.248-15.36-9.248-28.736-21.888-36.672c-22.368-14.112-52.128-7.424-66.24,14.944
	s-7.424,52.064, 14.944,66.176c 2.72,1.76, 5.632,3.2, 8.64,4.32l 32,21.376l 129.696,96.128l 12.992,9.632l 58.048-38.752L 297.344,251.264z
	 M 682.88,142.016c-13.44-22.816-42.976-30.432-65.792-16.992c-12.864,7.616-21.216,20.672-22.976,36l-1.888,15.808l-150.112,102.24l-55.008,37.44
	l-57.888,39.424l-72.448,49.312L 159.744,471.36L 145.888,447.808C 139.616,448.672, 127.136,453.44, 102.112,468.128C 79.328,481.632, 71.744,511.072, 85.12,533.888
	c 13.504,22.816, 42.944,30.432, 65.728,16.992l 41.408-24.384l 32.512,55.136c 8.928,15.264, 28.64,20.256, 43.808,11.328
	c 5.12-4, 17.888-32.64-4.928-71.36L 247.36,494.016l 79.68-55.36l 58.752-40.736l 57.888-40.192l 56.128-39.008l 124.672-86.56l 32.64-20.384
	c 3.072-0.992, 6.016-2.432, 8.704-4C 688.672,194.24, 696.256,164.8, 682.88,142.016z"  />
<glyph unicode="&#xe07e;" d="M 671.904,200.256c0,0-223.552,224.352-223.968,247.744L 447.936,480.064 l 64.128,0 l0,192 L 224,672.064 l0-192 l 64,0 L 288.128,448c-0.416-23.392-223.968-247.744-223.968-247.744
	c-42.144-47.296-33.312-85.952-25.824-103.424S 74.464,32, 95.2,32l 545.664,0 c 20.736,0, 49.344,47.328, 56.832,64.8S 714.048,152.96, 671.904,200.256z
	 M 638.912,122.016c-2.816-6.528-9.984-18.176-16-26.016L 113.152,96 c-6.016,7.84-13.184,19.488-15.968,26.016
	c-4.608,10.688, 6.144,25.728, 13.696,34.432c 240.416,241.344, 240.768,262.976, 241.248,291.52L 352.128,543.936 L 288.096,544L 287.904,544 L 288,607.936l 159.936,0 L 448.032,544l-0.192,0 L 384,544 
	l-0.032-97.12c 0.48-27.424, 0.832-49.088, 241.248-290.432C 632.736,147.744, 643.456,132.704, 638.912,122.016zM 384,352l-32.064,0 l-192-192l0-32.064 L 576,127.936 L 576,160 L 384,352z M 320.064,256l 31.872,63.936L 384,319.936 L 416.064,256L 320.064,256 z"  />
<glyph unicode="&#xe07f;" d="M 64,736l0-768 l 640,0 L 704,736 L 64,736 z M 640,32L 128,32 L 128,672 l 512,0 L 640,32 z M 608,608l-96,0 L 512,640 L 256,640 l0-32 L 160,608 l0-544 l 448,0 L 608,608 z M 288,608l 192,0 l0-32 L 288,576 L 288,608 z M 576,96L 192,96 L 192,576 l 64,0 l0-32 l 256,0 L 512,576 l 64,0 L 576,96 z M 224,448l 288,0 L 512,512 L 224,512 L 224,448 z
			 M 224,384l 288,0 l0,32 L 224,416 L 224,384 z M 224,320l 288,0 l0,32 L 224,352 L 224,320 z M 224,256l 288,0 l0,32 L 224,288 L 224,256 z M 224,192l 128,0 l0,32 L 224,224 L 224,192 z"  />
<glyph unicode="&#xe080;" d="M 511.744,480l0-288 l 32,0 L 543.744,480 L 511.744,480 zM 191.744,672l0-128 l-128,0 l0-448 l 128,0 l0-32 c0-17.6, 15.744-32, 33.312-32l 446.688,0 L 671.744,672 L 191.744,672 z M 223.744,224l-32,0 l0,192 l 32,0 L 223.744,224 z M 607.744,160l-32,0 l0-32 l 32,0 l0-32 l-352,0 l0,32 l 32,0 l0,32 l-32,0 L 255.744,448 
	l-96,0 l0-239.424 L 159.744,192 l 64,0 l0-32 l-96,0 l0,48.576 L 127.744,480 l 128,0 L 255.744,512 l 352,0 L 607.744,160 z M 607.744,544l-352,0 L 255.744,608 l 352,0 L 607.744,544 zM 543.744,128l-32,0 l0,32 l 32,0 L 543.744,128 zM 479.744,128l-32,0 l0,32 l 32,0 L 479.744,128 zM 415.744,128l-32,0 l0,32 l 32,0 L 415.744,128 zM 351.744,128l-32,0 l0,32 l 32,0 L 351.744,128 zM 447.744,480l0-288 l 32,0 L 479.744,480 L 447.744,480 z"  />
<glyph unicode="&#xe081;" d="M 672,512.544l0,64 L 221.632,576.544 L 184.64,681.472C 178.624,698.080, 160.32,707.68, 143.68,701.696S 118.368,676, 124.384,659.36l 29.248-82.848L 64,576.512 l0-64 L0,512.512 l0-288 l 96,0 l0-256 l 544,0 l0,256 l 96,0 
	l0,288 L 672,512.512 z M 96,256.544L 32,256.544 l0,224 l 32,0 l0-96 l 32,0 L 96,256.544 z M 576,32.544L 160,32.544 l0,192 l 99.072,0 c 6.624-32, 24.256-32, 45.056-32l 128,0 c 20.8,0, 38.432,0, 45.056,32L 576,224.544 L 576,32.544 z
	 M 288,239.936L 288,240 C 288,248.8, 295.2,256, 304,256l 128.128,0 c 8.8,0, 16-7.2, 16-16l0-0.064 c0-8.8-7.2-16-16-16L 304,223.936 
	C 295.2,223.936, 288,231.136, 288,239.936z M 576,256.544l-98.816,0 c-6.624,32-24.256,32-45.056,32l-128,0 c-20.8,0-38.432,0-45.056-32L 160,256.544 l0,160 l 416,0 L 576,256.544 z
	 M 608,448.544l-31.872,0 l-416,0 L 128,448.544 l0,64 l 480,0 L 608,448.544 z M 704,256.544l-64,0 l0,128 l 32,0 l0,96 l 32,0 L 704,256.544 z"  />
<glyph unicode="&#xe082;" d="M 608,704.032L 128,704.032 l0-672 l 256,0 l0,224 l 224,0 L 608,704.032 z M 352,96.032L 192,96.032 l0,160 l 160,0 L 352,96.032 z M 352,288.032L 192,288.032 l0,160 l 160,0 
			L 352,288.032 z M 352,480.032L 192,480.032 l0,160 l 160,0 L 352,480.032 z M 544,288.032l-160,0 l0,160 l 160,0 L 544,288.032 z M 544,480.032l-160,0 l0,160 l 160,0 L 544,480.032 z M 448.8,188.544l 64-195.552l 24,103.136L 636.8,96.128 
			L 448.8,188.544z"  />
<glyph unicode="&#xe083;" d="M 735.936,31.936L 672,31.936L 672,64L 639.936,64L 639.936,31.936L 576.096,31.936L 576.096,64L 544.032,64L 544.032,31.936L 480.096,31.936L 480.096,64L 448.032,64L 448.032,31.936L 384.096,31.936L 384.096,64L 352.032,64L 352.032,31.936L 288.096,31.936L 288.096,64L 256.032,64L 256.032,31.936L 115.2,31.936L 283.84,133.28L 367.296,377.184L 491.264,159.296L 731.488,559.552L 676.64,592.512L 492.736,286.080L 352.704,532.192L 230.816,176.096L 63.936,75.808L 63.936,736L0,736L0-32L 768-32L 768,31.936L 768,64L 735.936,64 	zM 735.936,736L 768,736L 768,703.936L 735.936,703.936zM 639.936,736L 672,736L 672,703.936L 639.936,703.936zM 544.032,736L 576.096,736L 576.096,703.936L 544.032,703.936zM 448.032,736L 480.096,736L 480.096,703.936L 448.032,703.936zM 352.032,736L 384.096,736L 384.096,703.936L 352.032,703.936zM 256.032,736L 288.096,736L 288.096,703.936L 256.032,703.936zM 160.032,736L 192.096,736L 192.096,703.936L 160.032,703.936zM 64.032,736L 96.096,736L 96.096,703.936L 64.032,703.936zM 735.936,640L 768,640L 768,607.936L 735.936,607.936zM 639.936,640L 672,640L 672,607.936L 639.936,607.936zM 544.032,640L 576.096,640L 576.096,607.936L 544.032,607.936zM 448.032,640L 480.096,640L 480.096,607.936L 448.032,607.936zM 352.032,640L 384.096,640L 384.096,607.936L 352.032,607.936zM 256.032,640L 288.096,640L 288.096,607.936L 256.032,607.936zM 160.032,640L 192.096,640L 192.096,607.936L 160.032,607.936zM 64.032,640L 96.096,640L 96.096,607.936L 64.032,607.936zM 735.936,544.096L 768,544.096L 768,512.032L 735.936,512.032zM 544.032,544.096L 576.096,544.096L 576.096,512.032L 544.032,512.032zM 448.032,544.096L 480.096,544.096L 480.096,512.032L 448.032,512.032zM 256.032,544.096L 288.096,544.096L 288.096,512.032L 256.032,512.032zM 160.032,544.096L 192.096,544.096L 192.096,512.032L 160.032,512.032zM 64.032,544.096L 96.096,544.096L 96.096,512.032L 64.032,512.032zM 735.936,448.096L 768,448.096L 768,416.032L 735.936,416.032zM 448.032,448.096L 480.096,448.096L 480.096,416.032L 448.032,416.032zM 256.032,448.096L 288.096,448.096L 288.096,416.032L 256.032,416.032zM 160.032,448.096L 192.096,448.096L 192.096,416.032L 160.032,416.032zM 64.032,448.096L 96.096,448.096L 96.096,416.032L 64.032,416.032zM 735.936,352.032L 768,352.032L 768,319.968L 735.936,319.968zM 639.936,352.032L 672,352.032L 672,319.968L 639.936,319.968zM 160.032,352.032L 192.096,352.032L 192.096,319.968L 160.032,319.968zM 64.032,352.032L 96.096,352.032L 96.096,319.968L 64.032,319.968zM 735.936,256.032L 768,256.032L 768,223.968L 735.936,223.968zM 639.936,256.032L 672,256.032L 672,223.968L 639.936,223.968zM 352.032,256.032L 384.096,256.032L 384.096,223.968L 352.032,223.968zM 160.032,256.032L 192.096,256.032L 192.096,223.968L 160.032,223.968zM 64.032,256.032L 96.096,256.032L 96.096,223.968L 64.032,223.968zM 735.936,160.128L 768,160.128L 768,128.064L 735.936,128.064zM 639.936,160.128L 672,160.128L 672,128.064L 639.936,128.064zM 544.032,160.128L 576.096,160.128L 576.096,128.064L 544.032,128.064zM 352.032,160.128L 384.096,160.128L 384.096,128.064L 352.032,128.064zM 64.032,160.128L 96.096,160.128L 96.096,128.064L 64.032,128.064z"  />
<glyph unicode="&#xe084;" d="M 608,320L 608,576 l-256,0 L 352,704 L 160,704 l0-128 L 32,576 l0-192 l 128,0 l0-256 l 256,0 l0-128 l 192,0 l0,128 l 128,0 l0,192 L 608,320 z M 320,512l 224,0 l0-224 l-64,0 L 480,448 l-160,0 L 320,512 z M 416,384l0-64 l-64,0 l0,64 L 416,384 z M 192,448L 96,448 L 96,512 l 96,0 L 192,448 z M 544,64l-64,0 l0,96 l 64,0 L 544,64 z
	 M 672,192L 224,192 L 224,640 l 64,0 l0-384 l 384,0 L 672,192 z"  />
<glyph unicode="&#xe085;" d="M0,640l0-576 l 768,0 L 768,640 L0,640 z M 704,128L 64,128 L 64,576 l 640,0 L 704,128 z M 464,337.792c 35.296,0, 64,28.672, 64,64s-28.704,64-64,64s-64-28.672-64-64
			S 428.704,337.792, 464,337.792z M 432,433.792l 64,0 l0-64 l-64,0 L 432,433.792 z M 672,544L 96,544 l0-384 l 576,0 L 672,544 z M 128,321.12l 193.568-55.296L 128,231.648L 128,321.12 z M 640,192L 128,192 l0,7.2 
			l 512,90.336L 640,192 z M 640,321.536l-256-47.744l-256,79.328L 128,512 l 512,0 L 640,321.536 z"  />
<glyph unicode="&#xe086;" d="M 387.552,720L 32,545.536l0-353.088 L 384-16l 352,208.448L 736,545.536 L 387.552,720z M 352,77.312l-256,151.616L 96,442.528 l 256-126.496L 352,77.312 z M 110.848,508.608
	l 277.248,139.712l 277.248-139.712l-277.248-136.992L 110.848,508.608z M 672,228.928l-288-170.56l0,247.104 l 288,137.056L 672,228.928 z"  />
<glyph unicode="&#xe087;" d="M 736,32l0,32 l-32,0 l0-32 l-32,0 L 672,352 l-160,0 l0-320 l-32,0 L 480,672 l-160,0 l0-640 L 288,32 L 288,416 L 256,416 L 256,448 L 224,448 l0-32 L 160,416 L 160,448 L 128,448 l0-32 l0-384 L 64,32 L 64,736 L0,736 l0-768 l 768,0 l0,64 
		L 736,32 z M 224,32L 192,32 L 192,352 l 32,0 L 224,32 z M 416,32l-32,0 L 384,608 l 32,0 L 416,32 z M 608,32l-32,0 l0,256 l 32,0 L 608,32 zM 128,736L 160,736L 160,704L 128,704zM 224,736L 256,736L 256,704L 224,704zM 320,736L 352,736L 352,704L 320,704zM 416,736L 448,736L 448,704L 416,704zM 512,736L 544,736L 544,704L 512,704zM 608,736L 640,736L 640,704L 608,704zM 704,736L 736,736L 736,704L 704,704zM 704,640L 736,640L 736,608L 704,608zM 608,640L 640,640L 640,608L 608,608zM 512,640L 544,640L 544,608L 512,608zM 512,544L 544,544L 544,512L 512,512zM 608,544L 640,544L 640,512L 608,512zM 704,544L 736,544L 736,512L 704,512zM 704,447.936L 736,447.936L 736,415.936L 704,415.936zM 608,448L 640,448L 640,416L 608,416zM 512,448L 544,448L 544,416L 512,416zM 704,352L 736,352L 736,320L 704,320zM 704,256L 736,256L 736,224L 704,224zM 704,160L 736,160L 736,128L 704,128zM 224,640L 256,640L 256,608L 224,608zM 224,544L 256,544L 256,512L 224,512zM 128,544L 160,544L 160,512L 128,512zM 128,640L 160,640L 160,608L 128,608z"  />
<glyph unicode="&#xe088;" d="M 125.312,619.296C 52.064,566.624, 4.128,480.896, 4.128,384c0-35.424, 6.688-69.216, 18.368-100.64L 294.048,384L 125.312,619.296z M 50.176,392.064
		C 49.024,452.096, 71.84,509.888, 113.248,552.928l 134.304-149.088l-190.432-63.52C 52.832,357.152, 50.496,374.496, 50.176,392.064zM 425.984,688c-80.896,0-159.040-29.152-220.096-82.112l 0.8-0.896L 193.92,593.824l 203.968-233.952L 101.12,265.6l 4.352-13.664l-0.32-0.096
		c 0.896-2.976, 2.080-5.792, 3.104-8.672l 2.56-8.096l 0.288,0.096c 48.672-131.744, 172.928-219.2, 314.88-219.2c 185.28,0, 336,150.752, 336,336
		S 611.264,688, 425.984,688z M 675.328,460.352l-202.496-74.144l 132.192,170.080C 634.944,529.984, 659.2,497.376, 675.328,460.352z M 259.744,567.008
		C 307.264,603.712, 365.6,624, 425.984,624c 57.088,0, 110.048-17.76, 153.856-47.936l-154.56-198.88L 259.744,567.008z M 172.736,254.752l 232.8,73.984
		l-42.976-240.48C 276.256,108.736, 205.184,169.952, 172.736,254.752z M 425.984,80c-10.848,0-21.344,1.312-31.904,2.56l 46.016,257.568l 246.272,90.176
		c 7.456-24.832, 11.584-51.104, 11.584-78.304C 697.984,201.984, 575.936,80, 425.984,80z"  />
<glyph unicode="&#xe089;" d="M 413.12,716.672L 131.552,214.112l 1.44-0.736l 14.24-226.048l 206.304,102.464l 1.312-0.736l 281.568,502.528L 413.12,716.672z M 193.76,67.2
	l-1.952,113.248l 102.368-57.376L 193.76,67.2z M 330.304,176.128l-111.616,62.56l 172.064,307.104l 111.68-62.528L 330.304,176.128z M 406.368,573.728
	l 31.328,55.84l 111.616-62.56l-31.264-55.808L 406.368,573.728z"  />
<glyph unicode="&#xe08a;" d="M 96,288l 32,0 l0,32 L 96,320 L 96,288 z M 128,608L 96,608 l0-32 l 32,0 L 128,608 z M 128,32L 96,32 l0-32 L 32,0 l0-32 l 160,0 l0,32 L 128,0 L 128,32 z M 96,480l 32,0 L 128,512 L 96,512 L 96,480 z M 96,384l 32,0 
			l0,32 L 96,416 L 96,384 z M 288,736l0-768 l 416,0 L 704,736 L 288,736 z M 544,32l-192,0 L 352,672 l 192,0 L 544,32 z M 640,32l-64,0 l0,64 l 64,0 L 640,32 z M 640,128l-64,0 l0,64 l 64,0 L 640,128 z M 640,224l-64,0 l0,64 l 64,0 L 640,224 z M 640,320l-64,0 l0,64 l 64,0 L 640,320 z
			 M 640,416l-64,0 L 576,480 l 64,0 L 640,416 z M 640,512l-64,0 L 576,576 l 64,0 L 640,512 z M 640,608l-64,0 L 576,672 l 64,0 L 640,608 z M 32,704l 64,0 l0-32 l 32,0 L 128,704 l 64,0 L 192,736 L 32,736 L 32,704 z M 96,96l 32,0 l0,32 L 96,128 L 96,96 z M 96,192l 32,0 l0,32 L 96,224 L 96,192 z"  />
<glyph unicode="&#xe08b;" d="M 480,593.792l0,64 C 480,693.12, 432.256,736, 396.864,736l-12.8,0 L 384,736 l-12.8,0 c-35.36,0-83.136-42.88-83.136-78.208l0-64 c-32,0-64-28.8-64-64l0-32 
	c0-23.488,0-43.936, 32-55.072L 256.064,96 l 32,0 l0-128 L 480-32 l0,128 l 32,0 L 512,442.72 c 32,11.136, 32,31.552, 32,55.072l0,32 C 544,564.96, 512,593.792, 480,593.792z M 416,32l-63.936,0 l0,96 L 416,128 L 416,32 z
	 M 448,160l-127.936,0 l0,192 L 448,352 L 448,160 z M 448,384l-127.936,0 L 320.064,448 L 448,448 L 448,384 z"  />
<glyph unicode="&#x20;" horiz-adv-x="384" />
</font>
</defs>
</svg>
