<?xml version="1.0" standalone="no"?>
<!DOCTYPE svg PUBLIC "-//W3C//DTD SVG 1.1//EN" "http://www.w3.org/Graphics/SVG/1.1/DTD/svg11.dtd" >
<svg xmlns="http://www.w3.org/2000/svg">
<metadata>
This is a custom SVG font generated by IcoMoon.
<iconset grid="16"></iconset>
</metadata>
<defs>
<font id="silkons" horiz-adv-x="512" >
<font-face units-per-em="512" ascent="480" descent="-32" />
<missing-glyph horiz-adv-x="512" />
<glyph class="hidden" unicode="&#xf000;" d="M0,480L 512 -32L0 -32 z" horiz-adv-x="0" />
<glyph unicode="&#xe000;" d="M 480-32l-160,0 c-17.696,0-32,14.304-32,32s 14.304,32, 32,32l 85.76,0 l-105.376,105.376
	c-12.512,12.512-12.512,32.736,0,45.248c 12.48,12.512, 32.736,12.512, 45.248,0L 448,80.256L 448,160 c0,17.696, 14.304,32, 32,32s 32-14.304, 32-32l0-160 
	C 512-17.696, 497.696-32, 480-32z M 480,256c-17.696,0-32,14.336-32,32L 448,367.776 l-102.368-102.4c-12.512-12.512-32.768-12.512-45.248,0
	c-12.512,12.512-12.512,32.736,0,45.248L 405.76,416L 320,416 C 302.304,416, 288,430.336, 288,448s 14.304,32, 32,32l 160,0 c 17.696,0, 32-14.336, 32-32l0-160 C 512,270.336, 497.696,256, 480,256z
	 M 192-31.008L 32-31.008 c-17.664,0-32,14.304-32,32l0,160 c0,17.696, 14.336,32, 32,32s 32-14.304, 32-32l0-79.744 l 102.4,102.368c 12.512,12.512, 32.768,12.512, 45.248,0
	c 12.512-12.512, 12.512-32.736,0-45.248l-105.344-105.376L 192,32.992 c 17.664,0, 32-14.304, 32-32S 209.664-31.008, 192-31.008z M 192,416L 106.272,416 l 105.344-105.376
	c 12.512-12.512, 12.512-32.736,0-45.248c-12.48-12.512-32.736-12.512-45.248,0L 64,367.776L 64,288 c0-17.664-14.336-32-32-32S0,270.336,0,288L0,448 
	c0,17.664, 14.336,32, 32,32l 160,0 c 17.664,0, 32-14.336, 32-32S 209.664,416, 192,416z"  />
<glyph unicode="&#xe001;" d="M 480,255.488c-17.696,0-32,14.336-32,32L 448,367.264 l-102.368-102.4
	c-12.512-12.512-32.768-12.512-45.248,0c-12.512,12.512-12.512,32.736,0,45.248l 105.376,105.376L 320,415.488 c-17.696,0-32,14.336-32,32s 14.304,32, 32,32l 160,0 
	c 17.696,0, 32-14.336, 32-32l0-160 C 512,269.824, 497.696,255.488, 480,255.488z M 224,0.512c0-17.696-14.336-32-32-32L 32-31.488 c-17.664,0-32,14.304-32,32l0,160 
	c0,17.696, 14.336,32, 32,32s 32-14.304, 32-32l0-79.744 l 102.4,102.368c 12.512,12.512, 32.768,12.512, 45.248,0c 12.512-12.512, 12.512-32.736,0-45.248l-105.344-105.376L 192,32.512 
	C 209.664,32.512, 224,18.176, 224,0.512z"  />
<glyph unicode="&#xe002;" d="M 512,288c0-17.664-14.304-32-32-32l-160,0 C 302.304,256, 288,270.336, 288,288L 288,448 c0,17.664, 14.304,32, 32,32
	s 32-14.336, 32-32l0-79.776 l 102.368,102.4c 12.512,12.512, 32.768,12.512, 45.248,0c 12.512-12.512, 12.512-32.736,0-45.248L 394.272,320L 480,320 C 497.696,320, 512,305.664, 512,288
	z M 192-31.008c-17.664,0-32,14.304-32,32l0,79.744 l-102.4-102.368c-12.512-12.512-32.768-12.512-45.248,0c-12.512,12.512-12.512,32.736,0,45.248
	l 105.376,105.376L 32,128.992 c-17.664,0-32,14.304-32,32s 14.336,32, 32,32l 160,0 c 17.664,0, 32-14.304, 32-32l0-160 C 224-16.672, 209.664-31.008, 192-31.008z M 192,256L 32,256 
	C 14.336,256,0,270.336,0,288s 14.336,32, 32,32l 85.728,0 L 12.352,425.376c-12.512,12.512-12.512,32.736,0,45.248c 12.48,12.512, 32.736,12.512, 45.248,0l 102.4-102.4L 160,448 
	c0,17.664, 14.336,32, 32,32s 32-14.336, 32-32l0-160 C 224,270.336, 209.664,256, 192,256z M 320,192l 160,0 c 17.696,0, 32-14.304, 32-32s-14.304-32-32-32l-85.728,0 l 105.344-105.376
	c 12.512-12.512, 12.512-32.736,0-45.248c-12.48-12.512-32.736-12.512-45.248,0L 352,79.744L 352,0 c0-17.696-14.304-32-32-32s-32,14.304-32,32l0,160 
	C 288,177.696, 302.304,192, 320,192z"  />
<glyph unicode="&#xe003;" d="M 394.272,319.488L 480,319.488 c 17.696,0, 32-14.336, 32-32s-14.304-32-32-32l-160,0 c-17.696,0-32,14.336-32,32
	l0,160 c0,17.664, 14.304,32, 32,32s 32-14.336, 32-32l0-79.776 l 102.368,102.4c 12.512,12.512, 32.768,12.512, 45.248,0c 12.512-12.512, 12.512-32.736,0-45.248
	L 394.272,319.488z M 192-31.488c-17.664,0-32,14.304-32,32l0,79.744 l-102.4-102.368c-12.512-12.512-32.768-12.512-45.248,0
	c-12.512,12.512-12.512,32.736,0,45.248l 105.376,105.376L 32,128.512 c-17.664,0-32,14.304-32,32s 14.336,32, 32,32l 160,0 c 17.664,0, 32-14.304, 32-32l0-160 
	C 224-17.184, 209.664-31.488, 192-31.488z"  />
<glyph unicode="&#xe004;" d="M 480,192l0-32 l-160,0 l0-160 L 288,0 l0-32 L 224-32 l0,32 L 192,0 l0,160 L 32,160 L 32,192 L0,192 L0,256 l 32,0 L 32,288 l 160,0 L 192,448 l 32,0 L 224,480 l 64,0 l0-32 l 32,0 l0-160 l 160,0 l0-32 l 32,0 l0-64 L 480,192 z"  />
<glyph unicode="&#xe005;" d="M 480,192l0-32 L 32,160 L 32,192 L0,192 L0,256 l 32,0 L 32,288 l 448,0 l0-32 l 32,0 l0-64 L 480,192 z"  />
<glyph unicode="&#xe006;" d="M 480,0l0-32 L 32-32 l0,32 L0,0 L0,384 l 32,0 L 32,416 l 64,0 l0-64 l 96,0 L 192,416 l 128,0 l0-64 l 96,0 L 416,416 l 64,0 l0-32 l 32,0 l0-384 L 480,0 z M 448,320L 64,320 l0-32 l 384,0 L 448,320 z M 448,256L 64,256 
	l0-32 l 384,0 L 448,256 z M 448,192L 64,192 l0-32 l 384,0 L 448,192 z M 448,128L 64,128 l0-32 l 384,0 L 448,128 z M 448,64L 64,64 l0-32 l 384,0 L 448,64 z M 352,480l 32,0 l0-96 l-32,0 L 352,480 z M 128,480l 32,0 l0-96 L 128,384 L 128,480 z"  />
<glyph unicode="&#xe007;" d="M 480,0l0-32 L 96-32 l0,32 L 64,0 l0,64 l 64,0 l0,96 L 64,160 L 64,192 l 64,0 L 128,288 L 64,288 L 64,320 l 64,0 L 128,416 L 64,416 L 64,448 l 32,0 L 96,480 l 384,0 l0-32 l 32,0 l0-448 L 480,0 z M 416,416L 192,416 l0-32 l 224,0 
	L 416,416 z M 416,352L 192,352 l0-32 l 224,0 L 416,352 z M 416,288L 192,288 l0-32 l 224,0 L 416,288 z M 416,224L 192,224 l0-32 l 224,0 L 416,224 z M 416,160L 192,160 l0-32 l 224,0 L 416,160 z M 416,96L 192,96 l0-32 l 224,0 L 416,96 z M 96,352L0,352 L0,384 l 96,0 L 96,352 z M 96,224L0,224 L0,256 l 96,0 L 96,224 z M 96,96L0,96 l0,32 l 96,0 L 96,96 z
	"  />
<glyph unicode="&#xe008;" d="M 480,128l0-32 L 160,96 l0,32 L 128,128 L 128,448 l 32,0 L 160,480 l 320,0 l0-32 l 32,0 l0-320 L 480,128 z M 448,416L 192,416 l0-256 l 256,0 L 448,416 z M 320-32L 64-32 L 32-32 l0,32 L0,0 l0,32 L0,320 l 64,0 
	l0-288 l 256,0 L 320-32 z"  />
<glyph unicode="&#xe009;" d="M 320,128l0,32 l 32,0 L 352,448 l-32,0 L 320,480 L 32,480 l0-32 L0,448 l0-288 l 32,0 l0-32 L 320,128 z M 64,416l 224,0 l0-224 L 64,192 L 64,416 zM 480,288L 480,320L 384,320L 384,256L 448,256L 448,32L 224,32L 224,96L 160,96L 160,0L 192,0L 192-32L 480-32L 480,0L 512,0L 512,288 	z"  />
<glyph unicode="&#xe00a;" d="M 480,192l0-32 l-32,0 l0-32 l-32,0 l0-32 l-32,0 l0-32 l-32,0 l0-32 l-32,0 l0-32 L 288,0 l0-32 L 224-32 l0,32 L 192,0 l0,32 L 160,32 l0,32 L 128,64 l0,32 L 96,96 l0,32 L 64,128 l0,32 L 32,160 L 32,192 L0,192 L0,224 
	l 160,0 L 160,448 l 32,0 L 192,480 l 128,0 l0-32 l 32,0 l0-224 l 160,0 l0-32 L 480,192 z"  />
<glyph unicode="&#xe00b;" d="M 352,224l0-224 l-32,0 l0-32 L 192-32 l0,32 L 160,0 L 160,224 L0,224 L0,256 l 32,0 L 32,288 l 32,0 L 64,320 l 32,0 L 96,352 l 32,0 L 128,384 l 32,0 L 160,416 l 32,0 L 192,448 l 32,0 L 224,480 l 64,0 l0-32 l 32,0 l0-32 l 32,0 l0-32 l 32,0 l0-32 l 32,0 l0-32 
	l 32,0 l0-32 l 32,0 l0-32 l 32,0 l0-32 L 352,224 z"  />
<glyph unicode="&#xe00c;" d="M 480,160l0-32 L 256,128 l0-160 L 224-32 l0,32 L 192,0 l0,32 L 160,32 l0,32 L 128,64 l0,32 L 96,96 l0,32 L 64,128 l0,32 L 32,160 L 32,192 L0,192 L0,256 l 32,0 L 32,288 l 32,0 L 64,320 l 32,0 L 96,352 l 32,0 L 128,384 l 32,0 L 160,416 l 32,0 L 192,448 
	l 32,0 L 224,480 l 32,0 l0-160 l 224,0 l0-32 l 32,0 l0-128 L 480,160 z"  />
<glyph unicode="&#xe00d;" d="M 480,192l0-32 l-32,0 l0-32 l-32,0 l0-32 l-32,0 l0-32 l-32,0 l0-32 l-32,0 l0-32 L 288,0 l0-32 L 256-32 l0,160 L 32,128 l0,32 L0,160 L0,288 l 32,0 L 32,320 l 224,0 L 256,480 l 32,0 l0-32 l 32,0 l0-32 l 32,0 l0-32 l 32,0 l0-32 
	l 32,0 l0-32 l 32,0 l0-32 l 32,0 l0-32 l 32,0 l0-64 L 480,192 z"  />
<glyph unicode="&#xe00e;" d="M 480,192l0-32 l-32,0 l0-32 l-32,0 l0-32 l-32,0 l0-32 l-32,0 l0-32 l-32,0 l0-32 L 288,0 l0-32 L 224-32 l0,32 L 192,0 l0,32 L 160,32 l0,32 L 128,64 l0,32 L 96,96 l0,32 L 64,128 l0,32 L 32,160 L 32,192 L0,192 L0,224 
	l 160,0 L 160,448 l 32,0 l0-256 L 96,192 l0-32 l 32,0 l0-32 l 32,0 l0-32 l 32,0 l0-32 l 32,0 l0-32 l 64,0 l0,32 l 32,0 l0,32 l 32,0 l0,32 l 32,0 l0,32 l 32,0 L 416,192 l-96,0 L 320,448 l 32,0 l0-224 l 160,0 l0-32 L 480,192 z M 192,480l 128,0 l0-32 L 192,448 L 192,480 z"  />
<glyph unicode="&#xe00f;" d="M 352,224l0-224 l-32,0 L 320,256 l 96,0 L 416,288 l-32,0 L 384,320 l-32,0 L 352,352 l-32,0 L 320,384 L 288,384 L 288,416 L 224,416 l0-32 L 192,384 l0-32 L 160,352 l0-32 L 128,320 l0-32 L 96,288 l0-32 l 96,0 l0-256 L 160,0 L 160,224 L0,224 L0,256 l 32,0 L 32,288 l 32,0 
	L 64,320 l 32,0 L 96,352 l 32,0 L 128,384 l 32,0 L 160,416 l 32,0 L 192,448 l 32,0 L 224,480 l 64,0 l0-32 l 32,0 l0-32 l 32,0 l0-32 l 32,0 l0-32 l 32,0 l0-32 l 32,0 l0-32 l 32,0 l0-32 l 32,0 l0-32 L 352,224 z M 320-32L 192-32 l0,32 l 128,0 L 320-32 z"  />
<glyph unicode="&#xe010;" d="M 480,160L 480,288 l 32,0 l0-128 L 480,160 z M 224,384L 192,384 l0-32 L 160,352 l0-32 L 128,320 l0-32 L 96,288 l0-32 L 64,256 l0-64 l 32,0 l0-32 l 32,0 l0-32 l 32,0 l0-32 l 32,0 l0-32 l 32,0 l0,96 l 256,0 l0-32 L 256,128 l0-160 L 224-32 
	l0,32 L 192,0 l0,32 L 160,32 l0,32 L 128,64 l0,32 L 96,96 l0,32 L 64,128 l0,32 L 32,160 L 32,192 L0,192 L0,256 l 32,0 L 32,288 l 32,0 L 64,320 l 32,0 L 96,352 l 32,0 L 128,384 l 32,0 L 160,416 l 32,0 L 192,448 l 32,0 L 224,480 l 32,0 l0-160 l 224,0 l0-32 L 224,288 L 224,384 z"  />
<glyph unicode="&#xe011;" d="M 480,192l0-32 l-32,0 l0-32 l-32,0 l0-32 l-32,0 l0-32 l-32,0 l0-32 l-32,0 l0-32 L 288,0 l0-32 L 256-32 l0,160 L 32,128 l0,32 l 256,0 l0-96 l 32,0 l0,32 l 32,0 l0,32 l 32,0 l0,32 l 32,0 L 416,192 l 32,0 L 448,256 
	l-32,0 L 416,288 l-32,0 L 384,320 l-32,0 L 352,352 l-32,0 L 320,384 L 288,384 l0-96 L 32,288 L 32,320 l 224,0 L 256,480 l 32,0 l0-32 l 32,0 l0-32 l 32,0 l0-32 l 32,0 l0-32 l 32,0 l0-32 l 32,0 l0-32 l 32,0 l0-32 l 32,0 l0-64 L 480,192 z M0,160L0,288 l 32,0 l0-128 L0,160 z"  />
<glyph unicode="&#xe012;" d="M 256-32c-141.376,0-256,114.624-256,256c0,141.376, 114.624,256, 256,256s 256-114.624, 256-256
	C 512,82.624, 397.376-32, 256-32z M 288,413.088L 288,320 L 224,320 L 224,413.088 C 143.808,399.552, 80.768,336.288, 67.232,256L 160,256 l0-64 L 67.232,192 C 80.768,111.68, 143.808,48.448, 224,34.912L 224,128 l 64,0 
	l0-93.088 c 80.224,13.536, 143.232,76.768, 156.768,157.088L 352,192 L 352,256 l 92.768,0 C 431.232,336.288, 368.224,399.552, 288,413.088z"  />
<glyph unicode="&#xe013;" d="M 288,352L 224,352 l0-160 l 160,0 L 384,256 L 288,256 L 288,352 z M 256,480C 114.624,480,0,365.376,0,224c0-141.376, 114.624-256, 256-256
			s 256,114.624, 256,256C 512,365.376, 397.376,480, 256,480z M 256,32c-106.016,0-192,85.984-192,192s 85.984,192, 192,192s 192-85.984, 192-192S 362.016,32, 256,32z"  />
<glyph unicode="&#xe014;" d="M 380,32c-3.648,0-7.136,0.64-10.72,0.928C 366.176,32.64, 363.2,32, 360,32
	L 320,32 l0,128 l 64,0 L 384,192 l-32,0 L 352,224 l-32,0 L 320,256 L 288,256 L 288,288 L 224,288 l0-32 L 192,256 l0-32 L 160,224 l0-32 L 128,192 l0-32 l 64,0 l0-128 L 96,32 c-53.024,0-96,43.008-96,96c0,45.312, 31.488,83.040, 73.696,93.12C 67.68,236.992, 64,254.016, 64,272
	C 64,351.52, 128.48,416, 208,416c 72.608,0, 132.032-53.888, 141.952-123.744c 9.696,2.272, 19.68,3.744, 30.048,3.744C 452.896,296, 512,236.896, 512,164
	S 452.896,32, 380,32z"  />
<glyph unicode="&#xe015;" d="M 380,296c-10.368,0-20.384-1.472-30.048-3.744C 340.032,362.112, 280.608,416, 208,416
	C 128.48,416, 64,351.52, 64,272c0-17.984, 3.68-35.008, 9.696-50.88C 31.488,211.040,0,173.312,0,128c0-52.992, 42.976-96, 96-96l 264,0 l 20,0 
	C 452.896,32, 512,91.104, 512,164S 452.896,296, 380,296z"  />
<glyph unicode="&#xe016;" d="M 416,0l0-32 L 96-32 l0,32 L 64,0 L 64,448 l 32,0 l0-352 l 320,0 L 416,448 l 32,0 l0-448 L 416,0 z M 288,64L 224,64 l0-64 l 64,0 L 288,64 z M 96,480l 320,0 l0-32 L 96,448 L 96,480 z"  />
<glyph unicode="&#xe017;" d="M 128,320L 384,320L 384,128L 128,128zM 96,96L 128,96L 128,64L 96,64zM 96,384L 128,384L 128,352L 96,352zM 64,0L 64,32L 32,32L 32,64L0,64L0-32L 96-32L 96,0 	zM0,480L0,384L 32,384L 32,416L 64,416L 64,448L 96,448L 96,480 	zM 64,416L 96,416L 96,384L 64,384zM 64,64L 96,64L 96,32L 64,32zM 416,416L 448,416L 448,384L 416,384zM 384,384L 416,384L 416,352L 384,352zM 416,480L 416,448L 448,448L 448,416L 480,416L 480,384L 512,384L 512,480 	zM 384,96L 416,96L 416,64L 384,64zM 416,64L 448,64L 448,32L 416,32zM 480,64L 480,32L 448,32L 448,0L 416,0L 416-32L 512-32L 512,64 	z"  />
<glyph unicode="&#xe018;" d="M 32,32L 64,32L 64,0L 32,0zM 32,96L 32,64L 64,64L 64,32L 96,32L 96,0L 128,0L 128,96 	zM0,0L 32,0L 32-32L0-32zM 96,448L 96,416L 64,416L 64,384L 32,384L 32,352L 128,352L 128,448 	zM0,480L 32,480L 32,448L0,448zM 32,448L 64,448L 64,416L 32,416zM 128,320L 384,320L 384,128L 128,128zM 448,384L 448,416L 416,416L 416,448L 384,448L 384,352L 480,352L 480,384 	zM 448,448L 480,448L 480,416L 448,416zM 480,480L 512,480L 512,448L 480,448zM 480,0L 512,0L 512-32L 480-32zM 384,96L 384,0L 416,0L 416,32L 448,32L 448,64L 480,64L 480,96 	zM 448,32L 480,32L 480,0L 448,0z"  />
<glyph unicode="&#xe019;" d="M 128,352L 128,480 L 96,480 L0,480 l0-64 l 96,0 l0-352 l 64,0 l0-96 l 96,0 l0,96 l 96,0 l0-96 l 96,0 l0,96 l 64,0 L 512,352 L 128,352 z M 160,96L 128,96 l0,32 l 32,0 L 160,96 z M 160,160L 128,160 L 128,192 l 32,0 L 160,160 
	z M 160,224L 128,224 L 128,256 l 32,0 L 160,224 z M 160,288L 128,288 L 128,320 l 32,0 L 160,288 z M 224,0L 192,0 l0,32 l 32,0 L 224,0 z M 224,96L 192,96 l0,32 l 32,0 L 224,96 z M 224,160L 192,160 L 192,192 l 32,0 L 224,160 z M 224,224L 192,224 L 192,256 l 32,0 L 224,224 z M 224,288L 192,288 L 192,320 l 32,0 L 224,288 z M 288,96L 256,96 l0,32 l 32,0 L 288,96 z
	 M 288,160L 256,160 L 256,192 l 32,0 L 288,160 z M 288,224L 256,224 L 256,256 l 32,0 L 288,224 z M 288,288L 256,288 L 256,320 l 32,0 L 288,288 z M 352,96l-32,0 l0,32 l 32,0 L 352,96 z M 352,160l-32,0 L 320,192 l 32,0 L 352,160 z M 352,224l-32,0 L 320,256 l 32,0 L 352,224 z M 352,288l-32,0 L 320,320 l 32,0 L 352,288 z M 416,0l-32,0 l0,32 
	l 32,0 L 416,0 z M 416,96l-32,0 l0,32 l 32,0 L 416,96 z M 416,160l-32,0 L 384,192 l 32,0 L 416,160 z M 416,224l-32,0 L 384,256 l 32,0 L 416,224 z M 416,288l-32,0 L 384,320 l 32,0 L 416,288 z M 480,96l-32,0 l0,32 l 32,0 L 480,96 z M 480,160l-32,0 L 448,192 l 32,0 L 480,160 z M 480,224l-32,0 L 448,256 l 32,0 L 480,224 
	z M 480,288l-32,0 L 448,320 l 32,0 L 480,288 z"  />
<glyph unicode="&#xe01a;" d="M 497.28,455.36l-27.424,18.88c-15.104,10.432-35.52,6.272-45.664-9.28l-232.096-359.040
	L 74.080,229.024c-12,12.512-31.392,12.512-43.392,0L 8.992,206.4c-12-12.512-12-32.768,0-45.28L 194.24-32l 27.584,0 l 284.64,440.256
	C 516.544,423.84, 512.48,444.928, 497.28,455.36z"  />
<glyph unicode="&#xe01b;" d="M 324.032,224.064l 178.784-178.848c 12.384-12.384, 12.256-32.544-0.288-45.056l-22.688-22.688
	c-12.544-12.544-32.704-12.672-45.056-0.288L 256,156l-178.752-178.816c-12.384-12.384-32.544-12.256-45.088,0.288l-22.656,22.688
	c-12.544,12.544-12.672,32.672-0.288,45.056l 178.752,178.848L 9.344,402.72C-3.040,415.104-2.912,435.296, 9.6,447.808l 22.656,22.688
	C 44.8,483.040, 64.992,483.168, 77.344,470.816L 256,292.096l 178.656,178.72c 12.352,12.352, 32.544,12.224, 45.056-0.32L 502.4,447.808
	c 12.544-12.544, 12.672-32.704, 0.288-45.088L 324.032,224.064z"  />
<glyph unicode="&#xe01c;" d="M 224,96.032L 352,224L 224,351.968L 224,288L0,288L0,160L 224,160 	zM 128,480L 128,352L 160,352L 160,448L 416,448L 416,0L 160,0L 160,96L 128,96L 128-32L 512-32L 512,480 	z"  />
<glyph unicode="&#xe01d;" d="M 128,160L 352,160L 352,288L 128,288L 128,351.968L0,224L 128,96.032 	zM 128,480L 128,352L 160,352L 160,448L 416,448L 416,0L 160,0L 160,96L 128,96L 128-32L 512-32L 512,480 	z"  />
<glyph unicode="&#xe01e;" d="M 383.968,256L 128.032,256L 256,128 	zM 192,480L 320,480L 320,256L 192,256zM 384,352L 384,320L 480,320L 480,64L 32,64L 32,320L 128,320L 128,352L0,352L0-32L 512-32L 512,352 	z"  />
<glyph unicode="&#xe01f;" d="M 256,480L 128.032,352.032L 383.968,352.032 	zM 384,352L 384,320L 480,320L 480,64L 32,64L 32,320L 128,320L 128,352L0,352L0-32L 512-32L 512,352 	zM 192,352L 320,352L 320,128L 192,128z"  />
<glyph unicode="&#xe020;" d="M 257.824-32.064c0,0-405.824,366.048-199.008,485.728
	c 119.328,69.056, 196.96-19.328, 196.96-19.328s 77.664,88.352, 196.96,19.328C 659.552,333.984, 257.824-32.064, 257.824-32.064"  />
<glyph unicode="&#xe021;" d="M 257.824-32.064c0,0-8.448,7.616-21.952,20.736L 352.064,192l-96,128l 27.328,136.544
	c 32.544,20.576, 92.16,41.792, 169.344-2.88C 659.552,333.984, 257.824-32.064, 257.824-32.064z M 192.064,320l 96-128l-56.8-198.88
	C 144.544,77.824-115.232,352.96, 58.816,453.664c 71.36,41.312, 127.616,26.24, 161.472,7.52L 192.064,320z"  />
<glyph unicode="&#xe022;" d="M 403.52,332.064C 314.112,383.84, 255.872,317.6, 255.872,317.6S 221.344,356.576, 164.736,351.136l 228.192-228.192
		C 446.24,201.152, 478.944,288.416, 403.52,332.064zM 257.408-32.032c0,0, 35.584,32.672, 75.968,78.784L 77.6,302.528C 7.776,193.696, 257.408-32.032, 257.408-32.032zM 448,64L 448,22.624L 96,374.624L 96,448L 64,448L 64,384L0,384L0,352L 73.376,352L 425.376,0L 384,0L 384-32L 480-32L 480,64 	z"  />
<glyph unicode="&#xe023;" d="M 512,64l0-96 l-96,0 l0,32 L 96,0 l0-32 L0-32 l0,96 l 32,0 L 32,384 L0,384 L0,480 l 96,0 l0-32 l 320,0 L 416,480 l 96,0 l0-96 l-32,0 l0-320 L 512,64 z M 448,0l 32,0 l0,32 l-32,0 L 448,0 z
	 M 32,0l 32,0 l0,32 L 32,32 L 32,0 z M 64,448L 32,448 l0-32 l 32,0 L 64,448 z M 480,448l-32,0 l0-32 l 32,0 L 480,448 z M 448,384l-32,0 L 416,416 L 96,416 l0-32 L 64,384 l0-320 l 32,0 l0-32 l 320,0 l0,32 l 32,0 L 448,384 z"  />
<glyph unicode="&#xe024;" d="M 512,64l0-96 l-96,0 l0,32 l-96,0 l0-32 L 192-32 l0,32 L 96,0 l0-32 L0-32 l0,96 l 32,0 l0,96 L0,160 L0,288 l 32,0 L 32,384 L0,384 L0,480 l 96,0 l0-32 l 96,0 L 192,480 l 128,0 l0-32 l 96,0 L 416,480 l 96,0 l0-96 l-32,0 
	l0-96 l 32,0 l0-128 l-32,0 l0-96 L 512,64 z M 224,0l 64,0 l0,64 L 224,64 L 224,0 z M 32,0l 32,0 l0,32 L 32,32 L 32,0 z M 32,192l 64,0 L 96,256 L 32,256 L 32,192 z M 64,448L 32,448 l0-32 l 32,0 L 64,448 z M 288,448L 224,448 l0-64 l 64,0 L 288,448 z M 416,416l-96,0 l0-64 L 192,352 L 192,416 L 96,416 l0-32 L 64,384 l0-96 l 64,0 l0-128 L 64,160 l0-96 l 32,0 l0-32 
	l 96,0 l0,64 l 128,0 l0-64 l 96,0 l0,32 l 32,0 l0,96 l-64,0 L 384,288 l 64,0 L 448,384 l-32,0 L 416,416 z M 480,448l-32,0 l0-32 l 32,0 L 480,448 z M 480,256l-64,0 l0-64 l 64,0 L 480,256 z M 448,32l0-32 l 32,0 l0,32 L 448,32 z"  />
<glyph unicode="&#xe025;" d="M 256,467.424l 84.384-152.992l 171.584-32.96l-119.456-127.52l 21.696-173.376L 256,54.752
	l-158.176-74.176l 21.696,173.376L 0.032,281.472l 171.584,32.96L 256,467.424"  />
<glyph unicode="&#xe026;" d="M 392.512,153.952l 21.696-173.376L 256,54.752l-158.176-74.176l 21.696,173.376L 0.032,281.472
	l 171.584,32.96L 256,467.424l 84.384-152.992l 171.584-32.96L 392.512,153.952z M 313.984,286.144L 256,391.328l0-283.712 l 108.736-51.008l-14.912,119.2l 82.112,87.68
	L 313.984,286.144z"  />
<glyph unicode="&#xe027;" d="M 392.512,153.952l 21.696-173.376L 256,54.752l-158.176-74.176l 21.696,173.376L 0.032,281.472
	l 171.584,32.96L 256,467.424l 84.384-152.992l 171.584-32.96L 392.512,153.952z M 313.984,286.144L 256,391.328L 198.016,286.144L 80.032,263.488l 82.112-87.68L 147.264,56.64
	L 256,107.616l 108.736-51.008l-14.912,119.2l 82.112,87.68L 313.984,286.144z"  />
<glyph unicode="&#xe028;" d="M 288,480L0,128L 224,128L 512,480 	zM 256-32L 512,288L 512,416L 256,96 	zM0,96L 224,96L 224-32L0-32z"  />
<glyph unicode="&#xe029;" d="M 14.176,397.952L 82.048,465.824L 149.92,397.952L 82.048,330.080zM 489.376,58.528L 466.752,81.152L 398.88,13.248L 421.504-9.376L 512-32 	zM 104.704,307.392L 172.544,375.296L 444.128,103.872L 376.288,35.968z"  />
<glyph unicode="&#xe02a;" d="M0-32L0,416 l 65.888,0 C 64.768,409.6, 64,402.976, 64,396C 64,354.016, 85.472,320, 112,320
	S 160,354.016, 160,396C 160,402.976, 159.232,409.6, 158.112,416l 195.776,0 C 352.768,409.6, 352,402.976, 352,396C 352,354.016, 373.504,320, 400,320S 448,354.016, 448,396
	C 448,402.976, 447.232,409.6, 446.112,416L 512,416 l0-448 L0-32 z M 448,272.352C 434.592,262.24, 418.080,256, 400,256C 355.808,256, 320,291.808, 320,336
	c0,5.472, 0.576,10.816, 1.632,16L 190.4,352 C 191.424,346.816, 192,341.472, 192,336C 192,291.808, 156.192,256, 112,256C 93.92,256, 77.408,262.24, 64,272.352L 64,32 l 384,0 L 448,272.352 z
	 M 160,160L 96,160 L 96,224 l 64,0 L 160,160 z M 160,64L 96,64 l0,64 l 64,0 L 160,64 z M 288,160L 224,160 L 224,224 l 64,0 L 288,160 z M 288,64L 224,64 l0,64 l 64,0 L 288,64 z M 416,160l-64,0 L 352,224 l 64,0 L 416,160 z M 416,64l-64,0 l0,64 l 64,0 L 416,64 z M 384,480l 32,0 l0-128 l-32,0 L 384,480 z M 96,480l 32,0 
	l0-128 L 96,352 L 96,480 z"  />
<glyph unicode="&#xe02b;" d="M 256,480C 167.648,480, 96,408.352, 96,320c0-10.976, 1.12-21.696, 3.232-32.032l 27.712-61.824L 256-32
	l 129.056,258.144l 27.68,61.824C 414.88,298.304, 416,309.024, 416,320C 416,408.352, 344.384,480, 256,480z M 256,256C 220.672,256, 192,284.64, 192,320s 28.672,64, 64,64s 64-28.672, 64-64
	S 291.328,256, 256,256z"  />
<glyph unicode="&#xe02c;" d="M 480,32l0-32 l-32,0 l0-32 L0-32 l0,96 l 384,0 l0,32 l 32,0 L 416,288 l-32,0 L 384,320 L 128,320 l0-64 L 96,256 L 96,288 L 64,288 L 64,320 L 32,320 L 32,352 L0,352 L0,384 l 32,0 L 32,416 l 32,0 L 64,448 l 32,0 L 96,480 l 32,0 l0-64 l 320,0 l0-32 
	l 32,0 l0-32 l 32,0 l0-320 L 480,32 z"  />
<glyph unicode="&#xe02d;" d="M 128,96l0-32 l 384,0 l0-96 L 64-32 l0,32 L 32,0 l0,32 L0,32 L0,352 l 32,0 L 32,384 l 32,0 L 64,416 l 320,0 L 384,480 l 32,0 l0-32 l 32,0 l0-32 l 32,0 l0-32 l 32,0 l0-32 l-32,0 l0-32 l-32,0 l0-32 l-32,0 l0-32 l-32,0 
	L 384,320 L 128,320 l0-32 L 96,288 l0-192 L 128,96 z"  />
<glyph unicode="&#xe02e;" d="M 160,288l0-96 L 128,192 L 128,224 L 96,224 L 96,256 L 64,256 L 64,288 L 32,288 L 32,320 L0,320 L0,352 l 32,0 L 32,384 l 32,0 L 64,416 l 32,0 L 96,448 l 32,0 L 128,480 l 32,0 l0-96 c0,0, 352,48, 352-416
	C 512,256, 160,288, 160,288z"  />
<glyph unicode="&#xe02f;" d="M 480,320l0-32 l-32,0 l0-32 l-32,0 l0-32 l-32,0 l0-32 l-32,0 L 352,288 C 352,288,0,256,0-32C0,432, 352,384, 352,384L 352,480 l 32,0 l0-32 l 32,0 l0-32 l 32,0 l0-32 l 32,0 
	l0-32 l 32,0 l0-32 L 480,320 z"  />
<glyph unicode="&#xe030;" d="M 480,0l0-32 L 32-32 l0,32 L0,0 L0,448 l 32,0 L 32,480 l 448,0 l0-32 l 32,0 l0-448 L 480,0 z M 448,416L 64,416 l0-384 l 384,0 L 448,416 z M 160,320L 128,320 L 128,352 l 32,0 L 160,320 z M 192,288L 160,288 
	L 160,320 l 32,0 L 192,288 z M 224,256L 192,256 L 192,288 l 32,0 L 224,256 z M 160,224L 160,256 l 32,0 l0-32 L 160,224 z M 128,192L 128,224 l 32,0 l0-32 L 128,192 z M 352,192L 256,192 L 256,224 l 96,0 L 352,192 z"  />
<glyph unicode="&#xe031;" d="M 480,0l0-32 L 32-32 l0,32 L0,0 L0,448 l 32,0 L 32,480 l 448,0 l0-32 l 32,0 l0-448 L 480,0 z M 448,416L 64,416 l0-384 l 384,0 L 448,416 z M 416,352L 96,352 L 96,384 l 320,0 L 416,352 z M 352,320
	l 32,0 l0-32 l-32,0 L 352,320 z M 384,224l-32,0 L 352,256 l 32,0 L 384,224 z M 128,128l 32,0 l0,32 l 32,0 l0-32 l 32,0 l0,32 l 32,0 l0-32 l 32,0 l0,32 l 32,0 l0-32 l 64,0 l0-32 l 32,0 l0-32 L 96,64 l0,32 l 32,0 L 128,128 z"  />
<glyph unicode="&#xe032;" d="M 256,480C 256,480-130.944-32, 256-32S 256,480, 256,480z"  />
<glyph unicode="&#xe033;" d="M 256-32C-130.944-32, 256,480, 256,480S 642.944-32, 256-32z M 352,192.576
	c-24-63.872-56-159.68-64-159.68C 288,32.864, 416,64.8, 352,192.576z"  />
<glyph unicode="&#xe034;" d="M 256,416L0,32L 160,32L 256,256L 352,32L 512,32 z"  />
<glyph unicode="&#xe035;" d="M 256,32L0,416L 160,416L 256,192L 352,416L 512,416 z"  />
<glyph unicode="&#xe036;" d="M 64,224L 448,480L 448,320L 224,224L 448,128L 448-32 z"  />
<glyph unicode="&#xe037;" d="M 448,224L 64,480L 64,320L 288,224L 64,128L 64-32 z"  />
<glyph unicode="&#xe038;" d="M 360.576,480L-2.016,353.536L 96.544,70.944L 96.544,168.096L 38.72,333.856L 340.8,439.232L 382.048,320.992L 416,320.992 	zM 128,288l0-320 l 384,0 L 512,288 L 128,288 z M 480,0L 160,0 L 160,256 l 320,0 L 480,0 zM 192,224L 448,224L 448,32L 192,32z"  />
<glyph unicode="&#xe039;" d="M0-32L0,352 l 224,96l0-32 L 32,352l 448,0 L 288,416L 288,448 l 224-96l0-384 L0-32 z M 32,320l0-320 l 448,0 L 480,320 L 32,320 z M 64,288l 384,0 l0-256 L 64,32 L 64,288 z M 256,416
	C 238.304,416, 224,430.336, 224,448s 14.304,32, 32,32s 32-14.336, 32-32S 273.696,416, 256,416z"  />
<glyph unicode="&#xe03a;" d="M 380,32c-3.648,0-7.136,0.64-10.72,0.928C 366.176,32.64, 363.2,32, 360,32L 96,32 c-53.024,0-96,43.008-96,96
	c0,45.312, 31.488,83.040, 73.728,93.12C 67.68,236.992, 64,254.016, 64,272C 64,351.52, 128.48,416, 208,416c 72.64,0, 132.032-53.888, 142.016-123.744
	c 9.696,2.272, 19.616,3.744, 30.016,3.744C 452.864,296, 512,236.896, 512,164C 512,91.136, 452.864,32, 380,32z M 320,224L 288,224 L 288,256 L 256,256 L 256,288 L 224,288 l0-160 l 32,0 l0,32 l 32,0 L 288,192 l 32,0 
	L 320,224 z"  />
<glyph unicode="&#xe03b;" d="M 480-32L 480,480 l 32,0 l0-512 L 480-32 z M 416,416l 32,0 l0-384 l-32,0 L 416,416 z M 128,416l 256,0 l0-384 L 128,32 L 128,416 z M 160,64l 192,0 L 352,384 L 160,384 L 160,64 z M 192,352l 128,0 l0-256 L 192,96 L 192,352 z M 64,416l 32,0 l0-384 L 64,32 L 64,416 z M0,480l 32,0 l0-512 L0-32 L0,480 z"  />
<glyph unicode="&#xe03c;" d="M0-32L0,480 l 512,0 l0-512 L0-32 z M 160,448L 32,448 l0-448 l 128,0 L 160,448 z M 192,448l0-448 l 128,0 L 320,448 L 192,448 z M 480,448l-128,0 l0-448 l 128,0 L 480,448 z"  />
<glyph unicode="&#xe03d;" d="M0,0l0,64 l 512,0 l0-64 L0,0 z M0,192l 512,0 l0-64 L0,128 L0,192 z M0,320l 512,0 l0-64 L0,256 L0,320 z M0,448l 512,0 l0-64 L0,384 L0,448 z"  />
<glyph unicode="&#xe03e;" d="M 288-32L 288,192 l 224,0 l0-224 L 288-32 z M 448,128l-96,0 l0-96 l 96,0 L 448,128 z M 288,480l 224,0 l0-224 L 288,256 L 288,480 z M 352,320l 96,0 L 448,416 l-96,0 L 352,320 z M0,192l 224,0 l0-224 L0-32 L0,192 z M 64,32l 96,0 l0,96 L 64,128 L 64,32 z M0,480l 224,0 l0-224 L0,256 L0,480 z M 64,320l 96,0 L 160,416 L 64,416 
	L 64,320 z"  />
<glyph unicode="&#xe03f;" d="M 256,479.968L 159.968,395.968L 159.968,480L 127.968,480L 127.968,367.968L0,256.032L 512,256.032 	zM 95.968-32l 320.064,0 L 416.032,256 L 95.968,256 L 95.968-32 z M 192,160c0,35.328, 28.672,64, 64,64c 35.328,0, 64-28.672, 64-64l0-160 L 192,0 L 192,160 z"  />
<glyph unicode="&#xe040;" d="M 480-32l0,64 l-64,0 l0-64 l-32,0 L 384,384 l 128,0 l0-416 L 480-32 z M 416,64l 32,0 l0,32 l-32,0 L 416,64 z M 416,192l 32,0 L 448,224 l-32,0 L 416,192 z M 448,352l-32,0 l0-32 
	l 32,0 L 448,352 z M 480,288l-32,0 l0-32 l 32,0 L 480,288 z M 480,160l-32,0 l0-32 l 32,0 L 480,160 z M 288,64L 224,64 l0-96 L 160-32 L 160,480 l 192,0 l0-512 L 288-32 L 288,64 z M 224,416L 192,416 l0-32 l 32,0 L 224,416 z M 224,320L 192,320 l0-32 l 32,0 L 224,320 z M 224,224L 192,224 l0-32 l 32,0 L 224,224 z M 224,128L 192,128 l0-32 l 32,0 L 224,128 z
	 M 320,416L 288,416 l0-32 l 32,0 L 320,416 z M 320,320L 288,320 l0-32 l 32,0 L 320,320 z M 320,224L 288,224 l0-32 l 32,0 L 320,224 z M 320,128L 288,128 l0-32 l 32,0 L 320,128 z M 96,0L 32,0 l0-32 L0-32 L0,224 l 128,0 l0-256 L 96-32 L 96,0 z M 32,32l 32,0 l0,32 L 32,64 L 32,32 z M 64,192L 32,192 l0-32 l 32,0 L 64,192 z M 96,128L 64,128 l0-32 
	l 32,0 L 96,128 z"  />
<glyph unicode="&#xe041;" d="M 416-32L 96-32 c-53.024,0-96,42.976-96,96L0,256 c0,53.024, 42.976,96, 96,96l 32,0 L 128,480 l 256,0 l0-128 l 32,0 
	c 53.024,0, 96-42.976, 96-96l0-192 C 512,10.976, 469.024-32, 416-32z M 320,416L 192,416 l0-64 l 128,0 L 320,416 z M 256,256c-61.856,0-112-50.144-112-112S 194.144,32, 256,32
	s 112,50.144, 112,112S 317.856,256, 256,256z M 288,160c-17.696,0-32,14.304-32,32s 14.304,32, 32,32s 32-14.304, 32-32S 305.696,160, 288,160z"  />
<glyph unicode="&#xe042;" d="M 384,224L 256,224 l 90.496,90.496C 323.328,337.696, 291.328,352, 256,352C 185.312,352, 128,294.688, 128,224
	s 57.312-128, 128-128c 47.264,0, 88.064,25.92, 110.24,64l 137.376,0 c-28.48-110.336-128.384-192-247.616-192c-141.376,0-256,114.624-256,256s 114.624,256, 256,256
	c 70.688,0, 134.688-28.672, 181.024-74.976L 512,480l0-256 L 384,224 z"  />
<glyph unicode="&#xe043;" d="M 512,480l-74.976-74.976C 390.688,451.328, 326.688,480, 256,480C 136.736,480, 36.832,398.336, 8.416,288l 137.344,0 C 167.936,326.080, 208.736,352, 256,352
		c 35.328,0, 67.328-14.304, 90.496-37.504L 256,224l 256,0 L 512,480 zM 366.24,160C 344.064,121.92, 303.264,96, 256,96c-35.328,0-67.328,14.304-90.496,37.504L 256,224L0,224 l0-256 l 74.976,74.976C 121.312-3.328, 185.312-32, 256-32
		c 119.264,0, 219.168,81.664, 247.616,192L 366.24,160 z"  />
<glyph unicode="&#xe044;" d="M 256,480C 185.312,480, 121.312,451.328, 74.976,405.024L0,480l0-256 l 256,0 L 165.504,314.496
	C 188.672,337.696, 220.672,352, 256,352c 70.688,0, 128-57.312, 128-128s-57.312-128-128-128c-47.264,0-88.064,25.92-110.24,64L 8.384,160 c 28.48-110.336, 128.384-192, 247.616-192
	c 141.376,0, 256,114.624, 256,256S 397.376,480, 256,480z"  />
<glyph unicode="&#xe045;" d="M 480,64l0-32 L 32,32 l0,32 L0,64 L0,288 l 512,0 l0-224 L 480,64 z M 288,192L 64,192 l0-64 l 224,0 L 288,192 z M 448,192l-96,0 l0-64 l 96,0 L 448,192 z M0,384l 32,0 L 32,416 l 448,0 l0-32 l 32,0 l0-32 
	L0,352 L0,384 z"  />
<glyph unicode="&#xe046;" d="M 411.2,94.976L 354.24,130.56C 391.552,159.872, 416,204.864, 416,256
	s-24.448,96.128-61.76,125.408l 56.928,35.616C 453.472,376.288, 480,319.328, 480,256S 453.472,135.712, 411.2,94.976z M 325.312,148.672L 294.304,168.064
	C 328.256,182.848, 352,216.64, 352,256s-23.744,73.152-57.696,87.936l 31.008,19.392C 360.576,340.576, 384,301.088, 384,256S 360.576,171.424, 325.312,148.672z
	 M 255.008,207.008c-28.704,0-52,21.504-52,48s 23.296,48, 52,48s 52-21.504, 52-48S 283.712,207.008, 255.008,207.008z M 256,480
	c 0.064,0, 0.128-0.032, 0.16-0.032l-0.32,0 C 255.872,479.968, 255.936,480, 256,480z M 160,256c0-39.36, 23.776-73.152, 57.696-87.936l-31.040-19.392
	C 151.424,171.424, 128,210.912, 128,256s 23.424,84.576, 58.656,107.328l 31.040-19.392C 183.776,329.152, 160,295.36, 160,256z M 96,256c0-51.136, 24.416-96.128, 61.76-125.408
	l-56.96-35.616C 58.528,135.712, 32,192.672, 32,256s 26.528,120.288, 68.8,161.024l 56.96-35.616C 120.416,352.128, 96,307.136, 96,256z M 320-32L 192-32 l 64,224L 320-32z"  />
<glyph unicode="&#xe047;" d="M 448,352c-17.184,0-32.704,6.88-44.224,17.92L 127.232,231.616C 127.52,229.088, 128,226.592, 128,224
	c0-2.624-0.48-5.088-0.768-7.616l 276.544-138.272C 415.296,89.12, 430.816,96, 448,96c 35.328,0, 64-28.672, 64-64s-28.672-64-64-64s-64,28.672-64,64
	c0,2.592, 0.48,5.088, 0.736,7.616L 108.224,177.92C 96.704,166.88, 81.184,160, 64,160c-35.328,0-64,28.672-64,64s 28.672,64, 64,64
	c 17.184,0, 32.704-6.88, 44.224-17.92l 276.544,138.272C 384.48,410.912, 384,413.408, 384,416c0,35.328, 28.672,64, 64,64s 64-28.672, 64-64S 483.328,352, 448,352z"  />
<glyph unicode="&#xe048;" d="M 456,0l0-32 L 64-32 l0,32 L 32,0 L 32,448 l 32,0 L 64,480 l 384,0 l0-32 l 32,0 l0-448 L 456,0 z M 352,32l 64,0 l0,64 l-64,0 L 352,32 z M 352,128l 64,0 L 416,192 l-64,0 
	L 352,128 z M 352,224l 64,0 L 416,288 l-64,0 L 352,224 z M 224,32l 64,0 l0,64 L 224,96 L 224,32 z M 224,128l 64,0 L 288,192 L 224,192 L 224,128 z M 224,224l 64,0 L 288,288 L 224,288 L 224,224 z M 96,32l 64,0 l0,64 L 96,96 L 96,32 z M 96,128l 64,0 L 160,192 L 96,192 L 96,128 z M 96,224l 64,0 L 160,288 L 96,288 L 96,224 z M 448,416L 64,416 l0-64 l 384,0 
	L 448,416 z"  />
<glyph unicode="&#xe049;" d="M0-32L0,480 l 512,0 l0-512 L0-32 z M 96,448L 32,448 l0-64 l 64,0 L 96,448 z M 96,320L 32,320 l0-64 l 64,0 L 96,320 z M 96,192L 32,192 l0-64 l 64,0 L 96,192 z M 96,64L 32,64 l0-64 l 64,0 L 96,64 z
	 M 192,288l0-128 l 128,64L 192,288z M 480,448l-64,0 l0-64 l 64,0 L 480,448 z M 480,320l-64,0 l0-64 l 64,0 L 480,320 z M 480,192l-64,0 l0-64 l 64,0 L 480,192 z M 480,64l-64,0 l0-64 l 64,0 L 480,64 z"  />
<glyph unicode="&#xe04a;" d="M 489.056,13.568l 22.624-22.624l-22.624-22.624l-22.624,22.624l-22.624-22.624
	L 233.792,178.336c-22.080-11.52-46.848-18.656-73.472-18.656c-88.384,0-160,71.616-160,160s 71.616,160, 160,160s 160-71.616, 160-160c0-26.624-7.136-51.36-18.656-73.472
	l 210.016-210.016L 489.056,13.568z M 160.32,383.68c-35.328,0-64-28.672-64-64s 28.672-64, 64-64s 64,28.672, 64,64S 195.648,383.68, 160.32,383.68z"  />
<glyph unicode="&#xe04b;" d="M 422.528,47.040L 480-32l-129.824,64.896C 345.44,32.672, 340.832,32, 336,32
	C 238.784,32, 160,82.144, 160,144c0,6.208, 1.344,12.224, 2.88,18.176C 175.104,161.088, 187.296,160, 200,160c 97.952,0, 181.824,33.248, 222.112,81.12
	C 475.52,221.888, 512,185.856, 512,144C 512,102.272, 475.712,66.272, 422.528,47.040z M 208,192C 193.6,192, 179.488,193.024, 165.92,194.976L 32,128l 63.392,87.2
	C 38.112,240.832,0,285.248,0,336C0,415.52, 93.12,480, 208,480S 416,415.52, 416,336S 322.88,192, 208,192z"  />
<glyph unicode="&#xe04c;" d="M 480,224c0,17.696-28.672,32-64,32s-64-14.304-64-32l-32,0 c0,11.808-12.928,22.016-32,27.552L 288-32 L 224-32 
	c-35.328,0-64,28.672-64,64c0,23.616, 12.928,44.032, 32,55.136L 192,32 l 32,0 l0,64 L 224,251.552 C 204.928,246.016, 192,235.808, 192,224L 160,224 c0,17.696-28.672,32-64,32S 32,241.696, 32,224L0,224 
	c0,141.376, 114.624,256, 256,256s 256-114.624, 256-256L 480,224 z"  />
<glyph unicode="&#xe04d;" d="M 448,160c-144.8,0,0,192,0,192S 592.8,160, 448,160z M 288.192-32c-217.216,0,0,288,0,288
	S 505.408-32, 288.192-32z M 96.192,192c-217.216,0,0,288,0,288S 313.408,192, 96.192,192z"  />
<glyph unicode="&#xe04e;" d="M 416,192L 416,256 l 96,0 l0-64 L 416,192 z M 348.864,363.264l 67.872,67.872l 45.248-45.248l-67.872-67.872
	L 348.864,363.264z M 256,96c-70.688,0-128,57.312-128,128s 57.312,128, 128,128s 128-57.312, 128-128S 326.688,96, 256,96z M 224,480l 64,0 l0-96 L 224,384 L 224,480 z M 48.992,385.888l 45.248,45.248
	l 67.872-67.872L 116.864,318.016L 48.992,385.888z M 96,192L0,192 L0,256 l 96,0 L 96,192 z M 160.128,85.76l-67.872-67.872l-45.248,45.248l 67.872,67.872L 160.128,85.76z M 288-32L 224-32 l0,96 
	l 64,0 L 288-32 z M 464,63.136l-45.248-45.248l-67.872,67.872l 45.248,45.248L 464,63.136z"  />
<glyph unicode="&#xe04f;" d="M 480,192l0-32 l-64,0 l0-64 l-32,0 L 384,352 l 32,0 l0-64 l 64,0 l0-32 l 32,0 l0-64 L 480,192 z M 384,64L 32,64 l0,32 l 352,0 L 384,64 z M0,96L0,352 l 32,0 l0-256 L0,96 z M 32,384
	l 352,0 l0-32 L 32,352 L 32,384 z"  />
<glyph unicode="&#xe050;" d="M 480,192l0-32 l-64,0 l0-64 l-32,0 L 384,352 l 32,0 l0-64 l 64,0 l0-32 l 32,0 l0-64 L 480,192 z M 160,128l 32,96L 128,224 l 128,96L 224,224l 64,0 L 160,128z M 384,64L 32,64 l0,32 
	l 352,0 L 384,64 z M0,96L0,352 l 32,0 l0-256 L0,96 z M 32,384l 352,0 l0-32 L 32,352 L 32,384 z"  />
<glyph unicode="&#xe051;" d="M 480,192l0-32 l-64,0 l0-64 l-32,0 L 384,352 l 32,0 l0-64 l 64,0 l0-32 l 32,0 l0-64 L 480,192 z M 64,320l 96,0 l0-192 L 64,128 L 64,320 z M 384,64L 32,64 l0,32 l 352,0 L 384,64 z M0,96L0,352 
	l 32,0 l0-256 L0,96 z M 32,384l 352,0 l0-32 L 32,352 L 32,384 z"  />
<glyph unicode="&#xe052;" d="M 32,96L 384,96L 384,64L 32,64zM0,352L 32,352L 32,96L0,96zM 32,384L 384,384L 384,352L 32,352zM 64,320L 256,320L 256,128L 64,128zM 480,256L 480,288L 416,288L 416,352L 384,352L 384,96L 416,96L 416,160L 480,160L 480,192L 512,192L 512,256 	z"  />
<glyph unicode="&#xe053;" d="M0,352L 32,352L 32,96L0,96zM 32,96L 384,96L 384,64L 32,64zM 64,320L 352,320L 352,128L 64,128zM 480,256L 480,288L 416,288L 416,352L 384,352L 384,96L 416,96L 416,160L 480,160L 480,192L 512,192L 512,256 	zM 32,384L 384,384L 384,352L 32,352z"  />
<glyph unicode="&#xe054;" d="M 480,192l0-32 l-64,0 l0-64 l-32,0 L 384,352 l 32,0 l0-64 l 64,0 l0-32 l 32,0 l0-64 L 480,192 z M 192,160l 32,0 l0-32 L 192,128 L 192,160 z M 192,320l 32,0 l0-128 L 192,192 L 192,320 z M 384,64L 32,64 
	l0,32 l 352,0 L 384,64 z M0,96L0,352 l 32,0 l0-256 L0,96 z M 32,384l 352,0 l0-32 L 32,352 L 32,384 z"  />
<glyph unicode="&#xe055;" d="M 347.552,180.736c0,0, 9.44,224.928, 164.384,258.816
	C 422.688,344.032, 399.264,291.68, 347.552,180.736z M 449.312,214.496c-29.248-46.112-73.504-109.056-100.064-197.184
	C 349.248,17.312, 306.432,151.936, 449.312,214.496z M 201.728,480c 218.592-259.52, 79.968-417.696, 37.216-473.344C 238.944,6.688, 322.944,187.552, 201.728,480z
	 M 64.736,394.848c 192.96-159.648, 125.12-251.68, 125.12-251.68C 170.656,233.28, 113.088,324.384, 64.736,394.848z M 197.216,42.816L 182.72-32
	c-23.872,69.056, 8.032,179.936-182.656,312.8C 220.832,178.048, 197.216,42.816, 197.216,42.816z M 479.136,127.072c 17.984,9.568-26.24-53.952-87.2-113.056
	C 391.936,14.016, 389.184,105.696, 479.136,127.072z"  />
<glyph unicode="&#xe056;" d="M 224,448L 224,256L 192,256L 192,480L 128,480L 128,256L 96,256L 96,448L 32,448L 32,224L 128,224L 128-32L 192-32L 192,224L 288,224L 288,448 	zM 448,480L 448,448L 416,448L 416,416L 384,416L 384,192L 416,192L 416-32L 480-32L 480,480 	z"  />
<glyph unicode="&#xe057;" d="M 298.528,134.272l 62.24-145.664l-51.072-20.48l-62.016,145.088l-119.68-49.536L 128,479.616
	l 0.48,0.224l 295.168-293.792L 298.528,134.272z"  />
<glyph unicode="&#xe058;" d="M0-32L0,288 l 512,0 l0-320 L0-32 z M 384,128L 128,128 l0-128 l 256,0 L 384,128 z M 352,64L 160,64 l0,32 l 192,0 L 352,64 z M 64,352l 384,0 l0-32 L 64,320 L 64,352 z M 96,416l 320,0 
	l0-32 L 96,384 L 96,416 z M 128,480l 256,0 l0-32 L 128,448 L 128,480 z"  />
<glyph unicode="&#xe059;" d="M 507.52,384L 480,384 L 2.464,384 L0,384 l0-24 L0,352 l0-10.656 l0-236.608 L0,96 l0-32 l 32,0 l 448,0 l 31.008,0 L 512,64 l0,1.28 L 512,96 l0,7.968 
	L 512,342.784 L 512,352 L 512,384 L 507.52,384 z M 480,319.616l-125.952-91.2L 480,129.184L 480,96 l-9.6,0 l-143.296,112.928L 259.904,160.256L 250.080,160.256 L 183.36,208.576L 40.608,96L 32,96 l0,33.984 
	l 124.448,98.080L 32,318.144L 32,352 l 14.656,0 l 208.32-150.848L 463.328,352L 480,352 L 480,319.616 z"  />
<glyph unicode="&#xe05a;" d="M 256,288c-106.016,0-192-85.984-192-192L0,96 c0,141.376, 114.624,256, 256,256c 141.376,0, 256-114.624, 256-256l-64,0 
	C 448,202.016, 362.016,288, 256,288z M 256,224c 70.688,0, 128-57.312, 128-128l-56.416,0 c-2.080,35.648-31.392,64-67.584,64s-65.472-28.352-67.584-64L 128,96 C 128,166.688, 185.312,224, 256,224
	z"  />
<glyph unicode="&#xe05b;" d="M 352,416L 352,480 L 160,480 l0-64 L0,416 l0-64 l 512,0 L 512,416 L 352,416 z M 320,416L 192,416 L 192,448 l 128,0 L 320,416 zM 160,320C 106.976,320, 168,320, 64,320l0-256 c0-53.024, 42.976-96, 96-96l 192,0 c 52.992,0, 96,42.976, 96,96L 448,320 c-96,0-43.008,0-96,0L 160,320 z M 192,64L 128,64 L 128,256 l 64,0 L 192,64 z M 288,64L 224,64 L 224,256 l 64,0 
		L 288,64 z M 384,64l-64,0 L 320,256 l 64,0 L 384,64 z"  />
<glyph unicode="&#xe05c;" d="M 160,416C 106.976,416, 64,373.024, 64,320s 42.976-96, 96-96s 96,42.976, 96,96S 213.024,416, 160,416z M 160,256C 124.704,256, 96,284.704, 96,320s 28.704,64, 64,64s 64-28.704, 64-64
		S 195.296,256, 160,256zM 128,320A32,32 900 1 0 192,320A32,32 900 1 0 128,320zM 512,13.248L 293.376,231.872C 310.112,257.152, 320,287.392, 320,320c0,88.352-71.648,160-160,160S0,408.352,0,320s 71.648-160, 160-160
		c 32.608,0, 62.848,9.888, 88.128,26.624L 466.752-32L 512,13.248z M 32,320c0,70.592, 57.408,128, 128,128s 128-57.408, 128-128S 230.592,192, 160,192S 32,249.408, 32,320z"  />
<glyph unicode="&#xe05d;" d="M 436.992,42.976c-99.936-99.968-262.048-99.968-362.016,0
	c-100,100-100,262.048,0,362.048c 99.968,99.968, 262.080,99.968, 362.016,0C 536.992,305.024, 536.992,142.976, 436.992,42.976z M 120.224,359.744
	c-74.976-74.976-74.976-196.544,0-271.52l 271.52,271.52C 316.768,434.752, 195.232,434.752, 120.224,359.744z"  />
<glyph unicode="&#xe05e;" d="M 486.016,128l0,32 L 416,160 L 416,384 L 192,384 L 192,448 L 160,448 L 160,480 L 128,480 l0-32 L 96,448 l0-64 L 25.984,384 l0-32 L0,352 l0-32 l 25.984,0 l0-32 L 96,288 l0-224 l 224,0 l0-64 l 32,0 l0-32 l 32,0 l0,32 l 32,0 
	l0,64 l 70.016,0 l0,32 L 512,96 l0,32 L 486.016,128 z M 320,160L 192,160 L 192,288 l 128,0 L 320,160 z"  />
<glyph unicode="&#xe05f;" d="M 320,160L 320,192 L 288,192 L 288,331.104 c 19.072,13.856, 32,39.36, 32,68.896C 320,444.192, 291.328,480, 256,480C 220.672,480, 192,444.192, 192,400c0-29.536, 12.928-55.040, 32-68.896L 224,192 L 192,192 l0-32 
	L0,160 l0-128 l 32,0 l0-32 l 32,0 l0-32 l 384,0 l0,32 l 32,0 l0,32 l 32,0 l0,128 L 320,160 z"  />
<glyph unicode="&#xe060;" d="M 288,480l 224-224L 288,256 L 288,480 z M 512,112c0-79.52-114.624-144-256-144s-256,64.48-256,144
	c0,5.408, 0.64,10.752, 1.664,16L 224,128 L 224,480 l 32,0 l0-352 l 254.336,0 C 511.36,122.752, 512,117.408, 512,112z"  />
<glyph unicode="&#xe061;" d="M 448,288L 448,416L 288,416L 288,480L 160,480L 160,416L0,416L0,288L 64,288L 64,160L0,160L0-32L 160-32L 160,32L 288,32L 288-32L 448-32L 448,160L 512,160L 512,288 z"  />
<glyph unicode="&#xe062;" d="M 383.488,390.016L 383.488,416 l-64,0 c0-35.328-28.672-64-64-64s-64,28.672-64,64l-24.64,0 L 143.264,416 L 127.488,416 
	l0-10.624 L 0.32,319.584L 54.016,240l 73.504,49.568L 127.52,0 l 256,0 L 383.52,274.24 L 457.984,224l 53.696,79.584L 383.488,390.016z"  />
<glyph unicode="&#xe063;" d="M 256-32c-141.376,0-256,114.624-256,256s 114.624,256, 256,256c 141.376,0, 256-114.624, 256-256S 397.376-32, 256-32z
	 M 288,128c0,17.696-14.304,32-32,32c-17.664,0-32-14.304-32-32s 14.336-32, 32-32C 273.696,96, 288,110.304, 288,128z M 256,416C 149.984,416, 64,330.016, 64,224s 85.984-192, 192-192
	c-53.024,0-96,42.976-96,96s 42.976,96, 96,96c 52.992,0, 96,42.976, 96,96S 308.992,416, 256,416z M 256,288C 238.336,288, 224,302.304, 224,320c0,17.664, 14.336,32, 32,32
	c 17.696,0, 32-14.336, 32-32C 288,302.304, 273.696,288, 256,288z"  />
<glyph unicode="&#xe064;" d="M 240,384C 269.312,384, 296.384,375.552, 320,361.824L 320,480 L 160,480 l0-118.208 C 183.616,375.552, 210.688,384, 240,384zM 240,64c-29.312,0-56.384,8.448-80,22.176L 160-32 l 160,0 l0,118.176 
	C 296.384,72.448, 269.312,64, 240,64zM 240,348C 171.52,348, 116,292.48, 116,224c0-68.512, 55.52-124, 124-124
	c 68.512,0, 124,55.488, 124,124C 364,292.48, 308.512,348, 240,348z M 320,224L 224,224 L 224,320 l 32,0 l0-64 l 64,0 L 320,224 z"  />
<glyph unicode="&#xe065;" d="M 384-32L 384,448 l 32,0 L 416,480 l 32,0 l0-32 l 32,0 l0-480 L 384-32 z M 256,320l 32,0 L 288,352 l 32,0 l0-32 l 32,0 l0-352 L 256-32 L 256,320 z M 128,192l 32,0 L 160,224 l 32,0 l0-32 l 32,0 l0-224 L 128-32 L 128,192 z
	 M0,64l 32,0 l0,32 l 32,0 l0-32 l 32,0 l0-96 L0-32 L0,64 z"  />
<glyph unicode="&#xe066;" d="M 493.6,461.568c-24.992,24.992-65.536,24.992-90.528,0L 18.4,76.928
	c-24.992-24.992-24.992-65.504,0-90.496c 24.992-24.992, 65.504-24.992, 90.496,0l 384.672,384.64C 518.592,396.064, 518.592,436.608, 493.6,461.568z
	 M 470.976,393.696L 305.632,228.384c-2.752,10.752-7.296,21.12-15.68,29.568c-8.448,8.416-18.816,12.928-29.6,15.68l 165.344,165.312
	c 12.512,12.512, 32.768,12.512, 45.28,0C 483.456,426.496, 483.456,406.208, 470.976,393.696z"  />
<glyph unicode="&#xe067;" d="M 96,414.4l0-288.608 c-5.152,1.024-10.528,1.632-16,1.632c-44.192,0-80-35.68-80-79.712S 35.808-32, 80-32S 160,3.68, 160,47.68L 160,360.704 
	l 288,45.44l0-216.576 c-5.152,1.056-10.528,1.632-16,1.632c-44.192,0-80-35.68-80-79.68c0-44.064, 35.808-79.712, 80-79.712s 80,35.648, 80,79.712
	l0,15.936 L 512,480 L 96,414.4z"  />
<glyph unicode="&#xe068;" d="M 256,480C 114.624,480,0,365.376,0,224s 114.624-256, 256-256s 256,114.624, 256,256S 397.376,480, 256,480z M 384,144
	c0-26.496-21.504-48-48-48S 288,117.504, 288,144S 309.504,192, 336,192c 5.696,0, 10.944-1.44, 16-3.232L 352,320 L 224,320 l0-176 C 224,117.504, 202.496,96, 176,96
	S 128,117.504, 128,144S 149.504,192, 176,192C 181.696,192, 186.944,190.56, 192,188.768L 192,352 l 192,0 L 384,144 z"  />
<glyph unicode="&#xe069;" d="M 480,0L 480,416 L 32,416 l0-416 L0,0 L0,448 l 32,0 L 32,480 l 448,0 l0-32 l 32,0 l0-448 L 480,0 z M 96,320L 64,320 L 64,352 l 32,0 L 96,320 z M 160,352l0-32 L 128,320 L 128,352 L 160,352 z M 192,384l0-32 L 160,352 L 160,384 
	L 192,384 z M 128,288L 96,288 L 96,320 l 32,0 L 128,288 z M 96,192L 64,192 L 64,224 l 32,0 L 96,192 z M 160,224l0-32 L 128,192 L 128,224 L 160,224 z M 192,256l0-32 L 160,224 L 160,256 L 192,256 z M 128,160L 96,160 L 96,192 l 32,0 L 128,160 z M 96,64L 64,64 l0,32 l 32,0 L 96,64 z M 160,96l0-32 L 128,64 l0,32 L 160,96 z M 192,128l0-32 L 160,96 l0,32 L 192,128 z
	 M 128,32L 96,32 l0,32 l 32,0 L 128,32 z M 448,320L 224,320 L 224,352 l 224,0 L 448,320 z M 448,192L 224,192 L 224,224 l 224,0 L 448,192 z M 448,64L 224,64 l0,32 l 224,0 L 448,64 z M 480-32L 32-32 l0,32 l 448,0 L 480-32 z"  />
<glyph unicode="&#xe06a;" d="M 64-32L 64,480 l 384,0 l0-512 L 64-32 z M 416,416l-32,0 l0-32 l-32,0 L 352,416 l-32,0 l0-32 L 288,384 L 288,416 L 224,416 l0-32 L 192,384 L 192,416 L 160,416 l0-32 L 128,384 L 128,416 L 96,416 l0-416 l 320,0 L 416,416 z M 384,288
	L 128,288 L 128,320 l 256,0 L 384,288 z M 352,224L 128,224 L 128,256 l 224,0 L 352,224 z M 384,160L 128,160 L 128,192 l 256,0 L 384,160 z M 352,96L 128,96 l0,32 l 224,0 L 352,96 z M 384,32L 128,32 l0,32 l 256,0 L 384,32 z"  />
<glyph unicode="&#xe06b;" d="M 320,480L 128,256l 96-64l-96-224l 256,256L 256,320L 320,480z"  />
<glyph unicode="&#xe06c;" d="M 64,352l 32,0 L 96,416 l 96,0 l0-32 l 224,0 l0-32 l 32,0 l0-32 L 64,320 L 64,352 z M 448,32L 64,32 L0,288l 512,0 L 448,32z"  />
<glyph unicode="&#xe06d;" d="M 480,269.6C 422.688,330.368, 343.488,368, 256,368c-87.488,0-166.688-37.632-224.032-98.4
	l-32,33.952C 65.472,373.024, 156,416, 256,416c 100,0, 190.528-42.976, 256.064-112.48L 480,269.6z M 448,235.648l-32-33.952C 375.072,245.12, 318.496,272, 256,272
	c-62.496,0-119.072-26.88-160-70.272l-32,33.952C 113.12,287.744, 180.992,320, 256,320C 331.008,320, 398.88,287.744, 448,235.648z M 384,167.744l-32-33.952
	C 327.424,159.872, 293.504,176, 256,176c-37.472,0-71.424-16.128-96-42.176l-32,33.952C 160.736,202.496, 206.016,224, 256,224C 305.984,224, 351.264,202.496, 384,167.744z
	 M 320,99.872L 256,32l-64,67.872C 208.352,117.248, 231.008,128, 256,128C 280.992,128, 303.616,117.248, 320,99.872z"  />
<glyph unicode="&#xe06e;" d="M 416,288L 416,320 l-64,0 L 352,384 c0,53.024-43.008,96-96,96C 202.976,480, 160,437.024, 160,384l0-64 L 96,320 l0-32 L 64,288 l0-288 l 32,0 l0-32 l 320,0 l0,32 l 32,0 
	L 448,288 L 416,288 z M 224,384c0,17.664, 14.336,32, 32,32c 17.696,0, 32-14.336, 32-32l0-64 L 224,320 L 224,384 z M 288,136.864L 288,32 L 224,32 l0,104.864 C 204.96,147.968, 192,168.384, 192,192c0,35.328, 28.672,64, 64,64
	s 64-28.672, 64-64C 320,168.384, 307.072,147.968, 288,136.864z"  />
<glyph unicode="&#xe06f;" d="M 416,288L 416,320 l-64,0 L 352,384 c0,53.024-42.976,96-96,96S 160,437.024, 160,384l 64,0 c0,17.664, 14.304,32, 32,32
	s 32-14.336, 32-32l0-64 L 96,320 l0-32 L 64,288 l0-288 l 32,0 l0-32 l 320,0 l0,32 l 32,0 L 448,288 L 416,288 z M 288,136.864L 288,32 L 224,32 l0,104.864 C 204.96,147.968, 192,168.384, 192,192c0,35.328, 28.672,64, 64,64s 64-28.672, 64-64
	C 320,168.384, 307.072,147.968, 288,136.864z"  />
<glyph unicode="&#xe070;" d="M 416,96l0-32 l 32,0 l0-32 L 256,32 l0,32 l 32,0 l0,32 L 192,96 L 192,384 l 320,0 l0-288 L 416,96 z M 480,352L 224,352 l0-224 l 256,0 L 480,352 z M 256,192L 256,320 l 128,0 L 256,192z M0,416l 160,0 l0-384 
	L0,32 L0,416 z M 32,128l 32,0 l0,32 L 32,160 L 32,128 z M 32,192l 32,0 L 64,224 L 32,224 L 32,192 z M 32,288l 96,0 L 128,320 L 32,320 L 32,288 z M 32,352l 96,0 L 128,384 L 32,384 L 32,352 z"  />
<glyph unicode="&#xe071;" d="M 0.064,0.032L 256,447.968l 255.936-447.936L 0.064,0.032 z M 256,64c 17.696,0, 32,14.304, 32,32
	s-14.304,32-32,32s-32-14.304-32-32S 238.304,64, 256,64z M 288,320L 224,320 l0-160 l 64,0 L 288,320 z"  />
<glyph unicode="&#xe072;" d="M0,0l 128,224l 7.84,0 C 153.472,186.784, 200.352,160, 256,160s 102.528,26.784, 120.16,64L 384,224 l 128-224L0,0 z
	 M 368,320c0-70.688-50.144-128-112-128S 144,249.312, 144,320c0,1.6, 0.352,3.072, 0.416,4.64C 134.784,330.144, 128,340.096, 128,352
	c0,17.504, 14.048,31.584, 31.488,31.904C 178.88,422.048, 214.624,448, 256,448c 41.632,0, 77.504-26.24, 96.8-64.736C 353.92,383.392, 354.88,384, 356,384
	C 371.456,384, 384,369.664, 384,352c0-12.832-6.72-23.744-16.288-28.832C 367.744,322.048, 368,321.088, 368,320z M 224,384L 192,384 l0-32 l 32,0 L 224,384 z M 320,384L 288,384 l0-32 l 32,0 L 320,384 z M 192,320
	c0-35.328, 28.672-64, 64-64s 64,28.672, 64,64L 192,320 z"  />
<glyph unicode="&#xe073;" d="M 416-32l0,32 l-32,0 l0-32 l-32,0 l0,32 l-32,0 l0-32 L 288-32 l0,32 L 224,0 l0-32 L 192-32 l0,32 L 160,0 l0-32 L 128-32 l0,32 L 96,0 l0-32 L0-32 L0,448 l 32,0 L 32,480 l 32,0 l0-32 l 32,0 l0-96 l 32,0 L 128,416 l 32,0 
	l0-64 l 32,0 L 192,416 l 32,0 l0-64 l 64,0 L 288,416 l 32,0 l0-64 l 32,0 L 352,416 l 32,0 l0-64 l 32,0 L 416,448 l 32,0 L 448,480 l 32,0 l0-32 l 32,0 l0-480 L 416-32 z M 128,320L 96,320 l0-32 l 32,0 L 128,320 z M 128,256L 96,256 l0-32 l 32,0 L 128,256 z M 128,192L 96,192 l0-32 l 32,0 L 128,192 z M 128,128L 96,128 l0-32 l 32,0 L 128,128 z M 96,64l0-32 l 32,0 l0,32 L 96,64 z M 192,320
	L 160,320 l0-32 l 32,0 L 192,320 z M 192,256L 160,256 l0-32 l 32,0 L 192,256 z M 192,192L 160,192 l0-32 l 32,0 L 192,192 z M 192,128L 160,128 l0-32 l 32,0 L 192,128 z M 160,64l0-32 l 32,0 l0,32 L 160,64 z M 288,320L 224,320 l0-32 l 64,0 L 288,320 z M 288,256L 224,256 l0-32 l 64,0 L 288,256 z M 288,192L 224,192 l0-32 l 64,0 L 288,192 z M 288,128L 224,128 l0-32 l 64,0 L 288,128 z
	 M 224,64l0-32 l 64,0 l0,32 L 224,64 z M 352,320l-32,0 l0-32 l 32,0 L 352,320 z M 352,256l-32,0 l0-32 l 32,0 L 352,256 z M 352,192l-32,0 l0-32 l 32,0 L 352,192 z M 352,128l-32,0 l0-32 l 32,0 L 352,128 z M 320,64l0-32 l 32,0 l0,32 L 320,64 z M 416,320l-32,0 l0-32 l 32,0 L 416,320 z M 416,256l-32,0 l0-32 
	l 32,0 L 416,256 z M 416,192l-32,0 l0-32 l 32,0 L 416,192 z M 416,128l-32,0 l0-32 l 32,0 L 416,128 z M 416,64l-32,0 l0-32 l 32,0 L 416,64 z"  />
<glyph unicode="&#x20;" horiz-adv-x="256" />
</font>
</defs>
</svg>
