<?xml version="1.0" standalone="no"?>
<!DOCTYPE svg PUBLIC "-//W3C//DTD SVG 1.1//EN" "http://www.w3.org/Graphics/SVG/1.1/DTD/svg11.dtd" >
<svg xmlns="http://www.w3.org/2000/svg">
<metadata>
This is a custom SVG font generated by IcoMoon.
<iconset grid="16"></iconset>
</metadata>
<defs>
<font id="meteocons" horiz-adv-x="512" >
<font-face units-per-em="512" ascent="480" descent="-32" />
<missing-glyph horiz-adv-x="512" />
<glyph class="hidden" unicode="&#xf000;" d="M0,480L 512 -32L0 -32 z" horiz-adv-x="0" />
<glyph unicode="&#xe859;" d="M 209.167,303.625c-3.604,3.396-7.792,6.083-12.542,8.062c-4.812,1.938-9.938,2.938-15.375,2.938
			c-5.458,0-10.584-1-15.375-2.938c-4.75-1.979-8.938-4.667-12.541-8.062c-3.584-3.417-6.396-7.417-8.459-12.042
			c-2.042-4.605-3.062-9.479-3.062-14.583c0-5.125, 1.021-10, 3.062-14.605c 2.062-4.604, 4.875-8.625, 8.459-12.020
			c 3.604-3.417, 7.791-6.125, 12.541-8.063c 4.791-1.979, 9.917-2.958, 15.375-2.958c 5.438,0, 10.562,0.979, 15.375,2.958
			c 4.75,1.938, 8.938,4.646, 12.542,8.063c 3.583,3.395, 6.396,7.417, 8.416,12.020c 2.042,4.605, 3.104,9.479, 3.104,14.605
			c0,5.104-1.062,9.979-3.104,14.583C 215.562,296.209, 212.75,300.209, 209.167,303.625z M 193.812,264.959
			c-3.438-3.417-7.625-5.125-12.562-5.125s-9.125,1.709-12.562,5.125c-3.396,3.417-5.125,7.417-5.125,12.042
			c0,4.75, 1.729,8.833, 5.125,12.145c 3.438,3.333, 7.625,4.979, 12.562,4.979s 9.125-1.646, 12.562-4.979
			c 3.375-3.312, 5.104-7.395, 5.104-12.145C 198.916,272.375, 197.188,268.375, 193.812,264.959z M 335.25,168.209
			c-6.062-1.73-12.083-2.583-18.062-2.583c-3.938,0-7.812,0.604-11.646,1.79c-3.854,1.209-7.354,3.084-10.499,5.646
			c-3.167,2.563-5.73,5.834-7.667,9.854c-1.959,4-2.958,8.917-2.958,14.709l0,51.458 c0,5.792, 0.999,10.75, 2.958,14.854
			c 1.937,4.083, 4.459,7.417, 7.541,9.979c 3.084,2.562, 6.542,4.396, 10.5,5.5c 3.917,1.105, 7.834,1.667, 11.771,1.667
			c 5.979,0, 12.124-0.875, 18.437-2.688c 6.313-1.791, 12.188-4.999, 17.668-9.604l 16.896,27.146
			c-6.854,5.958-14.979,10.312-24.479,13.062c-9.459,2.708-19.292,4.083-29.543,4.083c-8.354,0-16.583-1.208-24.583-3.584
			c-8.021-2.396-15.146-5.979-21.375-10.75c-6.208-4.792-11.271-10.708-15.083-17.791c-3.875-7.084-5.791-15.333-5.791-24.708
			l0-66.042 c0-9.562, 1.979-17.875, 5.916-24.959c 3.917-7.084, 9.041-12.979, 15.334-17.666c 6.332-4.708, 13.479-8.229, 21.499-10.625
			c 8.042-2.375, 16.229-3.584, 24.604-3.584c 10.396,0, 20.271,1.542, 29.688,4.604c 9.375,3.083, 17.312,7.354, 23.812,12.792
			l-16.646,27.146C 347.416,173.125, 341.292,169.896, 335.25,168.209z"  />
<glyph unicode="&#xe858;" d="M 159.094,201.354l-1.042,0 l-33.521,51.188l-40.938,60.437l-31.75,0 l0-176.395 l 35.062,0 L 86.905,247.688 l 1.521,0 
			l 29.104-44.542l 44.688-66.562l 31.938,0 L 194.156,312.979 l-35.062,0 L 159.094,201.354 z M 206.469,125.834l 25.834,0 l 64.791,196.332l-26.125,0 L 206.469,125.834z
			 M 398.719,312.979l-35.833,0 l-61.979-176.395l 37.375,0 l 11.521,36.375l 61.459,0 l 10.749-36.375l 38.146,0 L 398.719,312.979z M 359.281,202.375
			l 7.146,23.292l 13.604,45.832l 1,0 l 13.854-46.604l 6.896-22.521L 359.281,202.374 z"  />
<glyph unicode="&#xe857;" d="M 256,480C 114.604,480,0,365.396,0,224c0-141.375, 114.604-256, 256-256c 141.375,0, 256,114.625, 256,256
			C 512,365.396, 397.375,480, 256,480z M 256,32c-105.875,0-192,86.125-192,192S 150.125,416, 256,416s 192-86.125, 192-192S 361.875,32, 256,32
			z M 160,128l 128,64l 64,128l-128-64L 160,128z"  />
<glyph unicode="&#xe856;" d="M 288,119.125L 288,413.083 C 288,432.375, 273.666,448, 256,448
	c-17.667,0-32-15.625-32-34.917l0-293.958 c-19.042-11.083-32-31.501-32-55.125c0-35.333, 28.666-64, 64-64c 35.333,0, 64,28.667, 64,64
	C 320,87.624, 307.062,108.042, 288,119.125z"  />
<glyph unicode="&#xe855;" d="M 512,345.167c0,49.146-40,89.124-89.167,89.124c-2.396,0-4.771-0.083-7.146-0.27
	C 392.562,462.854, 357.709,480, 320,480c-37.688,0-72.562-17.146-95.688-45.979c-2.375,0.187-4.771,0.27-7.188,0.27
	C 168,434.291, 128,394.312, 128,345.167c0-5.146, 0.688-10.125, 1.5-15.042c-0.542-0.708-1.188-1.354-1.708-2.083
	c-5.229,0.75-10.479,1.125-15.792,1.125c-61.75,0-112-50.25-112-112c0-61.751, 50.25-112, 112-112c 13.688,0, 27.084,2.499, 39.709,7.333
	c 18.354-16, 40.104-26.938, 63.207-33.208L 192,64l 32-32l-32-64l 96,64l-32,32l 4.812,9.583c 36.75,1.125, 71.75,14.729, 99.479,38.917
	c 12.625-4.834, 26.021-7.333, 39.709-7.333c 61.75,0, 112,50.249, 112,112c0,25.666-9.042,49.083-23.666,68
	C 502.916,301.042, 512,321.979, 512,345.167z"  />
<glyph unicode="&#xe854;" d="M 488.334,232.583c 14.624-18.916, 23.666-42.312, 23.666-68c0-61.749-50.25-112-112-112
	c-13.688,0-27.084,2.5-39.709,7.333c-28.958-25.249-65.749-39.333-104.291-39.333c-38.5,0-75.334,14.084-104.291,39.333
	c-12.625-4.833-26.021-7.333-39.709-7.333c-61.75,0-112,50.251-112,112c0,61.75, 50.25,112, 112,112
	c 5.312,0, 10.562-0.375, 15.792-1.125c 0.521,0.729, 1.166,1.375, 1.708,2.083c-0.812,4.938-1.5,9.896-1.5,15.041
	c0,49.167, 40,89.146, 89.125,89.146c 2.416,0, 4.812-0.104, 7.188-0.292c 23.125,28.854, 58,45.979, 95.688,45.979
	c 37.709,0, 72.562-17.125, 95.688-45.979c 2.375,0.188, 4.75,0.292, 7.146,0.292C 472,381.729, 512,341.75, 512,292.583
	C 512,269.417, 502.916,248.479, 488.334,232.583z"  />
<glyph unicode="&#xe853;" d="M 400,416c-5.312,0-10.562-0.375-15.792-1.125C 354.334,455.583, 307.188,480, 256,480
			s-98.312-24.417-128.208-65.125C 122.562,415.625, 117.312,416, 112,416C 50.25,416,0,365.75,0,304s 50.25-112, 112-112
			c 13.688,0, 27.084,2.5, 39.709,7.333C 180.666,174.083, 217.5,160, 256,160c 38.542,0, 75.333,14.083, 104.291,39.333
			C 372.916,194.5, 386.312,192, 400,192c 61.75,0, 112,50.25, 112,112S 461.75,416, 400,416z M 96,160c-17.688,0-32-14.312-32-32
			s 14.312-32, 32-32s 32,14.312, 32,32S 113.688,160, 96,160z M 256,128c-17.688,0-32-14.312-32-32s 14.312-32, 32-32s 32,14.312, 32,32
			S 273.688,128, 256,128z M 416,160c-17.688,0-32-14.312-32-32s 14.312-32, 32-32s 32,14.312, 32,32S 433.688,160, 416,160z M 352,32
			c-17.688,0-32-14.312-32-32s 14.312-32, 32-32s 32,14.312, 32,32S 369.688,32, 352,32z M 160,32c-17.688,0-32-14.312-32-32
			s 14.312-32, 32-32s 32,14.312, 32,32S 177.688,32, 160,32z"  />
<glyph unicode="&#xe852;" d="M 326.042,36.312l-18,10.376
			c 0.542,3.124, 0.958,6.311, 0.958,9.624c0,3.312-0.416,6.5-1,9.625l 18.042,10.396c 8.417,4.917, 11.291,15.729, 6.458,24.104
			c-4.876,8.479-15.667,11.375-24.125,6.5l-18.188-10.5c-4.876,4.146-10.375,7.396-16.5,9.604l0,20.896 
			c0,9.771-7.938,17.688-17.688,17.688s-17.666-7.917-17.666-17.688l0-20.875 c-6.126-2.188-11.646-5.479-16.521-9.625l-18.146,10.5
			c-8.479,4.875-19.292,2-24.167-6.479c-4.875-8.417-1.938-19.25, 6.5-24.126l 17.959-10.375c-0.584-3.146-0.959-6.334-0.959-9.646
			c0-3.313, 0.375-6.5, 0.959-9.624L 186,36.312c-8.459-4.875-11.375-15.75-6.5-24.188s 15.688-11.312, 24.125-6.438l 18.167,10.438
			c 4.874-4.125, 10.396-7.375, 16.542-9.562l0-20.938 c0-9.749, 7.916-17.624, 17.666-17.624s 17.688,7.875, 17.688,17.624l0,20.938 
			c 6.125,2.188, 11.688,5.438, 16.521,9.625l 18.167-10.5c 8.458-4.875, 19.249-2, 24.125,6.438
			C 337.375,20.562, 334.5,31.375, 326.042,36.312z M 256,38.625c-9.75,0-17.688,7.938-17.688,17.688s 7.938,17.646, 17.688,17.646
			s 17.667-7.896, 17.667-17.646S 265.75,38.625, 256,38.625z M 474.166,83.75l-12.083,3.208c-0.291,3.833-1.208,7.479-2.896,10.979
			l 8.771,8.771c 4.125,4.125, 4.104,10.792,0,14.854c-4.083,4.104-10.708,4.125-14.833,0l-8.791-8.75
			c-3.459,1.625-7.146,2.562-10.959,2.875l-3.209,12.062c-1.499,5.583-7.25,8.938-12.874,7.438
			c-5.604-1.521-8.875-7.271-7.417-12.875l 3.209-11.896c-1.584-1.084-3.084-2.292-4.5-3.667c-1.375-1.417-2.542-2.916-3.626-4.459
			l-11.896,3.209c-5.604,1.499-11.396-1.876-12.896-7.438c-1.499-5.625, 1.876-11.354, 7.417-12.875l 12-3.229
			c 0.334-3.771, 1.292-7.458, 2.979-10.959l-8.812-8.812c-4.083-4.104-4.062-10.729, 0.042-14.812
			c 4.083-4.083, 10.708-4.125, 14.792-0.042l 8.832,8.833c 3.459-1.707, 7.168-2.666, 11.001-2.957l 3.166-12.021
			c 1.542-5.604, 7.25-8.938, 12.876-7.438c 5.583,1.5, 8.957,7.249, 7.458,12.917l-3.209,11.896c 1.5,1.062, 3.042,2.25, 4.459,3.625
			c 1.375,1.396, 2.542,2.938, 3.624,4.479l 11.917-3.209c 5.604-1.5, 11.375,1.854, 12.854,7.417
			C 483.062,76.459, 479.75,82.208, 474.166,83.75z M 438.312,77.062c-4.125-4.125-10.771-4.104-14.875,0
			c-4.062,4.062-4.104,10.729,0,14.854c 4.104,4.083, 10.771,4.083, 14.875,0C 442.375,87.812, 442.375,81.125, 438.312,77.062z
			 M 118.938,137.5l-11.875-3.188c-1.104,1.5-2.25,3.021-3.646,4.438c-1.416,1.375-2.916,2.562-4.479,3.625l 3.188,11.938
			c 1.5,5.604-1.834,11.375-7.375,12.854c-5.625,1.5-11.375-1.834-12.875-7.417l-3.25-12.062c-3.812-0.312-7.458-1.25-10.938-2.896
			l-8.812,8.771c-4.125,4.125-10.75,4.104-14.834,0c-4.104-4.104-4.104-10.75,0-14.854l 8.771-8.771
			c-1.646-3.5-2.604-7.188-2.896-10.979l-12.042-3.208c-5.625-1.542-8.959-7.25-7.458-12.875c 1.521-5.583, 7.271-8.875, 12.896-7.417
			l 11.875,3.23c 1.062-1.604, 2.25-3.105, 3.688-4.501c 1.375-1.375, 2.875-2.604, 4.438-3.625l-3.188-11.896
			c-1.5-5.625, 1.834-11.417, 7.416-12.917c 5.626-1.5, 11.334,1.833, 12.834,7.438l 3.25,12c 3.812,0.312, 7.5,1.271, 11,2.938l 8.791-8.792
			c 4.084-4.124, 10.709-4.041, 14.834,0.042c 4.062,4.062, 4.125,10.708,0,14.812l-8.812,8.812c 1.688,3.46, 2.688,7.188, 2.938,11.001
			l 12.062,3.188c 5.562,1.521, 8.896,7.25, 7.396,12.875C 130.334,135.624, 124.584,138.958, 118.938,137.5z M 88.562,109.042
			c-4.104-4.104-10.75-4.104-14.875,0c-4.062,4.083-4.062,10.771,0,14.833c 4.125,4.083, 10.771,4.083, 14.875,0
			S 92.625,113.125, 88.562,109.042z M 512,304c0,61.75-50.25,112-112,112c-5.312,0-10.562-0.375-15.792-1.125
			C 354.334,455.583, 307.188,480, 256,480s-98.312-24.417-128.208-65.125C 122.562,415.625, 117.312,416, 112,416C 50.25,416,0,365.75,0,304
			s 50.25-112, 112-112c 13.688,0, 27.084,2.5, 39.709,7.333C 180.666,174.083, 217.5,160, 256,160c 38.542,0, 75.333,14.083, 104.291,39.333
			C 372.916,194.5, 386.312,192, 400,192C 461.75,192, 512,242.25, 512,304z"  />
<glyph unicode="&#xe851;" d="M 326.042,36.312l-18,10.376
			c 0.542,3.124, 0.957,6.311, 0.957,9.624c0,3.312-0.415,6.5-0.999,9.625l 18.042,10.396c 8.417,4.917, 11.291,15.729, 6.458,24.104
			c-4.876,8.479-15.667,11.375-24.125,6.5l-18.188-10.5c-4.876,4.146-10.375,7.396-16.5,9.604l0,20.896 
			c0,9.771-7.938,17.688-17.688,17.688s-17.667-7.917-17.667-17.688l0-20.875 c-6.125-2.188-11.646-5.479-16.521-9.625l-18.146,10.5
			c-8.479,4.875-19.291,2-24.166-6.479c-4.875-8.417-1.938-19.25, 6.5-24.126l 17.959-10.375c-0.584-3.146-0.959-6.334-0.959-9.646
			c0-3.313, 0.375-6.5, 0.959-9.624L 186,36.312c-8.459-4.875-11.375-15.75-6.5-24.188s 15.688-11.312, 24.125-6.438l 18.167,10.438
			c 4.874-4.125, 10.396-7.375, 16.541-9.562l0-20.938 c0-9.749, 7.917-17.624, 17.667-17.624s 17.688,7.875, 17.688,17.624l0,20.938 
			c 6.125,2.188, 11.688,5.438, 16.521,9.625l 18.167-10.5c 8.458-4.875, 19.249-2, 24.125,6.438
			C 337.375,20.562, 334.5,31.375, 326.042,36.312z M 256,38.625c-9.75,0-17.688,7.938-17.688,17.688s 7.938,17.646, 17.688,17.646
			s 17.666-7.896, 17.666-17.646S 265.75,38.625, 256,38.625z M 400,416c-5.312,0-10.562-0.375-15.792-1.125
			C 354.333,455.583, 307.188,480, 256,480s-98.312-24.417-128.208-65.125C 122.562,415.625, 117.312,416, 112,416C 50.25,416,0,365.75,0,304
			s 50.25-112, 112-112c 13.688,0, 27.084,2.5, 39.709,7.333C 180.666,174.083, 217.5,160, 256,160c 38.542,0, 75.333,14.083, 104.291,39.333
			C 372.916,194.5, 386.312,192, 400,192c 61.75,0, 112,50.25, 112,112S 461.75,416, 400,416z"  />
<glyph unicode="&#xe850;" d="M 417.042,409.208C 393.062,433.771, 359.917,448, 325.312,448
			c-34.562,0-67.688-14.229-91.665-38.792c-52.813-2.438-95.021-46.167-95.021-99.542c0-54.978, 44.709-99.708, 99.688-99.708
			c 5.834,0, 11.604,0.501, 17.271,1.5c 20.729-13.521, 44.917-20.833, 69.729-20.833c 24.854,0, 49.063,7.312, 69.772,20.833
			c 5.707-0.999, 11.458-1.5, 17.291-1.5c 54.937,0, 99.625,44.73, 99.625,99.708C 512,363.042, 469.812,406.792, 417.042,409.208z
			 M 144,223.312L 16,223.312 c-8.833,0-16-7.146-16-16c0-8.853, 7.167-16, 16-16l 128,0 c 8.833,0, 16,7.147, 16,16
			C 160,216.166, 152.833,223.312, 144,223.312z M 16,255.312l 64,0 c 8.833,0, 16,7.146, 16,16c0,8.854-7.167,16-16,16L 16,287.312 
			c-8.833,0-16-7.146-16-16C0,262.458, 7.167,255.312, 16,255.312z M 48,319.312l 64,0 c 8.833,0, 16,7.146, 16,16c0,8.854-7.167,16-16,16L 48,351.312 
			c-8.833,0-16-7.146-16-16C 32,326.458, 39.167,319.312, 48,319.312z M 224,96c0-17.688, 14.312-32, 32-32s 32,14.312, 32,32s-32,64-32,64
			S 224,113.688, 224,96z M 352,32c0-17.688, 14.312-32, 32-32s 32,14.312, 32,32s-32,64-32,64S 352,49.688, 352,32z"  />
<glyph unicode="&#xe84f;" d="M 417.042,313.917c-23.979,24.542-57.125,38.771-91.73,38.771
			c-34.562,0-67.688-14.229-91.687-38.771c-52.812-2.459-95-46.188-95-99.584c0-54.958, 44.709-99.666, 99.688-99.666
			c 5.812,0, 11.604,0.5, 17.25,1.499c 20.75-13.541, 44.938-20.854, 69.749-20.854c 24.854,0, 49.063,7.313, 69.772,20.854
			c 5.707-0.999, 11.458-1.499, 17.291-1.499c 54.937,0, 99.625,44.708, 99.625,99.666C 512,267.729, 469.812,311.458, 417.042,313.917z
			 M 144,128L 16,128 c-8.833,0-16-7.167-16-16s 7.167-16, 16-16l 128,0 c 8.833,0, 16,7.167, 16,16S 152.833,128, 144,128z M 16,160l 64,0 
			c 8.833,0, 16,7.167, 16,16s-7.167,16-16,16L 16,192 c-8.833,0-16-7.167-16-16S 7.167,160, 16,160z M 48,224l 64,0 c 8.833,0, 16,7.167, 16,16
			s-7.167,16-16,16L 48,256 c-8.833,0-16-7.167-16-16S 39.167,224, 48,224z"  />
<glyph unicode="&#xe84e;" d="M 400,416c-5.312,0-10.562-0.375-15.792-1.125
			C 354.334,455.583, 307.188,480, 256,480s-98.312-24.417-128.208-65.125C 122.562,415.625, 117.312,416, 112,416C 50.25,416,0,365.75,0,304
			s 50.25-112, 112-112c 13.688,0, 27.084,2.5, 39.709,7.333C 180.666,174.083, 217.5,160, 256,160c 38.542,0, 75.333,14.083, 104.291,39.333
			C 372.916,194.5, 386.312,192, 400,192c 61.75,0, 112,50.25, 112,112S 461.75,416, 400,416z M 225,0c0-17.688, 14.312-32, 32-32
			s 32,14.312, 32,32s-32,64-32,64S 225,17.688, 225,0z M 352,32c0-17.688, 14.312-32, 32-32s 32,14.312, 32,32s-32,64-32,64
			S 352,49.688, 352,32z M 96,96c0-17.688, 14.312-32, 32-32s 32,14.312, 32,32s-32,64-32,64S 96,113.688, 96,96z"  />
<glyph unicode="&#xe84d;" d="M 400,384c-5.312,0-10.562-0.375-15.792-1.125
			C 354.334,423.583, 307.188,448, 256,448s-98.312-24.417-128.208-65.125C 122.562,383.625, 117.312,384, 112,384C 50.25,384,0,333.75,0,272
			c0-61.75, 50.25-112, 112-112c 13.688,0, 27.084,2.5, 39.709,7.333C 180.666,142.083, 217.5,128, 256,128
			c 38.542,0, 75.333,14.083, 104.291,39.333C 372.916,162.5, 386.312,160, 400,160c 61.75,0, 112,50.25, 112,112
			C 512,333.75, 461.75,384, 400,384z M 224,32c0-17.688, 14.312-32, 32-32s 32,14.312, 32,32s-32,64-32,64S 224,49.688, 224,32z"  />
<glyph unicode="&#xe84c;" d="M 400,416c-5.312,0-10.562-0.375-15.792-1.125C 354.334,455.583, 307.188,480, 256,480
	c-51.188,0-98.312-24.417-128.208-65.125C 122.562,415.625, 117.312,416, 112,416C 50.25,416,0,365.75,0,304s 50.25-112, 112-112
	c 13.688,0, 27.084,2.5, 39.709,7.333c 21.541-18.771, 47.416-31.291, 75.104-36.521L 192,128l 32-32l-32-96l 96,96l-32,32l 11,32.999
	c 34.458,2.438, 67.125,15.543, 93.291,38.334C 372.916,194.5, 386.312,192, 400,192c 61.75,0, 112,50.25, 112,112S 461.75,416, 400,416z"  />
<glyph unicode="&#xe84b;" d="M 400,320c-5.312,0-10.562-0.375-15.792-1.125
	C 354.334,359.583, 307.188,384, 256,384s-98.312-24.417-128.208-65.125C 122.562,319.625, 117.312,320, 112,320C 50.25,320,0,269.75,0,208
	c0-61.75, 50.25-112, 112-112c 13.688,0, 27.084,2.5, 39.709,7.333C 180.666,78.083, 217.5,64, 256,64
	c 38.542,0, 75.333,14.083, 104.291,39.333C 372.916,98.5, 386.312,96, 400,96c 61.75,0, 112,50.25, 112,112
	C 512,269.75, 461.75,320, 400,320z"  />
<glyph unicode="&#xe84a;" d="M 435.062,217.834c 4.875,3.625, 9.812,7.187, 14.229,11.604c 13.208,13.229, 23.271,29.333, 29.792,47.854
	c 2.083,5.792, 0.604,12.292-3.772,16.625c-4.354,4.375-10.812,5.854-16.623,3.792c-35.396-12.5-73.688-4-99.896,22.25
	c-26.249,26.25-34.791,64.521-22.249,99.896c 2.042,5.812, 0.583,12.271-3.792,16.646c-4.333,4.333-10.812,5.833-16.625,3.791
	c-18.542-6.583-34.625-16.625-47.834-29.833c-33.541-33.5-43.979-81-32.479-123.792c-43.25-5.521-82.125-28.5-108.021-63.792
	c-5.229,0.75-10.479,1.125-15.792,1.125c-61.75,0-112-50.249-112-112c0-61.75, 50.25-112, 112-112c 13.688,0, 27.084,2.501, 39.709,7.334
	C 180.665-17.916, 217.499-32, 255.999-32c 38.542,0, 75.333,14.084, 104.291,39.334c 12.625-4.833, 26.021-7.334, 39.709-7.334
	c 61.75,0, 112,50.25, 112,112C 512,161.438, 479.583,203.021, 435.062,217.834z M 290.916,387.833c 2.542,2.583, 5.271,4.979, 8.146,7.229
	c-2.25-35.979, 10.729-71.375, 37.104-97.729c 26.376-26.375, 61.771-39.333, 97.751-37.104c-13.792-17.584-32.792-28.521-53.126-33.188
	c-27.375,34.75-67.604,56.624-111.958,60.187C 256.562,321.187, 263.75,360.667, 290.916,387.833z"  />
<glyph unicode="&#xe849;" d="M 208,416c 8.833,0, 16,7.167, 16,16L 224,464 c0,8.833-7.167,16-16,16s-16-7.167-16-16l0-32 
			C 192,423.167, 199.167,416, 208,416z M 332.438,373.833l 22.625,22.625c 6.249,6.25, 6.249,16.375,0,22.625
			c-6.25,6.25-16.375,6.25-22.625,0l-22.625-22.625c-6.25-6.25-6.25-16.375,0-22.625
			C 316.062,367.583, 326.188,367.583, 332.438,373.833z M 16,256l 32,0 c 8.833,0, 16,7.167, 16,16s-7.167,16-16,16L 16,288 
			c-8.833,0-16-7.167-16-16S 7.167,256, 16,256z M 352,272c0-8.833, 7.167-16, 16-16l 32,0 c 8.833,0, 16,7.167, 16,16s-7.167,16-16,16l-32,0 
			C 359.167,288, 352,280.833, 352,272z M 83.541,373.833c 6.251-6.25, 16.376-6.25, 22.625,0c 6.251,6.25, 6.251,16.375,0,22.625
			L 83.541,419.083c-6.25,6.25-16.374,6.25-22.625,0c-6.25-6.25-6.25-16.375,0-22.625L 83.541,373.833z M 400,224
			c-5.312,0-10.562-0.375-15.792-1.125c-16.771,22.875-39.124,40.333-64.458,51.5C 318.459,335, 268.938,384, 208,384
			c-61.75,0-112-50.25-112-112c0-17.438, 4.334-33.75, 11.5-48.438C 47.875,221.125,0,172.188,0,112c0-61.75, 50.25-112, 112-112
			c 13.688,0, 27.084,2.5, 39.709,7.333C 180.666-17.917, 217.5-32, 256-32c 38.542,0, 75.333,14.083, 104.291,39.333
			C 372.916,2.5, 386.312,0, 400,0c 61.75,0, 112,50.25, 112,112S 461.75,224, 400,224z M 256,288c-45.938,0-88.5-19.812-118.375-53.25
			C 131.688,245.917, 128,258.458, 128,272c0,44.188, 35.812,80, 80,80c 39.812,0, 72.562-29.167, 78.708-67.25
			C 276.688,286.75, 266.459,288, 256,288z"  />
<glyph unicode="&#xe848;" d="M 248.082,216.068c-31.52,31.542-39.979,77.105-26.020,116.542
	c-15.25-5.395-29.668-13.833-41.854-26.020c-43.751-43.75-43.751-114.667,0-158.395c 43.729-43.73, 114.625-43.752, 158.374,0
	c 12.229,12.186, 20.646,26.604, 26.021,41.854C 325.188,176.090, 279.604,184.549, 248.082,216.068z"  />
<glyph unicode="&#xe847;" d="M 256,336c-61.75,0-112-50.25-112-112c0-61.749, 50.25-112, 112-112
			s 112,50.251, 112,112C 368,285.75, 317.75,336, 256,336z M 256,368c 8.833,0, 16,7.146, 16,16L 272,416 c0,8.833-7.167,16-16,16
			c-8.854,0-16-7.167-16-16l0-32 C 240,375.146, 247.146,368, 256,368z M 256,80c-8.854,0-16-7.167-16-16l0-32 c0-8.854, 7.146-16, 16-16
			c 8.833,0, 16,7.146, 16,16l0,32 C 272,72.833, 264.833,80, 256,80z M 380.417,325.833l 22.625,22.625c 6.25,6.25, 6.25,16.375,0,22.625
			c-6.251,6.25-16.375,6.25-22.625,0l-22.625-22.625c-6.251-6.25-6.251-16.375,0-22.625
			C 364.042,319.584, 374.166,319.584, 380.417,325.833z M 131.541,122.146l-22.623-22.625c-6.252-6.25-6.252-16.376,0-22.625
			c 6.249-6.25, 16.373-6.25, 22.623,0l 22.625,22.625c 6.251,6.291, 6.251,16.375,0,22.625
			C 147.917,128.396, 137.792,128.438, 131.541,122.146z M 112,224c0,8.833-7.167,16-16,16L 64,240 c-8.854,0-16-7.167-16-16
			c0-8.854, 7.146-16, 16-16l 32,0 C 104.833,208, 112,215.146, 112,224z M 448,240l-32,0 c-8.854,0-16-7.167-16-16c0-8.854, 7.146-16, 16-16l 32,0 
			c 8.833,0, 16,7.146, 16,16C 464,232.833, 456.833,240, 448,240z M 131.521,325.833c 6.249-6.25, 16.375-6.25, 22.625,0
			c 6.249,6.25, 6.249,16.375,0,22.625l-22.625,22.625c-6.25,6.25-16.376,6.25-22.625,0c-6.25-6.25-6.25-16.375,0-22.625
			L 131.521,325.833z M 380.459,122.188c-6.293,6.25-16.376,6.25-22.625,0c-6.25-6.249-6.293-16.375,0-22.625l 22.625-22.625
			c 6.249-6.249, 16.374-6.249, 22.625,0c 6.249,6.25, 6.249,16.376,0,22.625L 380.459,122.188z"  />
<glyph unicode="&#xe846;" d="M 192,96l 32-32l-32-96l 96,96l-32,32l 32,64L 192,96z M 512,345.167c0,49.146-40,89.124-89.167,89.124
			c-2.396,0-4.771-0.083-7.146-0.27C 392.562,462.854, 357.709,480, 320,480c-37.688,0-72.562-17.146-95.688-45.979
			c-2.375,0.187-4.771,0.27-7.188,0.27C 168,434.291, 128,394.312, 128,345.167c0-5.146, 0.688-10.125, 1.5-15.042
			c-0.542-0.708-1.188-1.354-1.708-2.083c-5.229,0.75-10.479,1.125-15.792,1.125c-61.75,0-112-50.25-112-112
			c0-61.751, 50.25-112, 112-112c 13.688,0, 27.084,2.499, 39.709,7.333c 1.104-0.959, 2.416-1.625, 3.541-2.562l 28.312,18.875
			c-9.438,6.688-18.25,14.125-25.625,23c-13-9.146-28.812-14.646-45.938-14.646c-44.188,0-80,35.791-80,80c0,44.167, 35.812,80, 80,80
			c 10.812,0, 21.062-2.209, 30.438-6.083c 0.562,1.083, 1.25,2, 1.812,3.042c 5.625,10.271, 12.562,19.667, 20.666,28.042
			c 23.084,23.896, 55.167,39, 91.084,39c 49.709,0, 92.334-28.667, 113.541-70.083c 5.646,2.333, 11.668,3.833, 17.875,4.833l 12.584,1.25
			c 12.334,0, 23.875-3.042, 34.312-8c 11.312-5.417, 21.021-13.375, 28.646-23.208c 10.5-13.521, 17.042-30.334, 17.042-48.792
			c0-44.209-35.812-80-80-80c-17.125,0-32.916,5.5-45.938,14.646c-14-16.875-32.438-29.562-53.146-37.562l-5.979-11.938l 18.25-18.25
			c 17.062,6.646, 33.021,16.188, 47.104,28.438c 12.625-4.834, 26.021-7.333, 39.709-7.333c 61.75,0, 112,50.249, 112,112
			c0,25.666-9.042,49.083-23.666,68C 502.916,301.042, 512,321.979, 512,345.167z M 465.562,307.542
			c-18.479,13.438-41,21.625-65.562,21.625c-5.312,0-10.562-0.375-15.792-1.125C 354.334,368.729, 307.188,393.167, 256,393.167
			c-34.125,0-66.312-11.062-92.938-30.354c 7.479,22.853, 28.729,39.478, 54.062,39.478c 7.75,0, 15.062-1.562, 21.75-4.333
			C 254.062,427.542, 284.5,448, 320,448s 65.958-20.458, 81.084-50.042c 6.729,2.771, 14.083,4.333, 21.749,4.333
			c 31.584,0, 57.167-25.583, 57.167-57.124C 480,330.667, 474.438,317.604, 465.562,307.542z"  />
<glyph unicode="&#xe845;" d="M 512,345.167c0,49.146-40,89.124-89.167,89.124c-2.396,0-4.771-0.083-7.146-0.27
	C 392.562,462.854, 357.709,480, 320,480c-37.688,0-72.562-17.146-95.688-45.979c-2.375,0.187-4.771,0.27-7.188,0.27
	C 168,434.291, 128,394.312, 128,345.167c0-5.146, 0.688-10.125, 1.5-15.042c-0.542-0.708-1.188-1.354-1.708-2.083
	c-5.229,0.75-10.479,1.125-15.792,1.125c-61.75,0-112-50.25-112-112c0-61.751, 50.25-112, 112-112c 13.688,0, 27.084,2.499, 39.709,7.333
	c 18.354-16, 40.104-26.938, 63.207-33.208L 192,64l 32-32l-32-64l 96,64l-32,32l 4.812,9.583c 36.75,1.125, 71.75,14.729, 99.479,38.917
	c 12.625-4.834, 26.021-7.333, 39.709-7.333c 61.75,0, 112,50.249, 112,112c0,25.666-9.042,49.083-23.666,68
	C 502.916,301.042, 512,321.979, 512,345.167z M 400,137.167c-17.125,0-32.916,5.5-45.938,14.646c-19-22.896-45.75-38.729-76.229-44.125
	l-23.771-2.312C 215.25,106, 181,124, 157.938,151.812c-13-9.146-28.812-14.646-45.938-14.646c-44.188,0-80,35.791-80,80
	c0,44.167, 35.812,80, 80,80c 10.812,0, 21.062-2.209, 30.438-6.083c 0.562,1.083, 1.25,2, 1.812,3.042
	c 5.625,10.271, 12.562,19.667, 20.666,28.042c 23.084,23.896, 55.167,39, 91.084,39c 49.709,0, 92.334-28.667, 113.541-70.083
	c 5.646,2.333, 11.668,3.833, 17.875,4.833l 12.584,1.25c 12.334,0, 23.875-3.042, 34.312-8c 11.312-5.417, 21.021-13.375, 28.646-23.208
	c 10.5-13.521, 17.042-30.334, 17.042-48.792C 480,172.958, 444.188,137.167, 400,137.167z M 465.562,307.542
	c-18.479,13.438-41,21.625-65.562,21.625c-5.312,0-10.562-0.375-15.792-1.125C 354.334,368.729, 307.188,393.167, 256,393.167
	c-34.125,0-66.312-11.062-92.938-30.354c 7.479,22.853, 28.729,39.478, 54.062,39.478c 7.75,0, 15.062-1.562, 21.75-4.333
	C 254.062,427.542, 284.5,448, 320,448s 65.958-20.458, 81.084-50.042c 6.729,2.771, 14.083,4.333, 21.749,4.333
	c 31.584,0, 57.167-25.583, 57.167-57.124C 480,330.667, 474.438,317.604, 465.562,307.542z"  />
<glyph unicode="&#xe844;" d="M 512,239.999c0,49.167-40,89.146-89.167,89.146c-2.396,0-4.771-0.104-7.146-0.291
	c-23.125,28.854-57.979,45.978-95.688,45.978c-37.688,0-72.562-17.124-95.688-45.979c-2.375,0.188-4.771,0.291-7.188,0.291
	C 168,329.145, 128,289.166, 128,239.999c0-5.146, 0.688-10.104, 1.5-15.042c-0.542-0.708-1.188-1.354-1.708-2.083
	c-5.229,0.75-10.479,1.125-15.792,1.125C 50.25,223.999,0,173.75,0,112c0-61.751, 50.25-112, 112-112c 13.688,0, 27.084,2.5, 39.709,7.333
	C 180.666-17.917, 217.5-32, 256-32c 38.542,0, 75.333,14.083, 104.291,39.333C 372.916,2.5, 386.312,0, 400,0
	c 61.75,0, 112,50.249, 112,112c0,25.688-9.042,49.083-23.666,67.999C 502.916,195.895, 512,216.832, 512,239.999z M 400,32
	c-17.125,0-32.916,5.499-45.938,14.666C 330.583,18.375, 295.624,0, 256,0c-39.625,0-74.584,18.375-98.062,46.666
	C 144.938,37.499, 129.126,32, 112,32c-44.188,0-80,35.812-80,80s 35.812,79.999, 80,79.999c 10.812,0, 21.062-2.188, 30.438-6.062
	c 0.562,1.062, 1.25,2, 1.812,3.021c 5.625,10.271, 12.562,19.688, 20.666,28.042C 188,240.916, 220.083,256, 256,256
	c 49.709,0, 92.334-28.666, 113.541-70.062c 5.646,2.312, 11.668,3.813, 17.875,4.812L 400,192c 12.334,0, 23.875-3.042, 34.312-8
	c 11.312-5.416, 21.021-13.374, 28.646-23.188c 10.5-13.521, 17.042-30.354, 17.042-48.812C 480,67.812, 444.188,32, 400,32z
	 M 465.562,202.375c-18.479,13.458-41,21.624-65.562,21.624c-5.312,0-10.562-0.375-15.792-1.125
	c-29.874,40.708-77.021,65.125-128.208,65.125c-34.125,0-66.312-11.042-92.938-30.334c 7.479,22.854, 28.729,39.479, 54.062,39.479
	c 7.75,0, 15.062-1.562, 21.75-4.332c 15.188,29.562, 45.625,50.020, 81.125,50.020s 65.958-20.457, 81.084-50.020
	c 6.729,2.77, 14.083,4.332, 21.749,4.332c 31.584,0, 57.167-25.583, 57.167-57.146C 480,225.52, 474.438,212.458, 465.562,202.375z"  />
<glyph unicode="&#xe843;" d="M 400,416c-5.312,0-10.562-0.375-15.792-1.125C 354.334,455.583, 307.188,480, 256,480
			s-98.312-24.417-128.208-65.125C 122.562,415.625, 117.312,416, 112,416C 50.25,416,0,365.75,0,304s 50.25-112, 112-112
			c 13.688,0, 27.084,2.5, 39.709,7.333C 180.666,174.083, 217.5,160, 256,160c 38.542,0, 75.333,14.083, 104.291,39.333
			C 372.916,194.5, 386.312,192, 400,192c 61.75,0, 112,50.25, 112,112S 461.75,416, 400,416z M 400,224c-9.709,0-19.209,1.75-28.25,5.208
			l-18,6.917l-14.5-12.667C 316,203.167, 286.438,192, 256,192s-60,11.167-83.25,31.458l-14.5,12.667l-18-6.917
			c-9-3.458-18.541-5.208-28.25-5.208c-44.125,0-80,35.896-80,80s 35.875,80, 80,80c 3.792,0, 7.5-0.271, 11.25-0.792l 18.958-2.75
			l 11.354,15.458C 177.875,429.021, 215.209,448, 256,448c 40.812,0, 78.125-18.958, 102.417-52.063l 11.375-15.479l 18.999,2.75
			C 392.5,383.729, 396.208,384, 400,384c 44.125,0, 80-35.896, 80-80S 444.125,224, 400,224z M 96,160c-17.688,0-32-14.312-32-32
			s 14.312-32, 32-32s 32,14.312, 32,32S 113.688,160, 96,160z M 256,128c-17.688,0-32-14.312-32-32s 14.312-32, 32-32s 32,14.312, 32,32
			S 273.688,128, 256,128z M 416,160c-17.688,0-32-14.312-32-32s 14.312-32, 32-32s 32,14.312, 32,32S 433.688,160, 416,160z M 352,32
			c-17.688,0-32-14.312-32-32s 14.312-32, 32-32s 32,14.312, 32,32S 369.688,32, 352,32z M 160,32c-17.688,0-32-14.312-32-32
			s 14.312-32, 32-32s 32,14.312, 32,32S 177.688,32, 160,32z"  />
<glyph unicode="&#xe842;" d="M 326.042,36.312l-18,10.376
			c 0.542,3.124, 0.958,6.311, 0.958,9.624c0,3.312-0.416,6.5-1,9.625l 18.042,10.396c 8.417,4.917, 11.291,15.729, 6.458,24.104
			c-4.876,8.479-15.667,11.375-24.125,6.5l-18.188-10.5c-4.876,4.146-10.375,7.396-16.5,9.604l0,20.896 
			c0,9.771-7.938,17.688-17.688,17.688s-17.666-7.917-17.666-17.688l0-20.875 c-6.126-2.188-11.646-5.479-16.521-9.625l-18.146,10.5
			c-8.479,4.875-19.292,2-24.167-6.479c-4.875-8.417-1.938-19.25, 6.5-24.126l 17.959-10.375c-0.584-3.146-0.959-6.334-0.959-9.646
			c0-3.313, 0.375-6.5, 0.959-9.624L 186,36.312c-8.459-4.875-11.375-15.75-6.5-24.188s 15.688-11.312, 24.125-6.438l 18.167,10.438
			c 4.874-4.125, 10.396-7.375, 16.542-9.562l0-20.938 c0-9.749, 7.916-17.624, 17.666-17.624s 17.688,7.875, 17.688,17.624l0,20.938 
			c 6.125,2.188, 11.688,5.438, 16.521,9.625l 18.167-10.5c 8.458-4.875, 19.249-2, 24.125,6.438
			C 337.375,20.562, 334.5,31.375, 326.042,36.312z M 256,38.625c-9.75,0-17.688,7.938-17.688,17.688s 7.938,17.646, 17.688,17.646
			s 17.667-7.896, 17.667-17.646S 265.75,38.625, 256,38.625z M 474.166,83.75l-12.083,3.208c-0.291,3.833-1.208,7.479-2.896,10.979
			l 8.771,8.771c 4.125,4.125, 4.104,10.792,0,14.854c-4.083,4.104-10.708,4.125-14.833,0l-8.791-8.75
			c-3.459,1.625-7.146,2.562-10.959,2.875l-3.209,12.062c-1.499,5.583-7.25,8.938-12.874,7.438
			c-5.604-1.521-8.875-7.271-7.417-12.875l 3.209-11.896c-1.584-1.084-3.084-2.292-4.5-3.667c-1.375-1.417-2.542-2.916-3.626-4.459
			l-11.896,3.209c-5.604,1.499-11.396-1.876-12.896-7.438c-1.499-5.625, 1.876-11.354, 7.417-12.875l 12-3.229
			c 0.334-3.771, 1.292-7.458, 2.979-10.959l-8.812-8.812c-4.083-4.104-4.062-10.729, 0.042-14.812
			c 4.083-4.083, 10.708-4.125, 14.792-0.042l 8.832,8.833c 3.459-1.707, 7.168-2.666, 11.001-2.957l 3.166-12.021
			c 1.542-5.604, 7.25-8.938, 12.876-7.438c 5.583,1.5, 8.957,7.249, 7.458,12.917l-3.209,11.896c 1.5,1.062, 3.042,2.25, 4.459,3.625
			c 1.375,1.396, 2.542,2.938, 3.624,4.479l 11.917-3.209c 5.604-1.5, 11.375,1.854, 12.854,7.417
			C 483.062,76.459, 479.75,82.208, 474.166,83.75z M 438.312,77.062c-4.125-4.125-10.771-4.104-14.875,0
			c-4.062,4.062-4.104,10.729,0,14.854c 4.104,4.083, 10.771,4.083, 14.875,0C 442.375,87.812, 442.375,81.125, 438.312,77.062z
			 M 118.938,137.5l-11.875-3.188c-1.104,1.5-2.25,3.021-3.646,4.438c-1.416,1.375-2.916,2.562-4.479,3.625l 3.188,11.938
			c 1.5,5.604-1.834,11.375-7.375,12.854c-5.625,1.5-11.375-1.834-12.875-7.417l-3.25-12.062c-3.812-0.312-7.458-1.25-10.938-2.896
			l-8.812,8.771c-4.125,4.125-10.75,4.104-14.834,0c-4.104-4.104-4.104-10.75,0-14.854l 8.771-8.771
			c-1.646-3.5-2.604-7.188-2.896-10.979l-12.042-3.208c-5.625-1.542-8.959-7.25-7.458-12.875c 1.521-5.583, 7.271-8.875, 12.896-7.417
			l 11.875,3.23c 1.062-1.604, 2.25-3.105, 3.688-4.501c 1.375-1.375, 2.875-2.604, 4.438-3.625l-3.188-11.896
			c-1.5-5.625, 1.834-11.417, 7.416-12.917c 5.626-1.5, 11.334,1.833, 12.834,7.438l 3.25,12c 3.812,0.312, 7.5,1.271, 11,2.938l 8.791-8.792
			c 4.084-4.124, 10.709-4.041, 14.834,0.042c 4.062,4.062, 4.125,10.708,0,14.812l-8.812,8.812c 1.688,3.46, 2.688,7.188, 2.938,11.001
			l 12.062,3.188c 5.562,1.521, 8.896,7.25, 7.396,12.875C 130.334,135.624, 124.584,138.958, 118.938,137.5z M 88.562,109.042
			c-4.104-4.104-10.75-4.104-14.875,0c-4.062,4.083-4.062,10.771,0,14.833c 4.125,4.083, 10.771,4.083, 14.875,0
			S 92.625,113.125, 88.562,109.042z M 512,304c0,61.75-50.25,112-112,112c-5.312,0-10.562-0.375-15.792-1.125
			C 354.334,455.583, 307.188,480, 256,480s-98.312-24.417-128.208-65.125C 122.562,415.625, 117.312,416, 112,416C 50.25,416,0,365.75,0,304
			s 50.25-112, 112-112c 13.688,0, 27.084,2.5, 39.709,7.333C 180.666,174.083, 217.5,160, 256,160c 38.542,0, 75.333,14.083, 104.291,39.333
			C 372.916,194.5, 386.312,192, 400,192C 461.75,192, 512,242.25, 512,304z M 354.062,238.667C 330.584,210.375, 295.624,192, 256,192
			c-39.625,0-74.584,18.375-98.062,46.667C 144.938,229.5, 129.125,224, 112,224c-44.188,0-80,35.812-80,80s 35.812,80, 80,80
			c 10.812,0, 21.062-2.208, 30.438-6.083C 163.667,419.333, 206.291,448, 256,448s 92.334-28.667, 113.541-70.083
			C 378.938,381.792, 389.209,384, 400,384c 44.188,0, 80-35.812, 80-80s-35.812-80-80-80C 382.875,224, 367.084,229.5, 354.062,238.667z"  />
<glyph unicode="&#xe841;" d="M 326.042,132.312l-18,10.375c 0.542,3.125, 0.958,6.312, 0.958,9.625c0,3.312-0.416,6.5-1,9.625
			l 18.042,10.396c 8.417,4.917, 11.291,15.729, 6.458,24.104c-4.876,8.479-15.667,11.375-24.125,6.5l-18.188-10.5
			c-4.877,4.146-10.375,7.396-16.5,9.604l0,20.896 c0,9.771-7.938,17.688-17.688,17.688s-17.666-7.917-17.666-17.688l0-20.875 
			c-6.126-2.188-11.646-5.479-16.521-9.625l-18.146,10.5c-8.479,4.875-19.292,2-24.167-6.479c-4.875-8.417-1.938-19.25, 6.5-24.126
			l 17.959-10.375c-0.584-3.146-0.959-6.334-0.959-9.646s 0.375-6.5, 0.959-9.623L 186,132.312c-8.459-4.875-11.375-15.75-6.5-24.188
			s 15.688-11.312, 24.125-6.438l 18.167,10.438c 4.874-4.125, 10.396-7.375, 16.542-9.562l0-20.938 c0-9.749, 7.916-17.624, 17.666-17.624
			s 17.688,7.875, 17.688,17.624l0,20.938 c 6.125,2.188, 11.688,5.438, 16.521,9.625l 18.167-10.5c 8.458-4.875, 19.249-2, 24.125,6.438
			C 337.375,116.562, 334.5,127.375, 326.042,132.312z M 256,134.625c-9.75,0-17.688,7.938-17.688,17.688s 7.938,17.646, 17.688,17.646
			s 17.667-7.896, 17.667-17.646S 265.75,134.625, 256,134.625z M 400,416c-5.312,0-10.562-0.375-15.792-1.125
			C 354.334,455.583, 307.188,480, 256,480c-51.188,0-98.312-24.417-128.208-65.125C 122.562,415.625, 117.312,416, 112,416
			C 50.25,416,0,365.75,0,304s 50.25-112, 112-112c 11.812,0, 23.334,2.208, 34.438,5.834c 1.062,5.082, 2.729,10.041, 5.375,14.645
			c 3.938,6.854, 9.562,12.312, 16,16.502c-3.312,3.229-6.938,6.104-9.875,9.688C 144.938,229.5, 129.125,224, 112,224
			c-44.188,0-80,35.812-80,80c0,44.188, 35.812,80, 80,80c 10.812,0, 21.062-2.208, 30.438-6.083C 163.667,419.333, 206.291,448, 256,448
			s 92.334-28.667, 113.541-70.083C 378.938,381.792, 389.209,384, 400,384c 44.188,0, 80-35.812, 80-80c0-44.188-35.812-80-80-80
			c-17.125,0-32.916,5.5-45.938,14.667c-2.938-3.583-6.604-6.459-9.896-9.688c 6.459-4.207, 12.125-9.688, 16.042-16.562
			c 2.708-4.646, 4.354-9.584, 5.416-14.583C 376.688,194.208, 388.188,192, 400,192c 61.75,0, 112,50.25, 112,112S 461.75,416, 400,416z"  />
<glyph unicode="&#xe840;" d="M 326.042,36.312l-18,10.376
			c 0.542,3.124, 0.958,6.311, 0.958,9.624c0,3.312-0.416,6.5-1,9.625l 18.042,10.396c 8.417,4.917, 11.291,15.729, 6.458,24.104
			c-4.876,8.479-15.667,11.375-24.125,6.5l-18.188-10.5c-4.876,4.146-10.375,7.396-16.5,9.604l0,20.896 
			c0,9.771-7.938,17.688-17.688,17.688s-17.666-7.917-17.666-17.688l0-20.875 c-6.126-2.188-11.646-5.479-16.521-9.625l-18.146,10.5
			c-8.479,4.875-19.292,2-24.167-6.479c-4.875-8.417-1.938-19.25, 6.5-24.126l 17.959-10.375c-0.584-3.146-0.959-6.334-0.959-9.646
			c0-3.313, 0.375-6.5, 0.959-9.624L 186,36.312c-8.459-4.875-11.375-15.75-6.5-24.188s 15.688-11.312, 24.125-6.438l 18.167,10.438
			c 4.874-4.125, 10.396-7.375, 16.542-9.562l0-20.938 c0-9.749, 7.916-17.624, 17.666-17.624s 17.688,7.875, 17.688,17.624l0,20.938 
			c 6.125,2.188, 11.688,5.438, 16.521,9.625l 18.167-10.5c 8.458-4.875, 19.249-2, 24.125,6.438
			C 337.375,20.562, 334.5,31.375, 326.042,36.312z M 256,38.625c-9.75,0-17.688,7.938-17.688,17.688s 7.938,17.646, 17.688,17.646
			s 17.667-7.896, 17.667-17.646S 265.75,38.625, 256,38.625z M 400,416c-5.312,0-10.562-0.375-15.792-1.125
			C 354.334,455.583, 307.188,480, 256,480s-98.312-24.417-128.208-65.125C 122.562,415.625, 117.312,416, 112,416C 50.25,416,0,365.75,0,304
			s 50.25-112, 112-112c 13.688,0, 27.084,2.5, 39.709,7.333C 180.666,174.083, 217.5,160, 256,160c 38.542,0, 75.333,14.083, 104.291,39.333
			C 372.916,194.5, 386.312,192, 400,192c 61.75,0, 112,50.25, 112,112S 461.75,416, 400,416z M 400,224c-17.125,0-32.916,5.5-45.938,14.667
			C 330.584,210.375, 295.624,192, 256,192c-39.625,0-74.584,18.375-98.062,46.667C 144.938,229.5, 129.125,224, 112,224
			c-44.188,0-80,35.812-80,80s 35.812,80, 80,80c 10.812,0, 21.062-2.208, 30.438-6.083C 163.667,419.333, 206.291,448, 256,448
			s 92.334-28.667, 113.541-70.083C 378.938,381.792, 389.209,384, 400,384c 44.188,0, 80-35.812, 80-80S 444.188,224, 400,224z"  />
<glyph unicode="&#xe83f;" d="M 417.042,409.208C 393.062,433.771, 359.917,448, 325.312,448
			c-34.562,0-67.688-14.229-91.665-38.792c-52.813-2.438-95.021-46.167-95.021-99.542c0-54.978, 44.709-99.708, 99.688-99.708
			c 5.834,0, 11.604,0.501, 17.271,1.5c 20.729-13.521, 44.917-20.833, 69.729-20.833c 24.854,0, 49.063,7.312, 69.772,20.833
			c 5.707-0.999, 11.458-1.5, 17.291-1.5c 54.938,0, 99.625,44.73, 99.625,99.708C 512,363.042, 469.812,406.792, 417.042,409.208z
			 M 412.375,241.958c-8.312,0-16.375,1.5-24,4.458c-17.5-15.25-39.75-23.792-63.063-23.792c-23.249,0-45.499,8.542-62.999,23.792
			c-7.625-2.959-15.75-4.458-24-4.458c-37.312,0-67.688,30.375-67.688,67.708c0,37.292, 30.375,67.667, 67.688,67.667
			c 3.188,0, 6.375-0.25, 9.521-0.688C 265.938,401.229, 294.375,416, 325.312,416c 30.938,0, 59.438-14.771, 77.501-39.354
			c 3.125,0.438, 6.312,0.688, 9.562,0.688c 37.312,0, 67.625-30.375, 67.625-67.667C 480,272.333, 449.688,241.958, 412.375,241.958z
			 M 144,223.312L 16,223.312 c-8.833,0-16-7.146-16-16c0-8.853, 7.167-16, 16-16l 128,0 c 8.833,0, 16,7.147, 16,16
			C 160,216.166, 152.833,223.312, 144,223.312z M 16,255.312l 64,0 c 8.833,0, 16,7.146, 16,16c0,8.854-7.167,16-16,16L 16,287.312 
			c-8.833,0-16-7.146-16-16C0,262.458, 7.167,255.312, 16,255.312z M 48,319.312l 64,0 c 8.833,0, 16,7.146, 16,16c0,8.854-7.167,16-16,16L 48,351.312 
			c-8.833,0-16-7.146-16-16C 32,326.458, 39.167,319.312, 48,319.312z M 224,96c0-17.688, 14.312-32, 32-32s 32,14.312, 32,32s-32,64-32,64
			S 224,113.688, 224,96z M 352,32c0-17.688, 14.312-32, 32-32s 32,14.312, 32,32s-32,64-32,64S 352,49.688, 352,32z"  />
<glyph unicode="&#xe83e;" d="M 417.042,313.917c-23.979,24.542-57.125,38.771-91.73,38.771
			c-34.562,0-67.688-14.229-91.665-38.771c-52.813-2.459-95.021-46.188-95.021-99.584c0-54.958, 44.709-99.666, 99.688-99.666
			c 5.834,0, 11.604,0.5, 17.271,1.499c 20.729-13.541, 44.917-20.854, 69.729-20.854c 24.854,0, 49.063,7.313, 69.772,20.854
			c 5.707-0.999, 11.458-1.499, 17.291-1.499c 54.937,0, 99.625,44.708, 99.625,99.666C 512,267.729, 469.812,311.458, 417.042,313.917z
			 M 412.375,146.667c-8.312,0-16.375,1.499-24,4.417c-17.5-15.25-39.75-23.772-63.063-23.772c-23.249,0-45.499,8.522-62.999,23.772
			c-7.625-2.918-15.75-4.417-24-4.417c-37.312,0-67.688,30.375-67.688,67.666c0,37.313, 30.375,67.688, 67.688,67.688
			c 3.188,0, 6.375-0.229, 9.521-0.688c 18.104,24.583, 46.541,39.354, 77.478,39.354c 30.938,0, 59.438-14.771, 77.501-39.354
			c 3.125,0.458, 6.312,0.688, 9.562,0.688c 37.312,0, 67.625-30.375, 67.625-67.688C 480,177.042, 449.688,146.667, 412.375,146.667z
			 M 144,128L 16,128 c-8.833,0-16-7.167-16-16s 7.167-16, 16-16l 128,0 c 8.833,0, 16,7.167, 16,16S 152.833,128, 144,128z M 16,160l 64,0 
			c 8.833,0, 16,7.167, 16,16s-7.167,16-16,16L 16,192 c-8.833,0-16-7.167-16-16S 7.167,160, 16,160z M 48,224l 64,0 c 8.833,0, 16,7.167, 16,16
			s-7.167,16-16,16L 48,256 c-8.833,0-16-7.167-16-16S 39.167,224, 48,224z"  />
<glyph unicode="&#xe83d;" d="M 400,416c-5.312,0-10.562-0.375-15.792-1.125
			C 354.334,455.583, 307.188,480, 256,480s-98.312-24.417-128.208-65.125C 122.562,415.625, 117.312,416, 112,416C 50.25,416,0,365.75,0,304
			s 50.25-112, 112-112c 13.688,0, 27.084,2.5, 39.709,7.333C 180.666,174.083, 217.5,160, 256,160c 38.542,0, 75.333,14.083, 104.291,39.333
			C 372.916,194.5, 386.312,192, 400,192c 61.75,0, 112,50.25, 112,112S 461.75,416, 400,416z M 400,224c-17.125,0-32.916,5.5-45.938,14.667
			C 330.584,210.375, 295.624,192, 256,192c-39.625,0-74.584,18.375-98.062,46.667C 144.938,229.5, 129.125,224, 112,224
			c-44.188,0-80,35.812-80,80s 35.812,80, 80,80c 10.812,0, 21.062-2.208, 30.438-6.083C 163.667,419.333, 206.291,448, 256,448
			s 92.334-28.667, 113.541-70.083C 378.938,381.792, 389.209,384, 400,384c 44.188,0, 80-35.812, 80-80S 444.188,224, 400,224z M 225,0
			c0-17.688, 14.312-32, 32-32s 32,14.312, 32,32s-32,64-32,64S 225,17.688, 225,0z M 352,32c0-17.688, 14.312-32, 32-32s 32,14.312, 32,32
			s-32,64-32,64S 352,49.688, 352,32z M 96,96c0-17.688, 14.312-32, 32-32s 32,14.312, 32,32s-32,64-32,64S 96,113.688, 96,96z"  />
<glyph unicode="&#xe83c;" d="M 400,384c-5.312,0-10.562-0.375-15.792-1.125
			C 354.334,423.583, 307.188,448, 256,448s-98.312-24.417-128.208-65.125C 122.562,383.625, 117.312,384, 112,384C 50.25,384,0,333.75,0,272
			c0-61.75, 50.25-112, 112-112c 13.688,0, 27.084,2.5, 39.709,7.333C 180.666,142.083, 217.5,128, 256,128
			c 38.542,0, 75.333,14.083, 104.291,39.333C 372.916,162.5, 386.312,160, 400,160c 61.75,0, 112,50.25, 112,112
			C 512,333.75, 461.75,384, 400,384z M 400,192c-17.125,0-32.916,5.5-45.938,14.667C 330.584,178.375, 295.624,160, 256,160
			c-39.625,0-74.584,18.375-98.062,46.667C 144.938,197.5, 129.125,192, 112,192c-44.188,0-80,35.812-80,80s 35.812,80, 80,80
			c 10.812,0, 21.062-2.208, 30.438-6.083C 163.667,387.333, 206.291,416, 256,416s 92.334-28.667, 113.541-70.083
			C 378.938,349.792, 389.209,352, 400,352c 44.188,0, 80-35.812, 80-80S 444.188,192, 400,192z M 224,32c0-17.688, 14.312-32, 32-32
			s 32,14.312, 32,32s-32,64-32,64S 224,49.688, 224,32z"  />
<glyph unicode="&#xe83b;" d="M 400,416c-5.312,0-10.562-0.375-15.792-1.125C 354.334,455.583, 307.188,480, 256,480
			c-51.188,0-98.312-24.417-128.208-65.125C 122.562,415.625, 117.312,416, 112,416C 50.25,416,0,365.75,0,304s 50.25-112, 112-112
			c 13.688,0, 27.084,2.5, 39.709,7.333c 12.291-10.708, 26.25-18.958, 40.916-25.416l 24.916,24.874
			c-23.458,7.626-44.166,21.271-59.604,39.876C 144.938,229.5, 129.125,224, 112,224c-44.188,0-80,35.812-80,80s 35.812,80, 80,80
			c 10.812,0, 21.062-2.208, 30.438-6.083C 163.667,419.333, 206.291,448, 256,448s 92.334-28.667, 113.541-70.083
			C 378.938,381.792, 389.209,384, 400,384c 44.188,0, 80-35.812, 80-80s-35.812-80-80-80c-17.125,0-32.916,5.5-45.938,14.667
			c-10.375-12.521-23.312-22.667-37.625-30.584L 303,167.75c 20.875,6.562, 40.5,16.938, 57.291,31.583
			C 372.916,194.5, 386.312,192, 400,192c 61.75,0, 112,50.25, 112,112S 461.75,416, 400,416z M 192,128l 32-32l-32-96l 96,96l-32,32l 32,96
			L 192,128z"  />
<glyph unicode="&#xe83a;" d="M 400,416c-5.312,0-10.562-0.375-15.792-1.125C 354.334,455.583, 307.188,480, 256,480
	c-51.188,0-98.312-24.417-128.208-65.125C 122.562,415.625, 117.312,416, 112,416C 50.25,416,0,365.75,0,304s 50.25-112, 112-112
	c 13.688,0, 27.084,2.5, 39.709,7.333c 21.541-18.771, 47.416-31.291, 75.104-36.521L 192,128l 32-32l-32-96l 96,96l-32,32l 11,32.999
	c 34.458,2.438, 67.125,15.543, 93.291,38.334C 372.916,194.5, 386.312,192, 400,192c 61.75,0, 112,50.25, 112,112S 461.75,416, 400,416z
	 M 400,224c-17.125,0-32.916,5.5-45.938,14.667c-18.938-22.833-45.562-38.625-75.875-44.104L 256,192
	c-39.625,0-74.584,18.375-98.062,46.667C 144.938,229.5, 129.125,224, 112,224c-44.188,0-80,35.812-80,80s 35.812,80, 80,80
	c 10.812,0, 21.062-2.208, 30.438-6.083C 163.667,419.333, 206.291,448, 256,448s 92.334-28.667, 113.541-70.083
	C 378.938,381.792, 389.209,384, 400,384c 44.188,0, 80-35.812, 80-80S 444.188,224, 400,224z"  />
<glyph unicode="&#xe839;" d="M 400,320c-5.312,0-10.562-0.375-15.792-1.125
	C 354.334,359.583, 307.188,384, 256,384s-98.312-24.417-128.208-65.125C 122.562,319.625, 117.312,320, 112,320C 50.25,320,0,269.75,0,208
	c0-61.75, 50.25-112, 112-112c 13.688,0, 27.084,2.5, 39.709,7.333C 180.666,78.083, 217.5,64, 256,64
	c 38.542,0, 75.333,14.083, 104.291,39.333C 372.916,98.5, 386.312,96, 400,96c 61.75,0, 112,50.25, 112,112
	C 512,269.75, 461.75,320, 400,320z M 400,128c-17.125,0-32.916,5.5-45.938,14.667C 330.584,114.376, 295.624,96, 256,96
	c-39.625,0-74.584,18.376-98.062,46.667C 144.938,133.5, 129.125,128, 112,128c-44.188,0-80,35.812-80,80s 35.812,80, 80,80
	c 10.812,0, 21.062-2.208, 30.438-6.083C 163.667,323.333, 206.291,352, 256,352s 92.334-28.667, 113.541-70.083
	C 378.938,285.792, 389.209,288, 400,288c 44.188,0, 80-35.812, 80-80S 444.188,128, 400,128z"  />
<glyph unicode="&#xe838;" d="M 112,320l 288,0 c 8.833,0, 16,7.167, 16,16s-7.167,16-16,16L 112,352 c-8.833,0-16-7.167-16-16S 103.167,320, 112,320z
			 M 400,288L 112,288 c-8.833,0-16-7.167-16-16s 7.167-16, 16-16l 288,0 c 8.833,0, 16,7.167, 16,16S 408.833,288, 400,288z M 400,224L 112,224 
			c-8.833,0-16-7.167-16-16s 7.167-16, 16-16l 288,0 c 8.833,0, 16,7.167, 16,16S 408.833,224, 400,224z M 400,160L 112,160 c-8.833,0-16-7.167-16-16
			s 7.167-16, 16-16l 288,0 c 8.833,0, 16,7.167, 16,16S 408.833,160, 400,160z"  />
<glyph unicode="&#xe837;" d="M 33.604,224C 32.562,229.167, 32,234.521, 32,240
			c0,44.188, 35.812,80, 80,80c 10.812,0, 21.062-2.208, 30.438-6.083C 163.667,355.333, 206.291,384, 256,384s 92.334-28.667, 113.541-70.083
			C 378.938,317.792, 389.209,320, 400,320c 44.188,0, 80-35.812, 80-80c0-5.479-0.562-10.833-1.625-16l 32,0 
			c 0.792,5.271, 1.625,10.521, 1.625,16c0,61.75-50.25,112-112,112c-5.312,0-10.562-0.375-15.792-1.125
			C 354.334,391.583, 307.188,416, 256,416s-98.312-24.417-128.208-65.125C 122.562,351.625, 117.312,352, 112,352C 50.25,352,0,301.75,0,240
			c0-5.479, 0.854-10.729, 1.625-16L 33.604,224 z M 496,192L 16,192 c-8.833,0-16-7.167-16-16s 7.167-16, 16-16l 480,0 c 8.833,0, 16,7.167, 16,16
			S 504.833,192, 496,192z M 496,128L 16,128 c-8.833,0-16-7.167-16-16s 7.167-16, 16-16l 480,0 c 8.833,0, 16,7.167, 16,16S 504.833,128, 496,128z
			 M 496,64L 16,64 c-8.833,0-16-7.167-16-16s 7.167-16, 16-16l 480,0 c 8.833,0, 16,7.167, 16,16S 504.833,64, 496,64z"  />
<glyph unicode="&#xe836;" d="M 64,160.999l 384,0 c 8.833,0, 16,7.167, 16,16s-7.167,16-16,16L 64,192.999 c-8.833,0-16-7.167-16-16
			S 55.167,160.999, 64,160.999z M 448,128.999L 64,128.999 c-8.833,0-16-7.167-16-16s 7.167-16, 16-16l 384,0 c 8.833,0, 16,7.167, 16,16
			S 456.833,128.999, 448,128.999z M 448,64.999L 64,64.999 c-8.833,0-16-7.167-16-16s 7.167-16, 16-16l 384,0 c 8.833,0, 16,7.167, 16,16
			S 456.833,64.999, 448,64.999z M 205.042,225c-0.333,0.333-0.751,0.542-1.083,0.875c-37.438,37.438-37.438,98.334,0,135.792
			c 2.562,2.542, 5.27,4.958, 8.146,7.208c-2.251-35.958, 10.729-71.375, 37.104-97.729c 26.374-26.396, 61.79-39.333, 97.749-37.083
			c-2.667-3.396-5.874-6.125-8.896-9.062l 41.521,0 c 5.042,8.042, 9.25,16.75, 12.583,26.063c 2.021,5.854, 0.542,12.333-3.833,16.667
			c-4.291,4.354-10.792,5.854-16.624,3.791c-35.376-12.499-73.646-3.979-99.875,22.25c-26.251,26.25-34.792,64.521-22.251,99.896
			c 2.083,5.812, 0.583,12.271-3.791,16.646c-4.334,4.354-10.813,5.833-16.625,3.771c-18.521-6.542-34.625-16.604-47.833-29.792
			C 138.125,341.083, 132.479,274.521, 164.062,225L 205.042,225 z"  />
<glyph unicode="&#xe835;" d="M 256,385c 8.833,0, 16,7.167, 16,16L 272,433 c0,8.833-7.167,16-16,16s-16-7.167-16-16l0-32 
			C 240,392.167, 247.167,385, 256,385z M 380.438,342.833l 22.625,22.625c 6.249,6.25, 6.249,16.375,0,22.625
			c-6.25,6.25-16.375,6.25-22.625,0l-22.625-22.625c-6.25-6.25-6.25-16.375,0-22.625S 374.188,336.583, 380.438,342.833z M 64,225l 32,0 
			c 8.833,0, 16,7.167, 16,16s-7.167,16-16,16L 64,257 c-8.833,0-16-7.167-16-16S 55.167,225, 64,225z M 400,241c0-8.833, 7.167-16, 16-16l 32,0 
			c 8.833,0, 16,7.167, 16,16s-7.167,16-16,16l-32,0 C 407.167,257, 400,249.833, 400,241z M 131.541,342.833c 6.251-6.25, 16.376-6.25, 22.625,0
			c 6.251,6.25, 6.251,16.375,0,22.625l-22.625,22.625c-6.25,6.25-16.374,6.25-22.625,0c-6.25-6.25-6.25-16.375,0-22.625
			L 131.541,342.833z M 145.625,225l 32,0 c-1.062,5.167-1.625,10.521-1.625,16c0,44.188, 35.812,80, 80,80c 44.188,0, 80-35.812, 80-80
			c0-5.479-0.562-10.833-1.625-16l 32,0 c 0.792,5.271, 1.625,10.521, 1.625,16c0,61.75-50.25,112-112,112s-112-50.25-112-112
			C 144,235.521, 144.875,230.271, 145.625,225z M 448,193L 64,193 c-8.833,0-16-7.167-16-16s 7.167-16, 16-16l 384,0 c 8.833,0, 16,7.167, 16,16
			S 456.833,193, 448,193z M 448,129L 64,129 c-8.833,0-16-7.167-16-16s 7.167-16, 16-16l 384,0 c 8.833,0, 16,7.167, 16,16S 456.833,129, 448,129z
			 M 448,65L 64,65 c-8.833,0-16-7.167-16-16s 7.167-16, 16-16l 384,0 c 8.833,0, 16,7.167, 16,16S 456.833,65, 448,65z"  />
<glyph unicode="&#xe834;" d="M 435.062,217.834c 4.875,3.625, 9.812,7.188, 14.229,11.604c 13.208,13.229, 23.271,29.333, 29.792,47.854
	c 2.083,5.792, 0.604,12.292-3.772,16.625c-4.354,4.375-10.812,5.854-16.623,3.792c-35.396-12.5-73.688-4-99.896,22.25
	C 332.542,346.21, 324,384.48, 336.542,419.855c 2.042,5.813, 0.583,12.271-3.792,16.646c-4.333,4.333-10.812,5.834-16.625,3.791
	C 297.583,433.71, 281.5,423.669, 268.291,410.46c-33.541-33.5-43.979-81-32.479-123.792c-43.25-5.521-82.125-28.5-108.021-63.793
	c-5.229,0.75-10.479,1.125-15.792,1.125c-61.75,0-112-50.25-112-112.001c0-61.749, 50.25-111.999, 112-111.999
	c 13.688,0, 27.084,2.5, 39.709,7.334C 180.665-17.916, 217.499-32, 255.999-32c 38.542,0, 75.333,14.084, 104.291,39.334
	C 372.915,2.5, 386.311,0, 399.999,0c 61.75,0, 112,50.25, 112,111.999C 512,161.438, 479.583,203.021, 435.062,217.834z
	 M 290.916,387.834c 2.542,2.583, 5.271,4.979, 8.146,7.229c-2.25-35.979, 10.729-71.375, 37.104-97.729
	c 26.376-26.375, 61.771-39.333, 97.751-37.104c-13.792-17.584-32.792-28.521-53.126-33.188
	c-27.375,34.75-67.604,56.625-111.958,60.187C 256.562,321.188, 263.75,360.667, 290.916,387.834z M 400,32
	c-17.125,0-32.916,5.5-45.938,14.667C 330.583,18.375, 295.624,0, 256,0c-39.625,0-74.584,18.375-98.062,46.667
	C 144.938,37.5, 129.126,32, 112,32c-44.188,0-80,35.812-80,79.999c0,44.188, 35.812,80, 80,80c 10.812,0, 21.062-2.188, 30.438-6.062
	c 20.188,39.355, 59.75,66.896, 106.312,69.543c 2.438,0.145, 4.812,0.521, 7.25,0.521c 12.916,0, 25.312-2.021, 37-5.583
	c 15.791-4.834, 30.188-12.708, 42.688-22.854c 11.938-9.688, 21.938-21.562, 29.812-34.896c 1.333-2.25, 2.834-4.375, 4.041-6.729
	c 9.396,3.875, 19.668,6.062, 30.459,6.062c 44.188,0, 80-35.812, 80-80S 444.188,32, 400,32z"  />
<glyph unicode="&#xe833;" d="M 208,416c 8.833,0, 16,7.167, 16,16L 224,464 c0,8.833-7.167,16-16,16s-16-7.167-16-16l0-32 
			C 192,423.167, 199.167,416, 208,416z M 332.438,373.833l 22.625,22.625c 6.249,6.25, 6.249,16.375,0,22.625
			c-6.25,6.25-16.375,6.25-22.625,0l-22.625-22.625c-6.25-6.25-6.25-16.375,0-22.625
			C 316.062,367.583, 326.188,367.583, 332.438,373.833z M 16,256l 32,0 c 8.833,0, 16,7.167, 16,16s-7.167,16-16,16L 16,288 
			c-8.833,0-16-7.167-16-16S 7.167,256, 16,256z M 352,272c0-8.833, 7.167-16, 16-16l 32,0 c 8.833,0, 16,7.167, 16,16s-7.167,16-16,16l-32,0 
			C 359.167,288, 352,280.833, 352,272z M 83.541,373.833c 6.251-6.25, 16.376-6.25, 22.625,0c 6.251,6.25, 6.251,16.375,0,22.625
			L 83.541,419.083c-6.25,6.25-16.374,6.25-22.625,0c-6.25-6.25-6.25-16.375,0-22.625L 83.541,373.833z M 400,224
			c-5.312,0-10.562-0.375-15.792-1.125c-16.771,22.875-39.124,40.333-64.458,51.5C 318.459,335, 268.938,384, 208,384
			c-61.75,0-112-50.25-112-112c0-17.438, 4.334-33.75, 11.5-48.438C 47.875,221.125,0,172.188,0,112c0-61.75, 50.25-112, 112-112
			c 13.688,0, 27.084,2.5, 39.709,7.333C 180.666-17.917, 217.5-32, 256-32c 38.542,0, 75.333,14.083, 104.291,39.333
			C 372.916,2.5, 386.312,0, 400,0c 61.75,0, 112,50.25, 112,112S 461.75,224, 400,224z M 208,352c 39.812,0, 72.562-29.167, 78.708-67.25
			c-10.021,2-20.249,3.25-30.708,3.25c-45.938,0-88.5-19.812-118.375-53.25C 131.688,245.917, 128,258.458, 128,272
			C 128,316.188, 163.812,352, 208,352z M 400,32c-17.125,0-32.916,5.5-45.938,14.667C 330.584,18.375, 295.624,0, 256,0
			c-39.625,0-74.584,18.375-98.062,46.667C 144.938,37.5, 129.125,32, 112,32c-44.188,0-80,35.812-80,80s 35.812,80, 80,80
			c 7.75,0, 15.062-1.458, 22.125-3.541c 2.812-0.792, 5.667-1.417, 8.312-2.521c 4.375,8.562, 9.875,16.396, 15.979,23.75
			C 181.792,237.812, 216.562,256, 256,256c 10.125,0, 19.834-1.458, 29.25-3.709c 10.562-2.499, 20.542-6.291, 29.834-11.291
			c 23.291-12.375, 42.416-31.542, 54.457-55.063C 378.938,189.812, 389.209,192, 400,192c 44.188,0, 80-35.812, 80-80S 444.188,32, 400,32z"  />
<glyph unicode="&#xe832;" d="M 382.872,187.75l-32.625,18.834c 1.042,5.666, 1.75,11.458, 1.75,17.416c0,5.979-0.708,11.792-1.792,17.458
	l 32.625,18.854c 15.333,8.875, 20.542,28.438, 11.729,43.688c-8.854,15.312-28.375,20.562-43.688,11.75l-32.938-19.021
	c-8.812,7.5-18.854,13.417-29.938,17.354L 287.995,352 c0,17.667-14.312,32-32,32c-17.666,0-32-14.333-32-32l0-37.896 
	c-11.083-3.938-21.125-9.855-29.937-17.354l-32.876,18.979c-15.312,8.833-34.896,3.604-43.749-11.708
	c-8.813-15.292-3.562-34.854, 11.749-43.688l 32.563-18.813c-1.062-5.688-1.751-11.521-1.751-17.521
	c0-5.958, 0.688-11.771, 1.751-17.438l-32.584-18.812c-15.334-8.834-20.584-28.438-11.729-43.75
	c 8.811-15.25, 28.395-20.5, 43.729-11.688l 32.833,18.979c 8.813-7.5, 18.875-13.458, 30-17.417L 223.994,96 c0-17.688, 14.334-32, 32-32
	c 17.688,0, 32,14.312, 32,32l0,37.917 c 11.125,3.958, 21.188,9.875, 29.958,17.395l 32.917-18.999c 15.312-8.812, 34.876-3.562, 43.688,11.688
	C 403.414,159.312, 398.185,178.875, 382.872,187.75z M 223.997,224c0,17.667, 14.312,32, 32,32c 17.667,0, 32-14.333, 32-32
	c0-17.666-14.333-32-32-32C 238.31,192, 223.997,206.334, 223.997,224z"  />
<glyph unicode="&#xe831;" d="M 431,288c-26.5,0-48-21.5-48-48c0-5.646, 1.167-10.958, 2.938-16L 79,224 c-8.833,0-16-7.167-16-16s 7.167-16, 16-16
			l 352,0 c 26.5,0, 48,21.5, 48,48S 457.5,288, 431,288z M 79,256l 192,0 c 26.5,0, 48,21.5, 48,48s-21.5,48-48,48s-48-21.5-48-48
			c0-5.646, 1.167-10.958, 2.938-16L 79,288 c-8.833,0-16-7.167-16-16S 70.167,256, 79,256z M 335,160c-0.938,0-1.834-0.208-2.791-0.291
			c-0.625,0.041-1.146,0.291-1.771,0.291L 83.584,160 C 72.209,160, 63,152.833, 63,144s 9.209-16, 20.584-16l 206.354,0 
			c-1.771-5.042-2.938-10.376-2.938-16c0-26.5, 21.5-48, 48-48s 48,21.5, 48,48S 361.5,160, 335,160z"  />
<glyph unicode="&#xe830;" d="M 495,257l-81.625,0 C 405.312,328.792, 344.938,385, 271,385c-49.812,0-93.75-25.458-119.625-64L 47,321 
	c-8.833,0-16-7.167-16-16s 7.167-16, 16-16l 88.833,0 c-3.624-10.208-5.979-20.896-7.208-32L 79,257 c-8.833,0-16-7.167-16-16s 7.167-16, 16-16
	l 49.625,0 c 1.229-11.084, 3.584-21.812, 7.208-32L 49.916,193 C 39.459,193, 31,185.833, 31,177s 8.459-16, 18.916-16l 101.459,0 
	c 25.875-38.562, 69.812-64, 119.625-64c 49.812,0, 93.75,25.438, 119.624,64l 37.46,0 c 10.457,0, 18.916,7.167, 18.916,16s-8.459,16-18.916,16
	l-21.917,0 c 3.624,10.188, 5.958,20.916, 7.208,32L 495,225 c 8.833,0, 16,7.167, 16,16S 503.833,257, 495,257z M 170.229,289L 271,289 
	c 8.833,0, 16,7.167, 16,16s-7.167,16-16,16l-78.146,0 c 20.209,19.729, 47.729,32, 78.146,32c 56.291,0, 102.542-41.875, 110.375-96l-220.75,0 
	C 162.25,268.312, 165.459,279.042, 170.229,289z M 271,129c-30.417,0-57.938,12.291-78.146,32l 156.271,0 
	C 328.938,141.291, 301.417,129, 271,129z M 371.75,193L 170.229,193 c-4.77,9.958-7.979,20.688-9.604,32l 220.75,0 
	C 379.75,213.688, 376.541,202.958, 371.75,193z"  />
<glyph unicode="&#xe82f;" d="M 271,353c 8.833,0, 16,7.167, 16,16L 287,401 c0,8.833-7.167,16-16,16s-16-7.167-16-16l0-32 
			C 255,360.167, 262.167,353, 271,353z M 271,65c-8.833,0-16-7.167-16-16l0-32 c0-8.833, 7.167-16, 16-16s 16,7.167, 16,16l0,32 
			C 287,57.833, 279.833,65, 271,65z M 146.562,107.166l-22.625-22.625c-6.25-6.249-6.25-16.374,0-22.624s 16.375-6.25, 22.625,0
			l 22.625,22.624c 6.25,6.271, 6.25,16.376,0,22.625C 162.938,113.417, 152.812,113.438, 146.562,107.166z M 127,209
			c0,8.833-7.167,16-16,16L 79,225 c-8.833,0-16-7.167-16-16s 7.167-16, 16-16l 32,0 C 119.833,193, 127,200.167, 127,209z M 146.541,310.833
			c 6.251-6.25, 16.376-6.25, 22.625,0c 6.251,6.25, 6.251,16.375,0,22.625l-22.625,22.625c-6.25,6.25-16.374,6.25-22.625,0
			c-6.25-6.25-6.25-16.375,0-22.625L 146.541,310.833z M 335,321c-11.188,0-21.812-2.167-32-5.208
			c-10.188,3.042-20.812,5.208-32,5.208c-61.75,0-112-50.25-112-112s 50.25-112, 112-112c 11.188,0, 21.812,2.166, 32,5.209
			c 10.188-3.043, 20.812-5.209, 32-5.209c 61.75,0, 112,50.25, 112,112S 396.75,321, 335,321z M 255.229,130.583
			C 218.583,137.916, 191,170.209, 191,209c0,38.792, 27.583,71.083, 64.229,78.417C 235.334,267.188, 223,239.542, 223,209
			S 235.334,150.812, 255.229,130.583z"  />
<glyph unicode="&#xe82e;" d="M 349.852,136.85c-49.876-49.916-131.083-49.916-181,0c-49.916,49.917-49.916,131.125,0,181.021
	c 13.209,13.187, 29.312,23.25, 47.832,29.812c 5.834,2.042, 12.293,0.562, 16.625-3.792c 4.376-4.375, 5.855-10.833, 3.793-16.625
	c-12.542-35.375-4-73.666, 22.249-99.917c 26.209-26.228, 64.501-34.75, 99.917-22.25c 5.792,2.062, 12.271,0.583, 16.625-3.792
	c 4.376-4.333, 5.834-10.812, 3.771-16.625C 373.143,166.162, 363.060,150.059, 349.852,136.85z M 191.477,295.246
	c-37.438-37.438-37.438-98.354,0-135.771c 40-40.021, 108.125-36.417, 143,8.167c-35.959-2.25-71.375,10.729-97.75,37.084
	c-26.375,26.354-39.333,61.771-37.084,97.729C 196.769,300.204, 194.039,297.808, 191.477,295.246z"  />
<glyph unicode="&#xe82d;" d="M 256,336c-61.75,0-112-50.25-112-112c0-61.75, 50.25-112, 112-112
			s 112,50.25, 112,112C 368,285.75, 317.75,336, 256,336z M 256,144c-44.188,0-80,35.812-80,80s 35.812,80, 80,80s 80-35.812, 80-80
			S 300.188,144, 256,144z M 256,368c 8.833,0, 16,7.167, 16,16L 272,416 c0,8.833-7.167,16-16,16s-16-7.167-16-16l0-32 
			C 240,375.167, 247.167,368, 256,368z M 256,80c-8.833,0-16-7.167-16-16l0-32 c0-8.833, 7.167-16, 16-16s 16,7.167, 16,16l0,32 
			C 272,72.833, 264.833,80, 256,80z M 380.438,325.833l 22.625,22.625c 6.25,6.25, 6.25,16.375,0,22.625
			c-6.25,6.25-16.375,6.25-22.625,0l-22.625-22.625c-6.25-6.25-6.25-16.375,0-22.625
			C 364.062,319.583, 374.188,319.583, 380.438,325.833z M 131.562,122.166l-22.625-22.625c-6.25-6.249-6.25-16.374,0-22.624
			s 16.375-6.25, 22.625,0l 22.625,22.624c 6.25,6.271, 6.25,16.376,0,22.625C 147.938,128.417, 137.812,128.438, 131.562,122.166z M 112,224
			c0,8.833-7.167,16-16,16L 64,240 c-8.833,0-16-7.167-16-16s 7.167-16, 16-16l 32,0 C 104.833,208, 112,215.167, 112,224z M 448,240l-32,0 
			c-8.833,0-16-7.167-16-16s 7.167-16, 16-16l 32,0 c 8.833,0, 16,7.167, 16,16S 456.833,240, 448,240z M 131.541,325.833
			c 6.251-6.25, 16.376-6.25, 22.625,0c 6.251,6.25, 6.251,16.375,0,22.625l-22.625,22.625c-6.25,6.25-16.374,6.25-22.625,0
			c-6.25-6.25-6.25-16.375,0-22.625L 131.541,325.833z M 380.459,122.188c-6.271,6.25-16.376,6.25-22.625,0
			c-6.251-6.25-6.271-16.375,0-22.625l 22.625-22.625c 6.249-6.25, 16.374-6.25, 22.624,0s 6.25,16.374,0,22.625L 380.459,122.188z"  />
<glyph unicode="&#xe82c;" d="M 177.615,192c 7.438,36.521, 39.688,64, 78.396,64
			c 38.709,0, 70.958-27.479, 78.376-64l 32,0 c-7.834,54.125-54.084,96-110.376,96c-56.271,0-102.541-41.875-110.375-96L 177.615,192 z
			 M 256.011,320c 8.833,0, 16,7.167, 16,16l0,32 c0,8.833-7.167,16-16,16c-8.832,0-16-7.167-16-16l0-32 
			C 240.011,327.167, 247.179,320, 256.011,320z M 403.073,323.083c-6.249,6.25-16.374,6.25-22.625,0l-22.625-22.625
			c-6.249-6.25-6.249-16.375,0-22.625c 6.251-6.25, 16.376-6.25, 22.625,0l 22.625,22.625
			C 409.323,306.708, 409.323,316.833, 403.073,323.083z M 154.177,300.458l-22.625,22.625c-6.249,6.25-16.373,6.25-22.625,0
			c-6.249-6.25-6.249-16.375,0-22.625l 22.625-22.625c 6.252-6.25, 16.376-6.25, 22.625,0
			C 160.429,284.083, 160.429,294.208, 154.177,300.458z M 352.011,160l-192,0 c-8.832,0-16-7.167-16-16s 7.168-16, 16-16l 192,0 
			c 8.833,0, 16,7.167, 16,16S 360.844,160, 352.011,160z M 320.011,96l-128,0 c-8.832,0-16-7.167-16-16s 7.168-16, 16-16l 128,0 
			c 8.833,0, 16,7.167, 16,16S 328.844,96, 320.011,96z"  />
<glyph unicode="&#xe85a;" d="M 208.531,302.729c-3.604,3.396-7.791,6.084-12.541,8.062c-4.812,1.938-9.938,2.938-15.375,2.938
			c-5.459,0-10.584-1-15.375-2.938c-4.75-1.979-8.938-4.667-12.542-8.062c-3.583-3.416-6.396-7.416-8.459-12.041
			c-2.042-4.605-3.062-9.479-3.062-14.584c0-5.125, 1.020-10, 3.062-14.604c 2.063-4.604, 4.876-8.625, 8.459-12.021
			c 3.604-3.416, 7.792-6.125, 12.542-8.062c 4.791-1.979, 9.916-2.958, 15.375-2.958c 5.438,0, 10.562,0.979, 15.375,2.958
			c 4.75,1.938, 8.938,4.646, 12.541,8.062c 3.584,3.396, 6.396,7.417, 8.416,12.021c 2.042,4.604, 3.105,9.479, 3.105,14.604
			c0,5.104-1.063,9.979-3.105,14.584C 214.927,295.313, 212.115,299.313, 208.531,302.729z M 193.177,264.063
			c-3.438-3.417-7.625-5.126-12.562-5.126s-9.125,1.709-12.562,5.126c-3.396,3.416-5.125,7.416-5.125,12.041
			c0,4.75, 1.729,8.833, 5.125,12.146c 3.438,3.333, 7.625,4.979, 12.562,4.979s 9.125-1.646, 12.562-4.979
			c 3.374-3.312, 5.104-7.396, 5.104-12.146C 198.281,271.479, 196.551,267.479, 193.177,264.063z M 370.822,279.167l0,31.5 L 249.24,310.667 l0-176.396 
			l 35.063,0 l0,71.938 l 73.979,0 l0,31.479 l-73.979,0 l0,41.479 L 370.822,279.167 z"  />
<glyph unicode="&#x20;" horiz-adv-x="256" />
</font>
</defs>
</svg>
