<?xml version="1.0" standalone="no"?>
<!DOCTYPE svg PUBLIC "-//W3C//DTD SVG 1.1//EN" "http://www.w3.org/Graphics/SVG/1.1/DTD/svg11.dtd" >
<svg xmlns="http://www.w3.org/2000/svg">
<metadata>
This is a custom SVG font generated by IcoMoon.
<iconset grid="16"></iconset>
</metadata>
<defs>
<font id="iconic" horiz-adv-x="512" >
<font-face units-per-em="512" ascent="480" descent="-32" />
<missing-glyph horiz-adv-x="512" />
<glyph class="hidden" unicode="&#xf000;" d="M0,480L 512 -32L0 -32 z" horiz-adv-x="0" />
<glyph unicode="&#xe000;" d="M 383.936,288L 383.936,352 C 383.936,440.368, 320,480, 256,480L 127.936,480 C 64,480,0,446,0,352c0-92, 64-128, 127.936-128l 14.88,0 
	C 133.888,206.672, 128.176,186.080, 128,161.088l0-66.336 C 128.672,24.656, 185.728-32, 256-32c0,35.376, 28.688,64, 64,64l 63.936,0 C 448,32, 512,68, 512,160
	C 512,254, 448,288, 383.936,288z M 127.936,288C 64,288, 64,336.192, 64,352c0,19.184,0,64, 63.936,64L 256,416 c 23.936,0, 64-8.32, 64-64l0-64 
	c0-20.912-10.064-39.536-25.744-51.216C 270.88,267.872, 233.744,288, 192,288L 127.936,288 z M 383.936,96L 320,96 c-41.808,0-79.008-20.128-102.368-51.184
	C 202.064,56.496, 192,75.12, 192,96l0,64 c0,29.28, 14.56,47.056, 29.056,56.192C 241.568,205.504, 256,184.688, 256,160c 47.296,0, 88.096,25.92, 110.304,64.032
	L 383.936,224C 448,224, 448,179.152, 448,160C 448,144.16, 448,96, 383.936,96z"  />
<glyph unicode="&#xe001;" d="M 415.632,284.592c-0.432-22.192-5.376-43.12-14.128-62.224C 447.632,214.688, 448,177.12, 448,160
				c0-15.872,0-64-63.936-64L 320,96 c-41.68,0-79.008-20.128-102.368-51.248C 202.128,56.496, 192,75.12, 192,96l0,64 c0,12.624, 2.256,22.624, 5.744,30.848
				C 195.872,191.184, 194,192, 192,192L 131.248,192 c-2.064-9.904-3.184-20.496-3.184-32l0-64 c0-70.688, 57.248-128, 127.936-128c0,35.376, 28.624,64, 64,64l 64.064,0 
				C 448,32, 512,68, 512,160C 512,238.288, 467.504,274.56, 415.632,284.592zM 256,416c 23.872,0, 64-8.32, 64-64l0-64 c0-20.944-10.128-39.536-25.632-51.216C 271.008,267.84, 233.744,288, 192,288L 128.064,288 
			C 64,288, 64,336.16, 64,352c0,19.12,0,64, 64.064,64L 256,416  M 256,480L 128.064,480 C 64,480,0,446,0,352c0-92, 64-128, 128.064-128L 192,224 c 35.376,0, 64-28.688, 64-64
			c 70.688,0, 128.064,57.312, 128.064,128L 384.064,352 C 384.064,440.336, 320,480, 256,480L 256,480z"  />
<glyph unicode="&#xe002;" d="M 256,160c 70.688,0, 127.936,57.312, 127.936,128L 383.936,352 C 383.936,440.336, 320,480, 256,480L 127.936,480 C 64,480,0,446,0,352c0-92, 64-128, 127.936-128L 192,224 
		C 227.312,224, 256,195.312, 256,160zM 415.68,284.592C 413.808,198, 343.008,128, 256,128l-32,0 l0,32 c0,17.664-14.368,32-32,32L 131.184,192 
		C 129.264,182.448, 128.080,172.224, 128,161.184l0-66.416 C 128.672,24.656, 185.728-32, 256-32c0,35.376, 28.688,64, 64,64l 63.936,0 C 448,32, 512,68, 512,160
		C 512,238.288, 467.44,274.56, 415.68,284.592z"  />
<glyph unicode="&#xe003;" d="M 256.032,352C 433.184,352, 448,285.936, 448,224c0-21.504-5.68-44.88-11.936-64l-212,0 c-75.248,0-107.808-3.12-144-28.128
			c-15.008,41.12-24.624,96.752-6.064,141.44C 95.616,325.504, 156.864,352, 256.032,352 M 256.032,416C-101.904,416, 0.176,96, 64.096,32c 64,64, 64,64, 159.936,64l 254.96,0 
			c0,0, 33.008,64, 33.008,128C 512,384, 384.048,416, 256.032,416L 256.032,416z"  />
<glyph unicode="&#xe004;" d="M 479.008,96c0,0, 33.008,64, 33.008,128C 512,384, 384.048,416, 256.032,416C-101.904,416, 0.176,96, 64.096,32c 64,64, 64,64, 159.936,64
				L 479.008,96 z"  />
<glyph unicode="&#xe005;" d="M 320,384c 70.624,0, 128-57.376, 128-128s-57.376-128-128-128l-128,0 c-41.744,0-78.944-20.128-102.32-51.248C 74.128,88.496, 64,107.12, 64,128
		L 64,288 c0,52.944, 43.12,96, 96,96L 320,384  M 320,448L 160,448 C 71.632,448,0,376.368,0,288l0-160 c0-70.688, 57.376-128, 128-128c0,35.376, 28.688,64, 64,64l 128,0 c 106.064,0, 192,86, 192,192
		S 426.064,448, 320,448L 320,448z"  />
<glyph unicode="&#xe006;" d="M0,128c0-70.688, 57.376-128, 128-128c0,35.376, 28.688,64, 64,64l 128,0 c 106.064,0, 192,86, 192,192S 426.064,448, 320,448L 160,448 
			C 71.632,448,0,376.368,0,288L0,128 z"  />
<glyph unicode="&#xe007;" d="M 224,480C 100.32,480,0,379.68,0,256c0-61.312, 24.752-116.752, 64.688-157.248L 65.056-32l 106.192,70.944
	C 188.256,34.752, 205.744,32, 224,32c 123.68,0, 224,100.32, 224,224C 448,379.68, 347.68,480, 224,480z M 224,96c-11.312,0-23.568,1.68-37.44,5.056l-27.248,6.752
	l-30.688-20.32l 0.192,37.376l-18.56,18.816C 80.432,173.936, 64,213.808, 64,256C 64,344.256, 135.744,416, 224,416c 88.256,0, 160-71.744, 160-160
	C 384,167.744, 312.256,96, 224,96z" horiz-adv-x="448"  />
<glyph unicode="&#xe008;" d="M 224,480C 100.32,480,0,379.68,0,256c0-61.312, 24.752-116.752, 64.688-157.248L 64-32l 107.248,70.944
			C 188.256,34.752, 205.744,32, 224,32c 123.68,0, 224,100.32, 224,224S 347.68,480, 224,480z" horiz-adv-x="448"  />
<glyph unicode="&#xe009;" d="M 96,288L0,192L 192,0L 512,320L 416,416L 192,192 z"  />
<glyph unicode="&#xe00a;" d="M 256,480C 114.624,480,0,365.376,0,224s 114.624-256, 256-256s 256,114.624, 256,256S 397.376,480, 256,480z M 216.32,105.872
		L 98.528,223.68l 45.248,45.248l 72.528-72.56l 153.872,153.872l 45.248-45.248L 216.32,105.872z"  />
<glyph unicode="&#xe00b;" d="M 480,89.632L 345.504,224L 480,358.368L 390.368,448L 256,313.568L 121.568,448L 32,358.368L 166.368,224L 32,89.632L 121.568,0L 256,134.432L 390.368,0 		z"  />
<glyph unicode="&#xe00c;" d="M 256,480C 114.624,480,0,365.376,0,224s 114.624-256, 256-256s 256,114.624, 256,256S 397.376,480, 256,480z M 382.624,142.624
		l-45.248-45.248L 256,178.752l-81.376-81.376l-45.248,45.248L 210.752,224l-81.376,81.376l 45.248,45.248L 256,269.248l 81.376,81.376l 45.248-45.248
		L 301.248,224L 382.624,142.624z"  />
<glyph unicode="&#xe00d;" d="M 256,480C 114.624,480,0,365.376,0,224s 114.624-256, 256-256s 256,114.624, 256,256S 397.376,480, 256,480z M 256,416
		c 41.44,0, 79.568-13.504, 110.944-35.872L 99.808,113.12C 77.44,144.496, 64,182.624, 64,224C 64,329.872, 150.128,416, 256,416z M 256,32
		c-41.44,0-79.568,13.504-110.944,35.872L 412.192,334.88C 434.56,303.504, 448,265.376, 448,224C 448,118.128, 361.872,32, 256,32z"  />
<glyph unicode="&#xe00e;" d="M 512,32L 288,256L 384,352L0,480L 128,96.064L 224,192.064L 448-32 	z"  />
<glyph unicode="&#xe00f;" d="M0,32A64,64 1620 1 1 128,32A64,64 1620 1 1 0,32zM 96,480l0-64 c 194.368,0, 352-157.616, 352-352l 64,0 C 512,293.728, 325.712,480, 96,480zM 96.368,351.872C 96.24,351.872, 96.128,351.856, 96,351.856l0-64 c 0.128,0, 0.24,0.016, 0.368,0.016
		c 123.664,0, 223.936-100.24, 224-223.872l 64,0 C 384.304,222.992, 255.376,351.872, 96.368,351.872zM 96.368,223.872c-0.128,0-0.24-0.016-0.368-0.016l0-64 c 0.128,0, 0.24,0.016, 0.368,0.016
		c 52.976,0, 95.936-42.928, 96-95.872l 64,0 C 256.304,152.304, 184.688,223.872, 96.368,223.872z"  />
<glyph unicode="&#xe010;" d="M 512-32l-73.12,0 C 438.88,210, 242,406.848,0,406.848L0,480 C 282.256,480, 512,250.32, 512-32L 512-32zM 365.68-32l-73.12,0 c0,161.312-131.312,292.56-292.56,292.56L0,333.712 C 201.632,333.712, 365.68,169.632, 365.68-32
			L 365.68-32zM 219.44-32L 146.256-32 c0,80.688-65.568,146.256-146.256,146.256l0,73.184 C 120.992,187.44, 219.44,88.992, 219.44-32
			L 219.44-32zM 73.12-32c0,40.368-32.688,73.12-73.12,73.12L0-32 L 73.12-32 z"  />
<glyph unicode="&#xe011;" d="M 505.712,389.712l-80.368-80.368l-84,0 L 341.344,394.656 l 79.376,79.344C 408.976,477.536, 396.848,480, 383.968,480
		C 313.312,480, 256,422.656, 256,352c0-19.712, 4.816-38.16, 12.816-54.88L 12.496,40.88C 4.816,33.12,0,22.496,0,10.624C0-12.88, 19.056-32, 42.688-32
		c 11.808,0, 22.496,4.752, 30.128,12.496l 256.368,256.288C 345.84,228.848, 364.336,224, 383.968,224c 70.752,0, 128,57.344, 128,128
		C 511.968,365.216, 509.472,377.712, 505.712,389.712z" horiz-adv-x="511"  />
<glyph unicode="&#xe012;" d="M 193.038,224A64.346,64.346 1620 1 1 321.729,224A64.346,64.346 1620 1 1 193.038,224zM 459.349,383.578c-5.534-4.552-12.258-7.593-19.979-7.593c-17.727,0-32.173,14.413-32.173,32.35
			c0,7.818, 3.137,14.783, 7.786,20.478c-35.696,27.669-78.92,46.297-126.054,52.201C 287.288,464.702, 274.097,451.817, 257.383,451.817
			s-30.098,13.030-31.546,29.567C 178.077,475.19, 134.595,456.224, 98.594,427.558c 4.086-5.437, 6.982-11.872, 6.982-19.207c0-17.936-14.333-32.35-32.173-32.35
			c-7.158,0-13.577,2.783-18.918,6.837C 20.864,339.115,0,284.919,0,225.383c0-142.896, 115.243-258.767, 257.383-258.767s 257.383,115.871, 257.383,258.767
			C 514.767,285.482, 493.661,339.919, 459.349,383.578z M 257.383,96.692c-71.070,0-128.692,57.622-128.692,128.692c0,35.567, 14.397,67.676, 37.707,90.985L 257.383,407.354l 90.856-90.856
			C 371.63,293.188, 386.075,260.951, 386.075,225.383C 386.075,154.249, 328.453,96.692, 257.383,96.692z" horiz-adv-x="514"  />
<glyph unicode="&#xe013;" d="M 512,192.496l0,64 l-76.496,31.872c-2.128,6-4.368,11.808-7.12,17.504l 30.88,76.88L 414,428
		l-76.192-31.376c-5.808,2.816-11.744,5.184-17.872,7.376L 287.504,480l-64,0 l-31.632-75.744c-6.368-2.256-12.496-4.624-18.56-7.504l-76.064,30.56
		L 52,382.064l 31.008-75.376C 80,300.496, 77.568,294.192, 75.248,287.68L0,255.504l0-64 l 75.312-31.376c 2.32-6.496, 4.816-12.816, 7.808-19.008
		l-30.432-75.872l 45.248-45.248l 75.568,31.12c 6.064-2.88, 12.256-5.184, 18.624-7.376L 224.496-32l 64,0 l 31.68,76.128
		c 6.064,2.256, 12.064,4.624, 17.808,7.376l 76.752-30.752l 45.248,45.248l-31.504,76.368c 2.688,5.744, 4.88,11.568, 7.008,17.504L 512,192.496z
		 M 255.504,128c-52.992,0-96,43.008-96,96s 43.008,96, 96,96s 96-43.008, 96-96S 308.496,128, 255.504,128z"  />
<glyph unicode="&#xe014;" d="M 384,416L 384,480L 320,480L 320,416L 192,416L 192,480L 128,480L 128,416L0,416L0,352L 512,352L 512,416 	zM 64,160L 448,160L 448,96L 64,96zM 64,288L 448,288L 448,224L 64,224zM 64-32L 384-32L 448,32L 64,32 	z"  />
<glyph unicode="&#xe015;" d="M 512-32L0-32L0,416L 64,416L 64,32L 448,32L 448,416L 512,416 		zM 96,288L 160,288L 160,224L 96,224zM 224,288L 288,288L 288,224L 224,224zM 352,288L 416,288L 416,224L 352,224zM 96,160L 160,160L 160,96L 96,96zM 224,160L 288,160L 288,96L 224,96zM 352,96L 352,160L 416,160 		zM 128,384L 128,448 c0,17.68, 14.32,32, 32,32s 32-14.32, 32-32l0-64 c0-17.68-14.32-32-32-32S 128,366.32, 128,384zM 320,384L 320,448 c0,17.68, 14.32,32, 32,32s 32-14.32, 32-32l0-64 c0-17.68-14.32-32-32-32S 320,366.32, 320,384z"  />
<glyph unicode="&#xe016;" d="M 416,416l0-32.752 c0-35.376-28.624-64-64-64s-64,28.624-64,64L 288,416 l-64,0 l0-32.752 c0-35.376-28.624-64-64-64s-64,28.624-64,64L 96,416 L0,416 l0-448 l 512,0 L 512,416 
			L 416,416 z M 160,32L 96,32 l0,64 l 64,0 L 160,32 z M 160,160L 96,160 l0,64 l 64,0 L 160,160 z M 288,32l-64,0 l0,64 l 64,0 L 288,32 z M 288,160l-64,0 l0,64 l 64,0 L 288,160 z M 352,32l0,64 l 64,0 L 352,32z M 416,160l-64,0 l0,64 l 64,0 L 416,160 zM 128,384L 128,448 c0,17.68, 14.32,32, 32,32s 32-14.32, 32-32l0-64 c0-17.68-14.32-32-32-32S 128,366.32, 128,384zM 320,384L 320,448 c0,17.68, 14.32,32, 32,32s 32-14.32, 32-32l0-64 c0-17.68-14.32-32-32-32S 320,366.32, 320,384z"  />
<glyph unicode="&#xe017;" d="M 447.968,96c-15.504,0-29.248-6.256-40.368-15.44l-97.536,69.632C 316.256,162.944, 320,176.944, 320,192
		c0,20.688-6.752,39.808-17.872,55.44l 114.096,114.192C 425.712,356.064, 436.224,352, 447.968,352c 35.376,0, 64,28.624, 64,64s-28.624,64-64,64s-64-28.624-64-64
		c0-11.808, 4.128-22.256, 9.632-31.744l-114.096-114.192C 263.744,281.312, 244.752,288, 224,288c-36.624,0-68.128-20.816-84.32-51.056l-77.056,25.744
		C 59.504,277.056, 47.312,288, 32,288c-17.68,0-32-14.32-32-32s 14.32-32, 32-32c 8.064,0, 15.248,3.248, 20.88,8.192l 76.624-25.568
		C 128.752,201.808, 128,196.992, 128,192c0-52.992, 43.008-96, 96-96c 26.368,0, 50.32,10.688, 67.68,27.936l 96.912-69.184
		c-2.752-7.12-4.624-14.688-4.624-22.752c0-35.312, 28.624-64, 64-64s 64,28.688, 64,64S 483.344,96, 447.968,96z" horiz-adv-x="511"  />
<glyph unicode="&#xe018;" d="M 255.936,232.688L 512,353.312L 512,416L0,416L0,353.504 		zM 256.064,161.936L0,282.88L0,32L 512,32L 512,282.496 		z"  />
<glyph unicode="&#xe019;" d="M 369.808,384c 39.312,0, 71.872-29.12, 77.376-67.008L 256.064,97.504L 64.816,316.992C 70.32,354.88, 102.88,384, 142.192,384
			c 32.256,0, 61.68-34.624, 61.68-34.624L 256,294l 52.128,55.376C 308.128,349.376, 337.568,384, 369.808,384 M 369.808,448
			c-47.744,0-88-25.248-113.808-61.504C 230.192,422.752, 189.936,448, 142.192,448C 63.744,448,0,384.128,0,305.744l0-11.744 L 256.128,0L 512,294l0,11.744 
			C 512,384.128, 448.256,448, 369.808,448L 369.808,448z"  />
<glyph unicode="&#xe01a;" d="M 256,386.496C 230.192,422.752, 189.936,448, 142.192,448C 63.744,448,0,384.128,0,305.744l0-11.744 L 256.128,0L 512,294l0,11.744 
				C 512,384.128, 448.256,448, 369.808,448C 322.064,448, 281.808,422.752, 256,386.496z"  />
<glyph unicode="&#xe01b;" d="M 447.632,352l-63.184,0 L 448,415.744L 385.184,480l-89.056,0 l 63.808-63.744L 294.56,352l-75.568,0 l 64.944,63.744L 219.744,480L 129.248,480 
		l 63.744-63.744L 127.632,352L 63.504,352 l 64.992,63.744L 64.256,480L0,480 l0-512 l 512,0 L 512,480 l-62.752,0 L 512,416L 447.632,352z M 448,32L 64,32 l0,64 l 384,0 L 448,32 z M 448,160L 64,160 l0,64 l 384,0 L 448,160 z"  />
<glyph unicode="&#xe01c;" d="M 224,480L0,480 l0-512 l 384,0 L 384,320.032 L 224,480z M 64,32L 64,416 l 128,0 l0-128 l 128,0 l0-256 L 64,32 z" horiz-adv-x="384"  />
<glyph unicode="&#xe01d;" d="M 224,480L0,480 l0-512 l 384,0 L 384,320.032 L 224,480z M 190.688,288L 190.688,416 l 128-128L 190.688,288 z" horiz-adv-x="384"  />
<glyph unicode="&#xe01e;" d="M 352.256,480L0,480 l0-511.008 l 128.816,105.248L 257.12-32l 128.192,106.128L 512-31.744L 512,320 L 352.256,480z M 448.32,96.992
		l-63.248,51.632l-127.936-105.872l-127.68,105.744l-65.376-51.504c0,0,0,277.744,0,320c 33.632,0, 124.944,0, 192.128,0l0-192 L 448.32,224.992 
		C 448.32,181.312, 448.32,96.992, 448.32,96.992z M 320.256,288.992c0,24.688,0,94.624,0,128c 25.872-25.872, 102.432-102.368, 128.064-128
		C 415.568,288.992, 345.12,288.992, 320.256,288.992z"  />
<glyph unicode="&#xe01f;" d="M 345.744,480L0,480 l0-512 l 127.632,106.256L 255.872-32l 128.064,106.128L 512-32L 512,315.184 L 345.744,480z M 288,256L 288,416 l 160-160L 288,256 z"  />
<glyph unicode="&#xe020;" d="M 512,288L 320,288L 320,480L 192,480L 192,288L0,288L0,160L 192,160L 192-32L 320-32L 320,160L 512,160 	z"  />
<glyph unicode="&#xe021;" d="M 256,480C 114.624,480,0,365.376,0,224s 114.624-256, 256-256s 256,114.624, 256,256S 397.376,480, 256,480z M 384,192l-96,0 l0-96 l-64,0 l0,96 L 128,192 l0,64 l 96,0 
		L 224,352 l 64,0 l0-96 l 96,0 L 384,192 z"  />
<glyph unicode="&#xe022;" d="M0,288L 512,288L 512,160L0,160z"  />
<glyph unicode="&#xe023;" d="M 256,480C 114.624,480,0,365.376,0,224s 114.624-256, 256-256s 256,114.624, 256,256S 397.376,480, 256,480z M 384,192L 128,192 l0,64 l 256,0 L 384,192 z"  />
<glyph unicode="&#xe024;" d="M 512,352c0,70.656-57.376,128-128,128c-47.744,0-88.992-26.528-111.008-65.376c0,0.032, 0.064,0.064, 0.064,0.096
		c-5.872,0.56-11.568,1.776-17.568,1.776c-106.064,0-192-85.936-192-192c0-40.432, 12.624-77.872, 33.936-108.752L0-32l 148.624,96.992
		c 30.56-20.496, 67.312-32.496, 106.88-32.496c 106.064,0, 192,85.936, 192,192c0,5.536-1.12,10.72-1.632,16.128C 485.12,262.496, 512,303.904, 512,352z
		 M 255.504,96.496c-70.624,0-128,57.376-128,128c0,70.592, 57.376,128, 128,128c 0.192,0, 0.368-0.064, 0.496-0.064c0,0.128, 0.064,0.224, 0.064,0.32
		C 256.064,352.496, 256,352.256, 256,352c0-11.12, 1.872-21.68, 4.496-31.968l-50.752-50.784c-24.992-24.992-24.992-65.504,0-90.496s 65.504-24.992, 90.496,0
		l 50.256,50.256c 10.56-2.88, 21.504-4.88, 32.944-4.944C 383.184,153.632, 325.936,96.496, 255.504,96.496z M 384,288c-35.248,0-64,28.72-64,64
		s 28.752,64, 64,64s 64-28.72, 64-64S 419.248,288, 384,288z"  />
<glyph unicode="&#xe025;" d="M 502.624,470.624c-12.496,12.496-32.944,12.496-45.44,0l-65.12-65.184C 365.376,423.184, 334.752,432, 304,432
			c-40.944,0-81.872-15.632-113.12-46.88l-96-96c-54.752-54.688-61.504-139.248-20.368-201.312l-65.12-65.184c-12.496-12.496-12.496-32.752,0-45.248
			C 15.632-28.88, 23.808-32, 32-32s 16.368,3.12, 22.624,9.376l 65.12,65.184C 146.432,24.816, 177.248,16, 208,16c 40.944,0, 81.872,15.632, 113.12,46.88
			l 95.808,96c 54.752,54.688, 61.504,139.248, 20.368,201.312l 65.312,65.184C 515.12,437.872, 515.12,458.128, 502.624,470.624z M 399.808,272
			c0-25.632-10-49.744-28.128-67.872l-95.808-96C 257.744,90, 233.632,80, 208,80c-14.496,0-28.368,3.568-41.12,9.632l 47.744,47.744
			c 12.496,12.496, 12.496,32.752,0,45.248s-32.752,12.496-45.248,0L 121.632,134.88C 115.504,147.568, 112,161.44, 112,176c0,25.632, 10,49.744, 28.128,67.872
			l 96,96C 254.256,358, 278.368,368, 304,368c 14.496,0, 28.32-3.568, 41.056-9.632l-48.688-48.752c-12.496-12.496-12.496-32.752,0-45.248
			c 6.256-6.256, 14.432-9.376, 22.624-9.376c 8.128,0, 16.32,3.12, 22.56,9.376l 48.624,48.752C 396.32,300.432, 399.808,286.56, 399.808,272z"  />
<glyph unicode="&#xe026;" d="M 512,480L 128,224L 224,160L0-32L 384,160L 288,224 	z"  />
<glyph unicode="&#xe027;" d="M 288,160L 288,64L 352,64L 256-32L 160,64L 224,64L 224,160 		zM 224,288L 224,384L 160,384L 256,480L 352,384L 288,384L 288,288 		zM 192,192L 96,192L 96,128L0,224L 96,320L 96,256L 192,256 		zM 320,256L 416,256L 416,320L 512,224L 416,128L 416,192L 320,192 		z"  />
<glyph unicode="&#xe028;" d="M 256,128L 288,160L 288,64L 352,64L 256-32L 160,64L 224,64L 224,160 		zM 256,319.008L 224,288L 224,384L 160,384L 256,480L 352,384L 288,384L 288,288 		zM 160,224L 192,192L 96,192L 96,128L0,224L 96,320L 96,256L 192,256 		zM 351.008,224L 320,256L 416,256L 416,320L 512,224L 416,128L 416,192L 320,192 		z"  />
<glyph unicode="&#xe029;" d="M 256,480C 114.624,480,0,365.376,0,224s 114.624-256, 256-256s 256,114.624, 256,256S 397.376,480, 256,480z M 352,160l0,32 l-64,0 l0-64 l 32,0 l-64-64
		l-64,64l 32,0 l0,64 l-64,0 l0-32 l-64,64l 64,64l0-32 l 64,0 l0,64 l-32,0 l 64,64l 64-64l-32,0 l0-64 l 64,0 l0,32 l 64-64L 352,160z"  />
<glyph unicode="&#xe02a;" d="M 288,448c0,17.6-14.4,32-32,32s-32-14.4-32-32l0-288 l-32,0 l0-64 l 32,0 l0-96 c0-17.6, 14.4-32, 32-32s 32,14.4, 32,32l0,96 l 32,0 l0,64 l-32,0 L 288,448 zM 96,448c0,17.6-14.4,32-32,32S 32,465.6, 32,448l0-160 L0,288 l0-64 l 32,0 l0-224 c0-17.6, 14.4-32, 32-32s 32,14.4, 32,32L 96,224 l 32,0 l0,64 L 96,288 L 96,448 zM 512,352l-32,0 L 480,448 c0,17.6-14.4,32-32,32s-32-14.4-32-32l0-96 l-32,0 l0-64 l 32,0 l0-288 c0-17.6, 14.4-32, 32-32s 32,14.4, 32,32L 480,288 l 32,0 L 512,352 z"  />
<glyph unicode="&#xe02b;" d="M 128,160c-22.56,0-43.872,4.624-64,11.776L 64-32 l 64,64l 64-64L 192,171.776 C 171.872,164.624, 150.56,160, 128,160zM0,352A128,128 1620 1 1 256,352A128,128 1620 1 1 0,352z" horiz-adv-x="256"  />
<glyph unicode="&#xe02c;" d="M 128,160c-22.56,0-43.872,4.624-64,11.744L 64-32 l 64,64l 64-64L 192,171.744 C 171.872,164.624, 150.56,160, 128,160zM 128,480C 57.312,480,0,422.688,0,352s 57.312-128, 128-128s 128,57.312, 128,128S 198.688,480, 128,480z M 128,288c-35.376,0-64,28.656-64,64
			s 28.624,64, 64,64s 64-28.656, 64-64S 163.376,288, 128,288z" horiz-adv-x="256"  />
<glyph unicode="&#xe02d;" d="M 322.128,480C 217.504,480, 132.368,394.88, 132.368,290.192c0-25.056, 5.12-48.816, 13.936-70.688L0,73.184L 105.12-32l 146.368,146.432
	c 21.872-8.88, 45.632-14, 70.624-14c 104.688,0, 189.872,85.12, 189.872,189.728C 512,394.88, 426.816,480, 322.128,480z M 322.128,164.368
	c-69.312,0-125.808,56.496-125.808,125.792c0,69.376, 56.496,125.872, 125.808,125.872c 69.44,0, 125.936-56.496, 125.936-125.872
	C 448.064,220.88, 391.568,164.368, 322.128,164.368z"  />
<glyph unicode="&#xe02e;" d="M 512,416l-64,0 l-64,0 c0,35.376-28.624,64-64,64l-128,0 C 156.624,480, 128,451.376, 128,416L 64,416 L0,416 l0-64 l 64,0 l0-288 c0-52.992, 43.008-96, 96-96l 192,0 
			c 52.992,0, 96,43.008, 96,96L 448,352 l 64,0 L 512,416 z M 384,64c0-17.632-14.368-32-32-32L 160,32 c-17.632,0-32,14.368-32,32L 128,352 l 256,0 L 384,64 zM 160,128A32,32 1620 1 1 224,128A32,32 1620 1 1 160,128zM 160,256A32,32 1620 1 1 224,256A32,32 1620 1 1 160,256zM 288,128A32,32 1620 1 1 352,128A32,32 1620 1 1 288,128zM 288,256A32,32 1620 1 1 352,256A32,32 1620 1 1 288,256z"  />
<glyph unicode="&#xe02f;" d="M 448,416l-64,0 c0,35.376-28.624,64-64,64l-128,0 C 156.624,480, 128,451.376, 128,416L 64,416 L0,416 l0-64 l 64,0 l0-288 c0-52.992, 43.008-96, 96-96l 192,0 
		c 52.992,0, 96,43.008, 96,96L 448,352 l 64,0 L 512,416 L 448,416 z M 192,96c-17.68,0-32,14.32-32,32s 14.32,32, 32,32s 32-14.32, 32-32S 209.68,96, 192,96z M 192,224
		c-17.68,0-32,14.32-32,32s 14.32,32, 32,32s 32-14.32, 32-32S 209.68,224, 192,224z M 320,96c-17.68,0-32,14.32-32,32s 14.32,32, 32,32s 32-14.32, 32-32
		S 337.68,96, 320,96z M 320,224c-17.68,0-32,14.32-32,32s 14.32,32, 32,32s 32-14.32, 32-32S 337.68,224, 320,224z"  />
<glyph unicode="&#xe030;" d="M 128,336A16,16 1620 1 1 160,336A16,16 1620 1 1 128,336zM 224,480L 32,480 C 14.32,480,0,465.68,0,448l0-352 c0-70.688, 57.312-128, 128-128s 128,57.312, 128,128L 256,448 C 256,465.68, 241.68,480, 224,480z M 80,160
		c-8.832,0-16,7.152-16,16s 7.168,16, 16,16c 8.848,0, 16-7.152, 16-16S 88.848,160, 80,160z M 160,96c-17.68,0-32,14.32-32,32s 14.32,32, 32,32s 32-14.32, 32-32
		S 177.68,96, 160,96z M 192,224l-32,0 c0,17.664-14.336,32-32,32s-32-14.336-32-32L 64,224 L 64,416 l 128,0 L 192,224 z" horiz-adv-x="256"  />
<glyph unicode="&#xe031;" d="M 224,480L 32,480 C 14.32,480,0,465.68,0,448l0-352 c0-70.688, 57.312-128, 128-128s 128,57.312, 128,128L 256,448 C 256,465.68, 241.68,480, 224,480z M 160,96
	c-17.68,0-32,14.32-32,32s 14.32,32, 32,32s 32-14.32, 32-32S 177.68,96, 160,96z M 192,224l-32,0 c0,17.664-14.336,32-32,32s-32-14.336-32-32L 64,224 L 64,416 l 128,0 L 192,224 z" horiz-adv-x="256"  />
<glyph unicode="&#xe032;" d="M 352,480c-88.368,0-160-71.632-160-160c0-10, 1.184-19.632, 2.944-29.056L0,96l0-128 l 192,0 l0,64 l 64,0 l0,64 l 64,0 l0,64 l 2.944,2.944
		C 332.368,161.184, 342,160, 352,160c 88.368,0, 160,71.632, 160,160S 440.368,480, 352,480z M 352,224c-5.008,0-10.496,0.624-17.376,1.872l-33.12,6.128
		L 256,186.496L 256,160 l-64,0 l0-64 L 128,96 l0-64 L 64,32 l0,37.504 l 200,200l-6.128,33.12C 256.592,309.504, 256,315.008, 256,320c0,52.944, 43.056,96, 96,96s 96-43.056, 96-96
		S 404.944,224, 352,224zM 320,320A32,32 1620 1 1 384,320A32,32 1620 1 1 320,320z"  />
<glyph unicode="&#xe033;" d="M 352,480c-88.368,0-160-71.632-160-160c0-10, 1.184-19.632, 2.944-29.056L0,96l0-128 l 192,0 l0,64 l 64,0 l0,64 l 64,0 l0,64 
				l 2.944,2.944C 332.368,161.184, 342,160, 352,160c 88.368,0, 160,71.632, 160,160S 440.368,480, 352,480z M 352.128,288c-17.68,0-32,14.32-32,32s 14.32,32, 32,32
				s 32-14.32, 32-32S 369.808,288, 352.128,288z"  />
<glyph unicode="&#xe034;" d="M 512,480L 128,480 l0-128 C 81.504,352,0,352,0,352l0-384 l 384,0 l0,128 l 128,0 L 512,480 z M 320,32L 64,32 L 64,224 l 64,0 l0-128 l 192,0 C 320,67.376, 320,32, 320,32z M 448,160L 192,160 L 192,352 l 256,0 
		L 448,160 z"  />
<glyph unicode="&#xe035;" d="M 160,415.872c 52.976,0, 96-43.184, 96-96.256c0-30.32-13.808-58.192-37.968-76.368c-36.128-27.312-50.72-57.504-55.744-82.88
			L 157.712,160.368 c-5.008,25.376-19.648,55.568-55.744,82.88c-24.128,18.192-38,46.064-38,76.368C 63.968,372.688, 107.024,415.872, 160,415.872 M 160,480
			C 71.632,480,0,408.192,0,319.632C0,267.12, 24.72,221.248, 63.504,192c 17.84-13.504, 32.56-30.88, 32.56-54.88l0-40.88 l 127.904,0 L 223.968,137.12 
			c0,24, 14.72,41.376, 32.528,54.88C 295.312,221.248, 320,267.12, 320,319.632C 320,408.192, 248.368,480, 160,480L 160,480zM 96,32L 224,32L 224-32L 96-32z" horiz-adv-x="320"  />
<glyph unicode="&#xe036;" d="M 75.056,42.88C 26.624,91.248,0,155.504,0,224C0,365.12, 114.816,480, 256,480l 32-32l-32-32C 150.128,416, 64,329.872, 64,224
			c0-51.376, 20-99.632, 56.32-135.872l-39.312-5.12L 75.056,42.88L 75.056,42.88zM 256-32l-32,31.872L 256,32c 105.872,0, 192,86.128, 192,192c0,51.248-20,99.504-56.368,135.808l 39.376,5.184
			l 5.872,40.064C 485.312,356.688, 512,292.368, 512,224C 512,82.88, 397.12-32, 256-32L 256-32z"  />
<glyph unicode="&#xe037;" d="M 382.128,382.624l-45.12-45.312C 367.248,307.056, 384,266.816, 384,224c0-88.256-71.744-160-160-160l0,32 l-64-64l 64-64l0,32 
			c 123.504,0, 224,100.496, 224,224C 448,283.936, 424.624,340.256, 382.128,382.624zM 288,416l-64,64l0-32 C 100.496,448,0,347.504,0,224c0-59.936, 23.376-116.256, 65.872-158.624l 45.12,45.312
			C 80.752,140.944, 64,181.184, 64,224C 64,312.256, 135.744,384, 224,384l0-32 L 288,416z" horiz-adv-x="448"  />
<glyph unicode="&#xe038;" d="M 448,192c0,123.68-100.32,224-224,224C 100.32,416,0,315.68,0,192C0,280.368, 71.632,352, 160,352s 160-71.632, 160-160l0-32 l-64,0 l 128-128l 128,128l-64,0 L 448,192 
		z"  />
<glyph unicode="&#xe039;" d="M 450.468,420.484c-79.307,79.291-217.666,79.355-296.925,0L 63.996,330.873L 63.996,415.988 L0,415.988 l0-191.988 l 191.988,0 l0,63.996 l-80.363-0.048l 87.243,87.243
			c 55.117,55.181, 151.239,55.181, 206.355-0.064C 432.789,347.56, 447.972,310.939, 447.972,271.949c0-39.038-15.183-75.675-42.749-103.322l-48.253-48.237l 45.245-45.229
			l 48.253,48.125C 490.097,163.044, 511.968,215.809, 511.968,271.949C 511.968,328.057, 490.097,380.806, 450.468,420.484zM 295.166-32L 249.92,13.309L 295.198,58.538L 340.443,13.229z" horiz-adv-x="511"  />
<glyph unicode="&#xe03a;" d="M 384,192c0-70.56-57.376-128-128-128s-128,57.44-128,128s 57.376,128, 128,128l 37.744-0.432l-18.624-18.624l 45.248-45.248L 416.56,352
			l-96.192,96l-45.248-45.248L 294,384L 256,384 C 150,384, 64,298.064, 64,192s 86-192, 192-192s 192,85.936, 192,192L 384,192 z"  />
<glyph unicode="&#xe03b;" d="M 384,192c0-70.624-57.376-128-128-128s-128,57.376-128,128s 57.376,128, 128,128l 64,0 l 0.368-64.32L 416.56,352l-96.192,96l0-64 L 256,384 
			C 150,384, 64,298, 64,192s 86-192, 192-192s 192,86, 192,192L 384,192 z"  />
<glyph unicode="&#xe03c;" d="M 320,224l0-64 l 75.808,0 l-85.936-85.936c-54.224-54.336-148.944-54.336-203.216,0l-45.28-45.184
		C 100.592-10.384, 152.816-32, 208.32-32c 55.536,0, 107.632,21.632, 146.8,60.88l 92.88,92.8L 448,32 l 64,0 L 512,224 L 320,224 zM 192,288L 116.192,288 l 85.936,85.936c 54.224,54.336, 148.944,54.336, 203.216,0l 45.28,45.184C 411.408,458.368, 359.184,480, 303.664,480
		c-55.536,0-107.632-21.632-146.8-60.88L 64,326.32L 64,416 L0,416 l0-192 l 192,0 L 192,288 z"  />
<glyph unicode="&#xe03d;" d="M 192,320L 128,320 L 128,320.256 C 128,337.888, 142.368,352, 160,352l 192,0 c 17.632,0, 32-14.368, 32-32l0-32 l 64,0 l0,32 c0,52.944-43.056,96-96,96L 160,416 
		c-52.944,0-96-43.056-96-96L0,320 l 96-96L 192,320zM 416,224l-96-96l 64,0 l0-0.256 C 384,110.128, 369.632,96, 352,96L 160,96 c-17.632,0-32,14.368-32,32l0,32 L 64,160 l0-32 c0-52.944, 43.056-96, 96-96l 192,0 
		c 52.944,0, 96,43.056, 96,96l 64,0 L 416,224z"  />
<glyph unicode="&#xe03e;" d="M 192,320L 128,320 L 128,352 c0,17.632, 14.368,32, 32,32l 192,0 c 17.632,0, 32-14.368, 32-32l0-32 l 64,0 L 448,352 c0,52.944-43.056,96-96,96L 160,448 C 107.056,448, 64,404.944, 64,352
		l0-32 L0,320 l 96-128L 192,320zM 416,256l-96-128l 64,0 l0-32 c0-17.632-14.368-32-32-32L 160,64 c-17.632,0-32,14.368-32,32l0,32 L 64,128 l0-32 c0-52.944, 43.056-96, 96-96l 192,0 
		c 52.944,0, 96,43.056, 96,96l0,32 l 64,0 L 416,256z"  />
<glyph unicode="&#xe03f;" d="M 448,224l0-32 c0-17.632-14.368-32-32-32L 191.936,160 L 192,224l-128-96l 128-96l-0.064,64L 416,96 c 52.944,0, 96,43.12, 96,96l0,32 L 448,224 zM 64,256c0,17.68, 14.368,32, 32,32l 224,0 l0-64 l 127.872,96L 320,416l0-64 L 96,352 c-52.944,0-96-43.008-96-96l0-32 l 64,0 L 64,256 z"  />
<glyph unicode="&#xe040;" d="M 448,192c0-17.632-14.368-32-32-32L 127.872,160 l0,64 L0,128l 127.872-96l0,64 L 416,96 c 52.944,0, 96,43.12, 96,96L 448,192 zM 96,288l 288,0 l0-64 l 128,96l-128,96l0-64 L 96,352 c-52.944,0-96-43.008-96-96l 64,0 C 64,273.632, 78.368,288, 96,288z"  />
<glyph unicode="&#xe041;" d="M 511.968,96L 127.872,96L 127.872,32L0,128L 127.872,224L 127.872,160L 511.968,160 		zM0,288L 383.968,288L 383.968,224L 511.968,320L 383.968,416L 383.968,352L0,352 		z" horiz-adv-x="511"  />
<glyph unicode="&#xe042;" d="M 128,160L 128,64L 192,64L 96-32L0,64L 64,64L 64,160 		zM 64,288L 64,384L0,384L 96,480L 192,384L 128,384L 128,288 		z" horiz-adv-x="192"  />
<glyph unicode="&#xe043;" d="M 96,128L 128,160L 128,64L 192,64L 96-32L0,64L 64,64L 64,160 		zM 96,319.008L 64,288L 64,384L0,384L 96,480L 192,384L 128,384L 128,288 		z" horiz-adv-x="192"  />
<glyph unicode="&#xe044;" d="M 256,480C 114.624,480,0,365.376,0,224s 114.624-256, 256-256s 256,114.624, 256,256S 397.376,480, 256,480z M 288,128l 32,0 l-64-64l-64,64l 32,0 L 224,320 
		l-32,0 l 64,64l 64-64l-32,0 L 288,128 z"  />
<glyph unicode="&#xe045;" d="M 192,192L 96,192L 96,128L0,224L 96,320L 96,256L 192,256 		zM 320,256L 416,256L 416,320L 512,224L 416,128L 416,192L 320,192 		z"  />
<glyph unicode="&#xe046;" d="M 160,224L 192,192L 96,192L 96,128L0,224L 96,320L 96,256L 192,256 		zM 351.008,224L 320,256L 416,256L 416,320L 512,224L 416,128L 416,192L 320,192 		z"  />
<glyph unicode="&#xe047;" d="M 512,224c0,141.376-114.624,256-256,256S0,365.376,0,224s 114.624-256, 256-256S 512,82.624, 512,224z M 160,192l0-32 l-64,64l 64,64l0-32 
		l 192,0 l0,32 l 64-64l-64-64l0,32 L 160,192 z"  />
<glyph unicode="&#xe048;" d="M 512,288L 256,288L 352,384L 256,480L0,224L 256-32L 352,64L 256,160L 512,160 z"  />
<glyph unicode="&#xe049;" d="M 512,224c0,141.376-114.624,256-256,256C 114.608,480,0,365.376,0,224c0-141.392, 114.608-256, 256-256C 397.376-32, 512,82.608, 512,224z
	 M 128,224l 128,128l0-96 l 128,0 l0-64 l-128,0 l0-96 L 128,224z"  />
<glyph unicode="&#xe04a;" d="M 256-32c 141.376,0, 256,114.624, 256,256S 397.376,480, 256,480S0,365.376,0,224S 114.624-32, 256-32z M 160,288l0-32 l 256,0 l0-64 L 160,192 l0-32 l-64,64
		L 160,288z"  />
<glyph unicode="&#xe04b;" d="M0,160L 256,160L 160,64L 256-32L 512,224L 256,480L 160,384L 256,288L0,288 z"  />
<glyph unicode="&#xe04c;" d="M0,224c0-141.376, 114.624-256, 256-256c 141.392,0, 256,114.624, 256,256c0,141.392-114.608,256-256,256C 114.624,480,0,365.392,0,224z M 384,224
	l-128-128l0,96 L 128,192 l0,64 l 128,0 L 256,352 L 384,224z"  />
<glyph unicode="&#xe04d;" d="M 256,480C 114.624,480,0,365.376,0,224s 114.624-256, 256-256s 256,114.624, 256,256S 397.376,480, 256,480z M 352,160l0,32 L 96,192 l0,64 l 256,0 l0,32 l 64-64
		L 352,160z"  />
<glyph unicode="&#xe04e;" d="M 320-32L 320,224L 416,128L 512,224L 256,480L0,224L 96,128L 192,224L 192-32 z"  />
<glyph unicode="&#xe04f;" d="M 256-32c 141.376,0, 256,114.624, 256,256c0,141.392-114.624,256-256,256C 114.608,480,0,365.392,0,224C0,82.624, 114.608-32, 256-32z M 256,352
	l 128-128l-96,0 l0-128 l-64,0 l0,128 L 128,224 L 256,352z"  />
<glyph unicode="&#xe050;" d="M0,224c0-141.376, 114.624-256, 256-256s 256,114.624, 256,256S 397.376,480, 256,480S0,365.376,0,224z M 320,320l-32,0 l0-256 l-64,0 L 224,320 l-32,0 
		l 64,64L 320,320z"  />
<glyph unicode="&#xe051;" d="M 192,480L 192,224L 96,320L0,224L 256-32L 512,224L 416,320L 320,224L 320,480 z"  />
<glyph unicode="&#xe052;" d="M 256,480C 114.624,480,0,365.376,0,224c0-141.392, 114.624-256, 256-256c 141.392,0, 256,114.608, 256,256C 512,365.376, 397.392,480, 256,480z M 256,96
	l-128,128l 96,0 L 224,352 l 64,0 l0-128 l 96,0 L 256,96z"  />
<glyph unicode="&#xe053;" d="M 512,224c0,141.376-114.624,256-256,256S0,365.376,0,224s 114.624-256, 256-256S 512,82.624, 512,224z M 192,128l 32,0 L 224,384 l 64,0 l0-256 l 32,0 
		l-64-64L 192,128z"  />
<glyph unicode="&#xe054;" d="M 256,480C 114.624,480,0,365.376,0,224s 114.624-256, 256-256s 256,114.624, 256,256S 397.376,480, 256,480z M 256.496,161.056
				c-35.008,0-63.44,28.368-63.44,63.44c0,35.12, 28.432,63.504, 63.44,63.504C 291.632,288, 320,259.632, 320,224.496
				C 320,189.44, 291.632,161.056, 256.496,161.056z"  />
<glyph unicode="&#xe055;" d="M 256,480C 114.624,480,0,365.376,0,224s 114.624-256, 256-256s 256,114.624, 256,256S 397.376,480, 256,480z M 256,416
		c 83.312,0, 153.68-53.664, 180.256-128L 75.744,288 C 102.32,362.336, 172.688,416, 256,416z M 256,192c-17.68,0-32,14.32-32,32s 14.32,32, 32,32s 32-14.32, 32-32
		S 273.68,192, 256,192z M 64,224c 87.44,0, 158.256-84.256, 159.744-188.752C 133.248,50.752, 64,129.184, 64,224z M 288.256,35.248
		C 289.744,139.744, 360.56,224, 448,224C 448,129.184, 378.752,50.752, 288.256,35.248z"  />
<glyph unicode="&#xe056;" d="M 192,224c 35.376,0, 64,28.656, 64,64L 256,416 c0,35.344-28.624,64-64,64S 128,451.344, 128,416l0-128 C 128,252.656, 156.624,224, 192,224zM 256,32l-32,0 l0,67.248 C 314.624,114.56, 384,193.088, 384,288l0,31.008 c0,17.68-14.32,32-32,32s-32-14.32-32-32L 320,288 
			c0-70.592-57.376-128-128-128s-128,57.408-128,128l0,31.008 c0,17.68-14.32,32-32,32s-32-14.32-32-32L0,288 c0-94.912, 69.376-173.44, 160-188.752L 160,32 L 128,32 
			c-35.376,0-64-28.624-64-64l 256,0 C 320,3.376, 291.376,32, 256,32z" horiz-adv-x="384"  />
<glyph unicode="&#xe057;" d="M 480,192l-32,0 l0,64 c0,106-86,192-192,192S 64,362, 64,256l0-64 L 32,192 c-17.68,0-32-14.32-32-32l0-128 c0-17.68, 14.32-32, 32-32l 96,0 L 128,256 
	c0,70.624, 57.376,128, 128,128s 128-57.376, 128-128l0-256 l 96,0 c 17.68,0, 32,14.32, 32,32l0,128 C 512,177.68, 497.68,192, 480,192z"  />
<glyph unicode="&#xe058;" d="M 128,96c-70.688,0-128,57.312-128,128s 57.312,128, 128,128L 128,96 zM 192,352L 320,416L 320,32L 192,96 			zM 384.064,96.064l0,64 c 5.312,0, 10.688,0.688, 16.064,2C 428.192,169.184, 448,194.688, 448,224
			s-19.808,54.752-48.192,61.936c-5.056,1.248-10.432,1.936-15.744,1.936l0,64 c 10.496,0, 21.008-1.312, 31.312-3.808C 472.32,333.568, 512,282.624, 512,224
			c0-58.688-39.68-109.68-96.432-124.064C 404.944,97.376, 394.432,96.064, 384.064,96.064L 384.064,96.064z"  />
<glyph unicode="&#xe059;" d="M 128,96c-70.688,0-128,57.312-128,128s 57.312,128, 128,128L 128,96 zM 192,352L 320,416L 320,32L 192,96 			zM 512,192L 384,192L 384,256L 512,256 		z"  />
<glyph unicode="&#xe05a;" d="M0,480L 384,224L0-32 	z" horiz-adv-x="384"  />
<glyph unicode="&#xe05b;" d="M0,480L 128,480L 128-32L0-32zM 256,480L 384,480L 384-32L 256-32z" horiz-adv-x="384"  />
<glyph unicode="&#xe05c;" d="M0,480L 512,480L 512-32L0-32z"  />
<glyph unicode="&#xe05d;" d="M0,160L 256,480L 512,160 		zM0,96L 511.312,96L 511.312-32L0-32z"  />
<glyph unicode="&#xe05e;" d="M 512-32L 128,224L 512,480 		zM0,416L 128,416L 128,32L0,32z"  />
<glyph unicode="&#xe05f;" d="M0,480L 384,224L0-32 		zM 384,416L 512,416L 512,32L 384,32z"  />
<glyph unicode="&#xe060;" d="M 256,480C 114.624,480,0,365.376,0,224s 114.624-256, 256-256s 256,114.624, 256,256S 397.376,480, 256,480z M 160,96L 160,352 l 256.128-128L 160,96z
		"  />
<glyph unicode="&#xe061;" d="M 393.376,41.376L 466.752-32L 512,13.248L 438.624,86.624L 512,160L 320,160L 320-32 		zM0,288L 192,288L 192,480L 118.624,406.624L 46,479.312L 0.752,434.064L 73.376,361.376 		zM0,13.248L 45.248-32L 118.624,41.376L 192-32L 192,160L0,160L 73.376,86.624 		zM 320,288L 512,288L 438.624,361.376L 511.376,434.064L 466.128,479.312L 393.376,406.624L 320,480 		z"  />
<glyph unicode="&#xe062;" d="M 448,160L 320,160L 320,32L 361.376,73.376L 466.752-32L 512,13.248L 406.624,118.624 	zM 406.624,329.376L 512,434.752L 466.752,480L 361.376,374.624L 320,416L 320,288L 448,288 	zM 45.248,480L0,434.752L 105.376,329.376L 64,288L 192,288L 192,416L 150.624,374.624 	zM 105.376,118.624L0,13.248L 45.248-32L 150.624,73.376L 192,32L 192,160L 64,160 	z"  />
<glyph unicode="&#xe063;" d="M 438.624,86.624L 365.248,160L 320,114.752L 393.376,41.376L 320-32L 512-32L 512,160 		zM 192,480L0,480L0,288L 73.376,361.376L 146.064,288.752L 191.312,334L 118.624,406.624 		zM 192,114.752L 146.752,160L 73.376,86.624L0,160L0-32L 192-32L 118.624,41.376 		zM 512,480L 320,480L 393.376,406.624L 320.688,334L 365.936,288.752L 438.624,361.376L 512,288 		z"  />
<glyph unicode="&#xe064;" d="M 470.624,54.624L 365.248,160L 320,114.752L 425.376,9.376L 384-32L 512-32L 512,96 		zM 41.376,393.376L 146.752,288L 192,333.248L 86.624,438.624L 128,480L0,480L0,352 		zM 425.376,438.624L 320,333.248L 365.248,288L 470.624,393.376L 512,352L 512,480L 384,480 		zM 192,114.752L 146.752,160L 41.376,54.624L0,96L0-32L 128-32L 86.624,9.376 		z"  />
<glyph unicode="&#xe065;" d="M 256,480L 128,480 C 57.312,480,0,422.688,0,352l0-256 c0-70.688, 57.312-128, 128-128l 128,0 c 70.688,0, 128,57.312, 128,128L 384,352 
		C 384,422.688, 326.688,480, 256,480z M 192-0.992c-18.224,0-32.992,14.752-32.992,32.992s 14.784,32.992, 32.992,32.992s 32.992-14.752, 32.992-32.992
		S 210.224-0.992, 192-0.992z M 320,96L 64,96 L 64,352 c0,35.248, 28.72,64, 64,64l 128,0 c 35.248,0, 64-28.752, 64-64L 320,96 z" horiz-adv-x="384"  />
<glyph unicode="&#xe066;" d="M 512,288l-64,0 l0,32 c0,17.568-14.368,32-32,32L 32,352 c-17.632,0-32-14.432-32-32l0-192 c0-17.568, 14.368-32, 32-32l 384,0 
	c 17.632,0, 32,14.432, 32,32l0,32 l 64,0 L 512,288 z M 384,160L 64,160 L 64,288 l 320,0 L 384,160 z"  />
<glyph unicode="&#xe067;" d="M 512,288l-64,0 l0,32 c0,17.6-14.368,32-32,32L 32,352 c-17.632,0-32-14.4-32-32l0-192 c0-17.632, 14.368-32, 32-32l 384,0 c 17.632,0, 32,14.368, 32,32l0,32 l 64,0 
		L 512,288 z M 384,160l-128,0 l0,128 l 128,0 L 384,160 z"  />
<glyph unicode="&#xe068;" d="M 448,288l0,32 c0,17.6-14.4,32-32,32L 32,352 c-17.6,0-32-14.4-32-32l0-192 c0-17.6, 14.4-32, 32-32l 384,0 c 17.6,0, 32,14.4, 32,32l0,32 l 64,0 l0,128 L 448,288 z"  />
<glyph unicode="&#xe069;" d="M 448,288l0,32 c0,17.6-14.4,32-32,32L 32,352 c-17.6,0-32-14.4-32-32l0-64 l 101.584,0 c 13.2,37.264, 48.64,64, 90.416,64l0-32 l 64,0 l0-32 l-64,0 l0-64 l 64,0 l0-32 l-64,0 l0-32 
	c-41.776,0-77.232,26.736-90.416,64L0,192 l0-64 c0-17.6, 14.4-32, 32-32l 384,0 c 17.6,0, 32,14.4, 32,32l0,32 l 64,0 l0,128 L 448,288 z"  />
<glyph unicode="&#xe06a;" d="M 290,257.936c 12.752-12.784, 16.128-30.88, 11.504-47.088L 384,352l-139.248-82.224
				C 260.496,273.664, 277.68,270.256, 290,257.936zM 222.128,190.064c-12.368,12.336-15.744,29.6-11.872,45.376L 128,96l 141.312,82.56
				C 253.056,173.872, 234.944,177.248, 222.128,190.064zM 256,416c 105.872,0, 192-86.128, 192-192s-86.128-192-192-192S 64,118.128, 64,224S 150.128,416, 256,416 M 256,480
			C 114.624,480,0,365.376,0,224s 114.624-256, 256-256s 256,114.624, 256,256S 397.376,480, 256,480L 256,480z"  />
<glyph unicode="&#xe06b;" d="M0,288L 512,288L 512-32L0-32zM 288,352L 512,352L 448,480L 288,480 		zM 224,480L 64,480L0,352L 224,352 		z"  />
<glyph unicode="&#xe06c;" d="M 256,415.968L 256,480 L0,480 l0-448 c0-35.376, 28.624-64, 64-64l 384,0 c 35.312,0, 64,28.624, 64,64L 512,415.968 L 256,415.968 z M 448,223.936L 448,32 L 64,32 L 64,224 l 384,0 L 448,223.936 z
	 M 448,288L 64,288 L 64,416 l 128,0 l0-0.032 L 192,352 l 256,0 L 448,288 z"  />
<glyph unicode="&#xe06d;" d="M 512,0c0-17.68-14.32-32-32-32L 32-32 c-17.68,0-32,14.32-32,32L0,288 l 512,0 L 512,0 zM 192,415.968L 192,480L0,480L0,352L 512,352L 512,415.968 		z"  />
<glyph unicode="&#xe06e;" d="M 477.504,96C 499.44,133.68, 512,177.248, 512,224c0,141.376-114.624,256-256,256S0,365.376,0,224s 114.624-256, 256-256
		c 70.688,0, 134.688,28.624, 180.992,75.008L 391.68,88.32C 356.944,53.504, 308.944,32, 256,32C 150.128,32, 64,118.128, 64,224S 150.128,416, 256,416s 192-86.128, 192-192
		c0-22.752-4.368-44.496-11.68-64.752L 435.808,160L 384,160 L 384,351.312 l-128,0 c-70.688,0-128-57.312-128-128s 57.312-128, 128-128c 29.376,0, 56.128,10.32, 77.744,26.944
		C 345.376,106.752, 363.12,96, 384,96L 477.504,96 z M 320,255.872l0-32.56 c0-35.312-28.752-64-64-64s-64,28.688-64,64s 28.752,64, 64,64l 64,0 L 320,255.872 z"  />
<glyph unicode="&#xe06f;" d="M 147.392-32c-37.744,0-75.504,14.368-104.32,43.056c-57.44,57.568-57.44,151.184,0,208.624l 129.808,127.008
		c 7.376,7.44, 11.632,17.632, 11.632,28.56c0,10.88-4.256,21.12-11.872,28.88C 156.768,420, 130.896,419.936, 114.896,404.064
		C 99.136,388.192, 99.136,362.32, 115.008,346.432L 69.696,301.12C 28.896,342, 28.896,408.432, 69.648,449.312c 40.992,40.944, 107.376,40.88, 148.224,0.064
		c 19.872-19.808, 30.752-46.192, 30.752-74.192c0-28-10.88-54.32-30.752-74.064l-129.776-126.944c-32.32-32.256-32.32-85.248, 0.32-117.808
		c 32.496-32.56, 85.504-32.496, 118.128,0c 32.464,32.56, 32.464,85.568,0,118.064l-22.752,22.624l 69.6,69.568l 45.248-45.248l-26.752-26.752
		c 36.256-56.992, 29.632-133.744-20.128-183.504C 222.992-17.632, 185.136-32, 147.392-32L 147.392-32z" horiz-adv-x="298"  />
<glyph unicode="&#xe070;" d="M 32,224c 17.68,0, 32-14.32, 32-32l0-128 c0-17.68-14.32-32-32-32L0,32 l0-64 l 256,0 l0,64 l-31.872,0 C 206.496,32, 192,46.32, 192,64l-0.064,224L0,288 
			l0-64 L 32,224 zM 64,416A64,64 1620 1 1 192,416A64,64 1620 1 1 64,416z" horiz-adv-x="256"  />
<glyph unicode="&#xe071;" d="M 89.6,0A32,32 1620 1 1 153.6,0A32,32 1620 1 1 89.6,0zM 122.816,64.368c-21.376,0-41.44,8.32-56.56,23.44s-23.44,35.184-23.44,56.56s 8.32,41.44, 23.44,56.56
			l 107.008,107.008C 185.376,320.032, 192,336.096, 192,353.184s-6.624,33.152-18.752,45.248c-24.944,24.96-65.536,25.008-90.464,0
			C 70.656,386.336, 64,370.288, 64,353.184L0,353.184 c0,34.192, 13.344,66.352, 37.568,90.544c 48.32,48.368, 132.56,48.336, 180.944-0.032
			C 242.688,419.552, 256,387.408, 256,353.184c0-34.192-13.312-66.32-37.504-90.496L 111.504,155.68c-6.224-6.256-6.224-16.368,0-22.624
			c 6.256-6.256, 16.368-6.256, 22.624,0c 4.064,4.064, 4.688,8.88, 4.688,11.312l 64,0 c0-21.376-8.32-41.44-23.44-56.56
			S 144.192,64.368, 122.816,64.368L 122.816,64.368z" horiz-adv-x="256"  />
<glyph unicode="&#xe072;" d="M 384,480l-64,0 l-64,0 l-64,0 L 128,480 C 57.312,480,0,422.688,0,352s 57.312-128, 128-128l0-256 l 64,0 L 192,416 l 64,0 l0-448 l 64,0 L 320,416 l 64,0 L 384,480 z" horiz-adv-x="384"  />
<glyph unicode="&#xe073;" d="M 448,288L 448,352 l-80.064,0 l 16,128l-64,0 l-16-128l-127.968,0 l 16,128l-64,0 l-16-128L0,352 l0-64 l 103.968,0 L 88,160L0,160 l0-64 l 80,0 l-16-128l 64,0 l 16,128l 127.968,0 l-16-128L 320-32 
		l 16,128l 112,0 l0,64 l-104,0 l 15.936,128L 448,288 z M 279.968,160L 152,160 l 15.968,128l 127.968,0 L 279.968,160z" horiz-adv-x="448"  />
<glyph unicode="&#xe074;" d="M 512,32L 512,224 l-128,0 c0,70.56, 57.376,128, 128,128L 512,416 c-105.872,0-192-86.128-192-192l0-192 L 512,32 zM 192,32L 192,224 L 64,224 c0,70.56, 57.376,128, 128,128L 192,416 C 86.128,416,0,329.872,0,224l0-192 L 192,32 z"  />
<glyph unicode="&#xe075;" d="M0,416l0-192 l 128,0 c0-70.56-57.376-128-128-128l0-64 c 105.872,0, 192,86.128, 192,192L 192,416 L0,416 zM 320,416l0-192 l 128,0 c0-70.56-57.376-128-128-128l0-64 c 105.872,0, 192,86.128, 192,192L 512,416 L 320,416 z"  />
<glyph unicode="&#xe076;" d="M 512,32L 512,416L 320,224L 320,32 		zM 192,32L 192,416L0,224L0,32 		z"  />
<glyph unicode="&#xe077;" d="M0,416L0,32L 192,224L 192,416 		zM 320,416L 320,32L 512,224L 512,416 		z"  />
<glyph unicode="&#xe078;" d="M 512,416L0,416L0,480L 512,480 		zM 320,288L0,288L0,352L 320,352 		zM 512,96L0,96L0,160L 512,160 		zM 384-32L0-32L0,32L 384,32 		zM 512,0c0-17.68-14.352-32-31.968-32C 462.304-32, 448-17.68, 448,0s 14.304,32, 32.032,32C 497.648,32, 512,17.68, 512,0z"  />
<glyph unicode="&#xe079;" d="M 512,416L0,416L0,480L 512,480 		zM 320,288L0,288L0,352L 320,352 		zM 512,160L0,160L0,224L 512,224 		zM0,0A32,32 1620 1 1 64,0A32,32 1620 1 1 0,0zM 256,0A32,32 1620 1 1 320,0A32,32 1620 1 1 256,0zM 128,0A32,32 1620 1 1 192,0A32,32 1620 1 1 128,0z"  />
<glyph unicode="&#xe07a;" d="M0,443.431A36.569,36.569 1620 1 1 73.138,443.431A36.569,36.569 1620 1 1 0,443.431zM0,297.136A36.569,36.569 1620 1 1 73.138,297.13599999999997A36.569,36.569 1620 1 1 0,297.13599999999997zM0,150.859A36.569,36.569 1620 1 1 73.138,150.85899999999998A36.569,36.569 1620 1 1 0,150.85899999999998zM0,4.565A36.569,36.569 1620 1 1 73.138,4.564999999999998A36.569,36.569 1620 1 1 0,4.564999999999998zM 146.295,480L 585.106,480L 585.106,406.862L 146.295,406.862zM 146.295,333.705L 585.106,333.705L 585.106,260.567L 146.295,260.567zM 146.295,187.429L 585.106,187.429L 585.106,114.29L 146.295,114.29zM 146.295,41.134L 585.106,41.134L 585.106-32.005L 146.295-32.005z" horiz-adv-x="585"  />
<glyph unicode="&#xe07b;" d="M0,443.429A36.571,36.571 1620 1 1 73.143,443.429A36.571,36.571 1620 1 1 0,443.429zM 146.286,480L 585.143,480L 585.143,406.857L 146.286,406.857zM 146.286,297.143A36.571,36.571 1620 1 1 219.429,297.14300000000003A36.571,36.571 1620 1 1 146.286,297.14300000000003zM 292.571,333.714L 585.143,333.714L 585.143,260.571L 292.571,260.571zM 146.286,4.571A36.571,36.571 1620 1 1 219.429,4.571000000000026A36.571,36.571 1620 1 1 146.286,4.571000000000026zM 292.571,41.143L 585.143,41.143L 585.143-32L 292.571-32zM 292.571,150.857A36.571,36.571 1620 1 1 365.714,150.85700000000003A36.571,36.571 1620 1 1 292.571,150.85700000000003zM 438.857,187.429L 585.143,187.429L 585.143,114.286L 438.857,114.286z" horiz-adv-x="585"  />
<glyph unicode="&#xe07c;" d="M 64,480C 28.8,480,0,451.2,0,416l0-384 c0-35.2, 28.8-64, 64-64l 384,0 L 448,480 L 64,480 z M 384,32L 128,32 L 128,416 l 64,0 l0-128 l 64,64l 64-64L 320,416 l 64,0 L 384,32 z" horiz-adv-x="448"  />
<glyph unicode="&#xe07d;" d="M 512,416l-64,0 L 448,480 L 64,480 C 28.8,480,0,451.2,0,416l0-384 c0-35.2, 28.8-64, 64-64l 384,0 L 448,288 l 64,0 l-64,64L 512,416z M 384,32L 128,32 L 128,416 l 256,0 L 384,32 zM 192,352L 320,352L 320,288L 192,288z"  />
<glyph unicode="&#xe07e;" d="M 256,384c0,0-64,64-256,64l0-384 c 194,0, 256-64, 256-64s 62,64, 256,64L 512,448 C 320,448, 256,384, 256,384z M 64,384
		c 81.344-6.816, 131.248-25.632, 160-40.88l0-257.744 c-28.752,15.184-78.656,34-160,40.88L 64,384 z M 448,126.256c-81.376-6.88-131.248-25.664-160-40.88
		L 288,343.12 C 316.752,358.368, 366.624,377.184, 448,384L 448,126.256 z"  />
<glyph unicode="&#xe07f;" d="M 474.496,442.496C 449.568,467.504, 416.816,480, 384,480c-32.752,0-65.504-12.496-90.496-37.504L 0.496,149.504L0-32
		l 180.992,0 l 293.504,293.504C 524.496,311.504, 524.496,392.496, 474.496,442.496z M 154.496,32L 128,32 l0,64 L 64.368,96 l 0.064,26.88L 338.752,397.248l0,0l 90.496-90.496
		l0,0L 154.496,32z"  />
<glyph unicode="&#xe080;" d="M 474.496,442.496C 449.504,467.504, 416.752,480, 384,480s-65.504-12.496-90.496-37.504L 0.496,149.504L0-32l 180.992,0 
		l 293.504,293.504C 524.496,311.504, 524.496,392.496, 474.496,442.496z M 154.496,32L 153.808,32 c 24.992,24.992, 24.992,66,0,91.008
		c-23.936,23.936-61.744,24.256-86.88,2.368L 338.192,396.624l 90.496-90.496L 154.496,32z"  />
<glyph unicode="&#xe081;" d="M 474.496,442.496c-49.936,50-131.056,50-180.992,0L 0.496,149.504L0-32l 180.992,0 l 293.504,293.504
				C 524.496,311.504, 524.496,392.496, 474.496,442.496z M 153.808,32L 63.312,32 l0,91.008 c 24.992,24.992, 65.504,24.992, 90.496,0S 178.816,56.992, 153.808,32z
				 M 428.064,306.752l-90.496,90.496c 24.992,24.992, 65.504,24.992, 90.496,0S 453.056,331.744, 428.064,306.752z"  />
<glyph unicode="&#xe082;" d="M 493.233,461.249c-24.991,24.991-65.502,24.991-90.493,0l-241.992-242.072
			c 21.631-5.632, 41.631-16.495, 57.87-32.751c 16.495-16.495, 27.007-36.623, 32.623-57.742l 241.992,242.072C 518.24,395.747, 518.24,436.257, 493.233,461.249z
			M 173.371,50.685c 24.991,24.991, 24.991,65.502,0,90.493s-65.502,24.991-90.493,0L0-32L 173.371,50.685z" horiz-adv-x="511"  />
<glyph unicode="&#xe083;" d="M 493.216,461.248c-24.992,24.992-65.504,24.992-90.496,0L 220.32,278.88c 42.256-15.056, 75.504-48.32, 90.496-90.56
				l 182.4,182.432C 518.224,395.744, 518.224,436.256, 493.216,461.248zM 255.936,138.688c0,47.12-38.256,85.312-85.376,85.312s-85.312-38.192-85.312-85.312l 0.064-0.064
			C 85.248,75.504, 50.944,20.432,0-9.056l 0.256-0.32C 25.312-23.744, 54.32-32, 85.312-32C 179.568-32, 256,44.432, 256,138.688L 255.936,138.688 z" horiz-adv-x="511"  />
<glyph unicode="&#xe084;" d="M 192,96c0,35.376-28.688,64-64,64c-35.376,0-64-28.624-64-64l0-0.128 c0-47.312-25.744-88.56-64-110.688l 0.256-0.192
			C 19.008-25.808, 40.752-32, 64-32C 134.688-32, 192,25.312, 192,96L 192,96zM 493.216,461.248c-24.992,24.992-65.504,24.992-90.496,0L 160.752,219.248c 44.128-11.808, 78.752-46.368, 90.496-90.56
			L 493.216,370.752C 518.224,395.744, 518.224,436.256, 493.216,461.248z" horiz-adv-x="511"  />
<glyph unicode="&#xe085;" d="M 474.48,261.056c 49.936,49.904, 49.936,130.88,0,180.752c-24.944,24.944-57.68,37.44-90.368,37.44
		c-32.656,0-65.408-12.496-90.336-37.44l-9.44-9.44L 236.752,480l-45.12-45.152l 47.632-47.6L0,147.84l0-115.968 L 62.88-32l 118.624,0 l 238.416,238.496
		l 46-46.032l 45.184,45.12l-46.064,46.032L 474.48,261.056z M 165.12,42.128c 0.752,24.256-7.632,48.56-26.064,67.008
		c-16.944,16.992-39.056,25.312-61.312,26.064L 284.448,341.968l 90.288-90.224L 165.12,42.128z" horiz-adv-x="511"  />
<glyph unicode="&#xe086;" d="M0,96L 256.016,32L 512,96L 512,32L 256.016-32L0,32 		zM0,224L 256.016,160L 512,224L 512,160L 256.016,96L0,160 		zM0,352L 256.016,288L 512,352L 512,288L 256.016,224L0,288 		zM0,480L 256.016,416L 512,480L 512,416L 256.016,352L0,416 		z" horiz-adv-x="511"  />
<glyph unicode="&#xe087;" d="M0,128L 256.016,64L 512,128L 512,64L 256.016,0L0,64 		zM0,256L 256.016,192L 512,256L 512,192L 256.016,128L0,192 		zM0,384L 256.016,448L 512,384L 512,320L 256.016,256L0,320 		z" horiz-adv-x="511"  />
<glyph unicode="&#xe088;" d="M 128,96L 128,224L 192,288L 256,224L 384,352L 512,224L 512,96 		zM 64,32L 64,480L0,416L0,32L0-32L 64-32L 448-32L 512,32 		z"  />
<glyph unicode="&#xe089;" d="M 256,160A64,64 1620 1 1 384,160A64,64 1620 1 1 256,160zM 448,352l-52.624,106.288C 391.056,470.912, 379.12,480, 364.992,480L 277.12,480 c-14.288,0-26.336-9.312-30.464-22.16
			L 192.064,352L 64,352 c-35.344,0-64-28.656-64-64l0-320 l 512,0 L 512,288 C 512,323.344, 483.376,352, 448,352z M 96,224c-17.68,0-32,14.32-32,32s 14.32,32, 32,32s 32-14.32, 32-32
			S 113.68,224, 96,224z M 320,32c-70.688,0-128,57.312-128,128s 57.312,128, 128,128s 128-57.312, 128-128S 390.688,32, 320,32z"  />
<glyph unicode="&#xe08a;" d="M 338.752,256.32l 91.056,154.624C 384.128,453.472, 323.376,480, 256,480c-15.968,0-31.44-1.904-46.592-4.688
			L 338.752,256.32zM 319.248,160l 183.68,0 C 508.256,180.56, 512,201.744, 512,224c0,61.968-22.88,118.032-59.568,162.32L 319.248,160zM 264,320l-86.528,146.432C 105.472,443.088, 47.248,389.664, 19.008,320L 264,320 zM 250.128,128l 86.256-145.872c 71.184,23.744, 128.624,76.816, 156.624,145.872L 250.128,128 zM 193.68,288L 9.056,288 C 3.712,267.44,0,246.256,0,224c0-62.256, 23.12-118.56, 60.096-163.008L 193.68,288zM 174.688,192.624l-91.904-156.128C 128.432-5.632, 188.944-32, 256-32c 16.656,0, 32.88,1.872, 48.624,4.88
			L 174.688,192.624z"  />
<glyph unicode="&#xe08b;" d="M 484.944,336.432l-159.568-159.568l 181.872,0 C 510.128,192.256, 512,207.872, 512,224
			C 512,264.528, 501.744,302.368, 484.944,336.432zM 336.88,236.16l 131.248,131.184c-31.248,46.064-77.504,80.336-131.248,98.336L 336.88,236.16 zM 267.968,143.12l 131.28-131.312c 46.128,31.184, 80.432,77.504, 98.432,131.312L 267.968,143.12 zM 303.088,292.096L 303.088,475.248 C 287.776,478.096, 272.128,480, 256,480c-40.88,0-79.008-10.464-113.28-27.536L 303.088,292.096zM 208.912,154.368l0-181.632 C 224.224-30.128, 239.872-32, 256-32c 40.496,0, 78.256,10.256, 112.32,27.008
			L 208.912,154.368zM 175.088,211.632L 44,80.56c 31.184-46, 77.408-80.256, 131.088-98.256L 175.088,211.632 zM 4.752,271.088C 1.904,255.776,0,240.128,0,224c0-40.624, 10.32-78.496, 27.12-112.56l 159.664,159.664L 4.752,271.104 zM 111.936,435.504C 66.256,404.32, 32.224,358.336, 14.32,304.912l 228.224,0 L 111.936,435.504z"  />
<glyph unicode="&#xe08c;" d="M 219.856,169.632l-160.128,160c-79.632-92.064-79.632-227.952,0-320L 219.856,169.632zM 320.016,413.472l0-234.336 L 154.384,13.44C 191.632-14.368, 236.88-32, 286.88-32C 411.248-32, 512,68.624, 512,192.944
			C 512.016,305.872, 428.288,397.376, 320.016,413.472zM 256,223.744L 256,480 C 186.256,475.68, 123.248,448.992, 72.368,407.408L 256,223.744z" horiz-adv-x="511"  />
<glyph unicode="&#xe08d;" d="M 232.528,169.248L 63.28,338.496c-84.368-97.376-84.368-241.12,0-338.496L 232.528,169.248zM 256,192L 256,480 C 177.504,475.12, 106.752,445.12, 49.648,398.368L 256,192zM 288.032,415.744l0-236.992 L 121.904,12.624C 159.152-14.752, 204.032-32, 253.664-32C 378.752-32, 480,69.248, 480,194.128
			C 480,307.376, 396.368,399.12, 288.032,415.744z" horiz-adv-x="480"  />
<glyph unicode="&#xe08e;" d="M 384,480L 512,480L 512-32L 384-32zM 192,352L 320,352L 320-32L 192-32zM0,224L 128,224L 128-32L0-32z"  />
<glyph unicode="&#xe08f;" d="M 384,480L 448,480L 448-32L 384-32zM 256,352L 320,352L 320-32L 256-32zM 128,224L 192,224L 192-32L 128-32zM0,96L 64,96L 64-32L0-32z" horiz-adv-x="448"  />
<glyph unicode="&#xe090;" d="M 256,416C 114.624,416,0,226.496,0,226.496S 114.624,32, 256,32s 256,194.496, 256,194.496S 397.376,416, 256,416z M 256,96
			c-70.688,0-128,57.312-128,128s 57.312,128, 128,128s 128-57.312, 128-128S 326.688,96, 256,96zM 192,224A64,64 1620 1 1 320,224A64,64 1620 1 1 192,224z"  />
<glyph unicode="&#xe091;" d="M 192,224C 86,224,0,138,0,32c0-35.376, 28.624-64, 64-64l 256,0 c 35.376,0, 64,28.624, 64,64
			C 384,138, 298,224, 192,224zM 96,384A96,96 1620 1 1 288,384A96,96 1620 1 1 96,384z" horiz-adv-x="384"  />
<glyph unicode="&#xe092;" d="M 256,480L0,224l 64,0 l0-256 l 384,0 L 448,224 l 64,0 L 256,480z M 384,32l-96,0 l0,96 l-64,0 l0-96 L 128,32 L 128,261.504 L 256,352l 128-90.496L 384,32 z"  />
<glyph unicode="&#xe093;" d="M 256,416c 105.872,0, 192-86.128, 192-192s-86.128-192-192-192S 64,118.128, 64,224S 150.128,416, 256,416 M 256,480
			C 114.624,480,0,365.376,0,224s 114.624-256, 256-256s 256,114.624, 256,256S 397.376,480, 256,480L 256,480zM 342.752,182.752L 288,237.568L 288,352 l-64.368,0 l0-127.872 c0-9.632, 4.432-17.936, 11.12-23.872l 62.752-62.752
			L 342.752,182.752z"  />
<glyph unicode="&#xe094;" d="M 224.064,480c-88.16,0-159.968-71.744-159.968-160l0-32 L0,288 l0-224 c0-52.88, 43.12-96, 95.968-96L 288-32 c 53.008,0, 96,43.12, 96,96L 384,320 
			C 384,408.256, 312.256,480, 224.064,480z M 128.096,320c0,52.992, 43.088,96, 95.968,96C 277.008,416, 320,372.992, 320,320l0-32 L 128.096,288 L 128.096,320 z M 288,32L 95.968,32 
			c-17.632,0-32,14.368-32,32L 63.968,224 L 320,224 l0-160 C 320,46.368, 305.744,32, 288,32zM 224,128c0-17.632-14.368-32-32-32c-17.744,0-32,14.368-32,32c0,17.744, 14.256,32, 32,32C 209.632,160, 224,145.744, 224,128z" horiz-adv-x="384"  />
<glyph unicode="&#xe095;" d="M 224,480C 135.872,480, 64.064,408.256, 64.064,320l0-32 L0,288 l0-224 c0-52.944, 43.056-96, 96-96l 192,0 c 52.944,0, 96,43.056, 96,96L 384,320 
		C 384,408.256, 312.192,480, 224,480z M 191.936,96C 174.32,96, 160,110.32, 160,128s 14.32,32, 31.936,32c 17.68,0, 32-14.32, 32-32S 209.632,96, 191.936,96z M 320,288
		L 128.064,288 l0,32 c0,52.944, 43.056,96, 95.936,96c 52.944,0, 96-43.056, 96-96L 320,288 z" horiz-adv-x="384"  />
<glyph unicode="&#xe096;" d="M 224.064,480C 135.84,480, 64.096,408.192, 64.096,320l 64,0 c0,52.88, 43.024,96, 95.968,96S 320,372.88, 320,320l0-32 L0,288 l0-224 
			c0-52.992, 43.056-96, 95.968-96L 288-32 c 52.944,0, 96,43.008, 96,96L 384,320 C 384,408.192, 312.256,480, 224.064,480z M 288,32L 95.968,32 c-17.632,0-32,14.32-32,32L 63.968,224 L 320,224 l0-160 
			C 320,46.32, 305.632,32, 288,32zM 224,128c0-17.744-14.32-32-32-32s-32,14.256-32,32c0,17.632, 14.32,32, 32,32S 224,145.632, 224,128z" horiz-adv-x="384"  />
<glyph unicode="&#xe097;" d="M 224.064,480C 135.808,480, 64.128,408.256, 64.128,320l 63.936,0 c0,52.944, 43.008,96, 96,96C 276.944,416, 320,372.944, 320,320l0-32 L0,288 l0-224 
		c0-52.944, 43.12-96, 96-96l 192,0 c 52.88,0, 96,43.056, 96,96L 384,320 C 384,408.256, 312.192,480, 224.064,480z M 192,96c-17.632,0-32,14.32-32,32s 14.368,32, 32,32
		c 17.744,0, 32-14.32, 32-32S 209.744,96, 192,96z" horiz-adv-x="384"  />
<glyph unicode="&#xe098;" d="M0,480l0-212.368 L 299.632-32c0,0,0,172.688,0,212.32c 39.632,0, 212.368,0, 212.368,0L 212.368,480L0,480 z M 188.752,423.008
				c 12.368-12.32, 126.064-126.128, 185.632-185.68c-49.632,0-131.744,0-131.744,0s0-82.128,0-131.632C 183.056,165.184, 69.376,278.944, 56.992,291.184
				c0,16.88,0,95.376,0,131.808C 93.44,423.008, 171.872,423.008, 188.752,423.008zM 187.184,342.192c0-27.248-22.128-49.376-49.312-49.376c-27.248,0-49.376,22.128-49.376,49.376
			c0,27.184, 22.128,49.248, 49.376,49.248C 165.056,391.44, 187.184,369.376, 187.184,342.192z"  />
<glyph unicode="&#xe099;" d="M 212.432,480L0,480 l0-212.432 L 299.504-32L 299.504,180.432 L 512,180.432 L 212.432,480z M 116.992,302.064c-33.632,0-60.88,27.248-60.88,60.88
		S 83.36,423.824, 116.992,423.824s 60.88-27.248, 60.88-60.88S 150.624,302.064, 116.992,302.064z"  />
<glyph unicode="&#xe09a;" d="M 256.016,288c 35.248,0, 64-28.72, 64-64s-28.752-64-64-64s-64,28.72-64,64S 220.768,288, 256.016,288 M 256.016,352
			c-70.688,0-128-57.312-128-128s 57.312-128, 128-128C 326.704,96, 384,153.312, 384,224S 326.704,352, 256.016,352L 256.016,352zM 224,448A32,32 1620 1 1 288,448A32,32 1620 1 1 224,448zM 64,384A32,32 1620 1 1 128,384A32,32 1620 1 1 64,384zM 32,256c 17.68,0, 32-14.32, 32-32c0-17.712-14.32-32-32-32s-32,14.288-32,32C0,241.68, 14.32,256, 32,256zM 64,64A32,32 1620 1 1 128,64A32,32 1620 1 1 64,64zM 224,0c0,17.744, 14.32,32, 32,32c 17.728,0, 32-14.256, 32-32c0-17.632-14.272-32-32-32C 238.32-32, 224-17.632, 224,0zM 384,64A32,32 1620 1 1 448,64A32,32 1620 1 1 384,64zM 480,192c-17.664,0-32,14.336-32,32c0,17.712, 14.336,32, 32,32s 32-14.288, 32-32C 512,206.336, 497.664,192, 480,192zM 384,384A32,32 1620 1 1 448,384A32,32 1620 1 1 384,384z" horiz-adv-x="511"  />
<glyph unicode="&#xe09b;" d="M 256.016,352c-70.688,0-128-57.312-128-128s 57.312-128, 128-128C 326.704,96, 384,153.312, 384,224S 326.704,352, 256.016,352L 256.016,352zM 224,448A32,32 1620 1 1 288,448A32,32 1620 1 1 224,448zM 64,384A32,32 1620 1 1 128,384A32,32 1620 1 1 64,384zM 32,256c 17.68,0, 32-14.32, 32-32c0-17.712-14.32-32-32-32s-32,14.288-32,32C0,241.68, 14.32,256, 32,256zM 64,64A32,32 1620 1 1 128,64A32,32 1620 1 1 64,64zM 224,0c0,17.744, 14.32,32, 32,32c 17.728,0, 32-14.256, 32-32c0-17.632-14.272-32-32-32C 238.32-32, 224-17.632, 224,0zM 384,64A32,32 1620 1 1 448,64A32,32 1620 1 1 384,64zM 480,192c-17.664,0-32,14.336-32,32c0,17.712, 14.336,32, 32,32s 32-14.288, 32-32C 512,206.336, 497.664,192, 480,192zM 384,384A32,32 1620 1 1 448,384A32,32 1620 1 1 384,384z" horiz-adv-x="511"  />
<glyph unicode="&#xe09c;" d="M 94.32,333.632c 13.568-143.344, 128-257.744, 271.312-271.248c-30.56-19.376-66.432-30.368-104-30.368
		C 152.624,32, 64,120.624, 64,229.664C 64,267.216, 75.008,303.056, 94.32,333.632 M 189.504,480C 80.32,448.496,0,348.976,0,229.664C0,85.12, 117.12-32, 261.632-32
		c 119.312,0, 218.88,80.368, 250.368,189.504c-34.88-20.128-74.752-32.496-117.872-32.496c-131.008,0-237.12,106.224-237.12,237.152
		C 156.992,405.28, 169.376,445.152, 189.504,480L 189.504,480z"  />
<glyph unicode="&#xe09d;" d="M 394.128,125.056c-131.008,0-237.12,106.192-237.12,237.12c0,43.12, 12.368,83.008, 32.496,117.808
			C 80.32,448.496,0,348.992,0,229.68C0,85.184, 117.12-32, 261.632-32c 119.312,0, 218.88,80.368, 250.368,189.504
			C 477.12,137.44, 437.248,125.056, 394.128,125.056z"  />
<glyph unicode="&#xe09e;" d="M 384,320c-6.064,0-11.808-0.976-17.632-1.776C 344.064,357.664, 302.816,384, 256,384c-47.808,0-89.056-26.656-111.056-65.6
		C 139.312,319.152, 133.68,320, 128,320c-70.56,0-128-57.408-128-128c0-70.624, 57.44-128, 128-128l 256,0 c 70.56,0, 128,57.376, 128,128C 512,262.592, 454.56,320, 384,320z M 384,128L 128,128 
		c-35.312,0-64,28.752-64,64c0,35.088, 31.056,62.16, 64.064,63.12c 0.128-15.088, 2.752-29.904, 8-43.904l 59.936,22.432
		C 193.312,240.752, 192,248.288, 192,256c0,35.28, 28.688,64, 64,64c 20.688,0, 39.44-10.256, 51.184-26.224C 276.32,270.4, 256,233.68, 256,192l 64,0 
		c0,35.28, 28.688,64, 64,64s 64-28.72, 64-64C 448,156.752, 419.312,128, 384,128z"  />
<glyph unicode="&#xe09f;" d="M 383.968,384c-6,0-11.728-0.976-17.648-1.776C 344.096,421.664, 302.816,448, 256,448c-47.792,0-89.040-26.656-111.040-65.6
			C 139.312,383.152, 133.68,384, 128,384c-70.56,0-128-57.408-128-128s 57.44-128, 128-128l 255.968,0 c 70.624,0, 128,57.408, 128,128S 454.592,384, 383.968,384z M 383.968,192L 128,192 
			c-35.312,0-64,28.72-64,64c0,35.088, 31.056,62.16, 64.064,63.12c 0.144-15.088, 2.752-29.904, 8-43.904l 59.936,22.432
			C 193.312,304.752, 192,312.288, 192,320c0,35.28, 28.688,64, 64,64c 20.688,0, 39.44-10.256, 51.184-26.224C 276.336,334.4, 256,297.68, 256,256l 64,0 
			c0,35.28, 28.72,64, 63.968,64c 35.376,0, 64-28.72, 64-64S 419.344,192, 383.968,192zM 52.496,8.992c-12-12-31.504-12-43.504,0s-12,31.504,0,43.504S 96,96, 96,96S 64.496,20.992, 52.496,8.992zM 180.56,8.992c-12-12-31.44-12-43.504,0c-12,12-12,31.504,0,43.504
			C 149.12,64.496, 224.064,96, 224.064,96S 192.624,20.992, 180.56,8.992zM 308.48,8.992c-12-12-31.504-12-43.504,0s-12,31.504,0,43.504S 351.968,96, 351.968,96
			S 320.48,20.992, 308.48,8.992z" horiz-adv-x="511"  />
<glyph unicode="&#xe0a0;" d="M 256,480C 114.88,480,0,365.152,0,224l 64,0 c0,13.216, 10.816,24, 24,24C 101.248,248, 112,237.216, 112,224l 64,0 
		c0,13.216, 10.816,24, 24,24c 13.248,0, 24-10.784, 24-24l0-160 c0-17.632-14.32-32-32-32c-17.632,0-32,14.368-32,32L 96,64 c0-52.944, 43.12-96, 96-96
		c 52.992,0, 96,43.056, 96,96L 288,224 c0,13.216, 10.816,24, 24,24c 13.248,0, 23.968-10.784, 23.968-24l 64,0 c0,13.216, 10.88,24, 24,24
		c 13.248,0, 24-10.784, 24-24l 64,0 C 511.968,365.152, 397.216,480, 256,480z" horiz-adv-x="511"  />
<glyph unicode="&#xe0a1;" d="M 354.192,166L 512,288L 320,288L 256,480L 192,288L0,288L 158,166.496L 96-32L 256.256,90.88L 416.128-32 		
			z"  />
<glyph unicode="&#xe0a2;" d="M 160,416c 25.632,0, 49.744-10, 67.872-28.16C 246,369.744, 256,345.632, 256,320s-10-49.744-27.68-67.408
			c-2.688-2.656-35.808-35.6-68.32-87.056c-32.368,51.376-65.376,84.192-67.872,86.624C 74,270.256, 64,294.368, 64,320s 10,49.744, 28.128,67.872
			S 134.368,416, 160,416 M 160,480C 119.056,480, 78.128,464.368, 46.88,433.12c-62.496-62.464-62.496-163.776,0-226.256C 46.88,206.88, 160,96, 160-32
			c0,128, 113.12,238.88, 113.12,238.88c 62.496,62.464, 62.496,163.776,0,226.256C 241.872,464.368, 200.944,480, 160,480L 160,480zM 128,320A32,32 1620 1 1 192,320A32,32 1620 1 1 128,320z" horiz-adv-x="320"  />
<glyph unicode="&#xe0a3;" d="M 273.12,433.12c-62.496,62.496-163.744,62.496-226.256,0c-62.496-62.464-62.496-163.808,0-226.24
				C 46.88,206.88, 160,96, 160-32c0,128, 113.12,238.88, 113.12,238.88C 335.632,269.312, 335.632,370.656, 273.12,433.12z M 160,256c-35.376,0-64,28.624-64,64
				s 28.624,64, 64,64s 64-28.624, 64-64S 195.376,256, 160,256z" horiz-adv-x="320"  />
<glyph unicode="&#xe0a4;" d="M 128,480C 57.312,480,0,422.688,0,352s 128-384, 128-384s 128,313.312, 128,384S 198.688,480, 128,480z M 128,288c-35.344,0-64,28.656-64,64
		s 28.656,64, 64,64s 64-28.656, 64-64S 163.344,288, 128,288z" horiz-adv-x="256"  />
<glyph unicode="&#xe0a5;" d="M 288.368,256.4l 92.624,0 c-11.744,45.376-47.248,80.912-92.624,92.624L 288.368,256.4 zM 288.368,191.6l0-92.592 c 45.376,11.68, 80.88,47.248, 92.624,92.592L 288.368,191.6 zM 223.568,256.4L 223.568,349.024 c-45.376-11.712-80.944-47.248-92.624-92.624L 223.568,256.4 zM 223.568,191.6L 130.944,191.6 c 11.68-45.344, 47.248-80.912, 92.624-92.592L 223.568,191.6 zM 288.368,415.152c 81.184-13.744, 144.992-77.568, 158.752-158.752L 512,256.4 C 497.184,373.376, 405.376,465.216, 288.368,480L 288.368,415.152 z
				M 64.816,256.4C 78.56,337.6, 142.368,401.408, 223.568,415.152L 223.568,480 C 106.624,465.216, 14.752,373.376,0,256.4L 64.816,256.4 zM 223.568,32.88c-81.184,13.744-144.992,77.504-158.752,158.72L0,191.6 C 14.752,74.624, 106.624-17.248, 223.568-32
				L 223.568,32.88 zM 447.12,191.6c-13.744-81.216-77.568-144.976-158.752-158.72L 288.368-32 C 405.376-17.248, 497.184,74.624, 512,191.6
				L 447.12,191.6 z"  />
<glyph unicode="&#xe0a6;" d="M0,32L 384,32L 384-32L0-32zM 256,192L 256,480L 128,480L 128,192L 64,192L 192,32L 320,192 		z" horiz-adv-x="384"  />
<glyph unicode="&#xe0a7;" d="M0,480L 384,480L 384,416L0,416zM 128,256L 128-32L 256-32L 256,256L 320,256L 192,416L 64,256 		z" horiz-adv-x="384"  />
<glyph unicode="&#xe0a8;" d="M 384,416c-6,0-11.808-0.944-17.632-1.808C 344.064,453.68, 302.816,480, 256,480c-47.808,0-89.088-26.688-111.056-65.568
			C 139.312,415.184, 133.712,416, 128,416c-70.592,0-128-57.44-128-128s 57.408-128, 128-128l 96,0 l0-96 l-64,0 l 96-96l 96,96l-64,0 l0,96 l 96,0 c 70.624,0, 128,57.44, 128,128S 454.624,416, 384,416z M 384,224L 128,224 
			c-35.28,0-64,28.688-64,64c0,35.056, 31.088,62.192, 64.064,63.12c 0.128-15.056, 2.752-29.936, 8-43.936l 59.936,22.496C 193.344,336.752, 192,344.32, 192,352
			c0,35.312, 28.72,64, 64,64c 20.72,0, 39.408-10.256, 51.248-26.192C 276.32,366.432, 256,329.68, 256,288l 64,0 c0,35.312, 28.752,64, 64,64s 64-28.688, 64-64
			S 419.248,224, 384,224z"  />
<glyph unicode="&#xe0a9;" d="M 384,416c-6,0-11.808-0.992-17.632-1.744C 344.064,453.632, 302.816,480, 256,480c-47.808,0-89.088-26.624-111.056-65.632
			C 139.312,415.12, 133.712,416, 128,416c-70.592,0-128-57.376-128-128s 57.408-128, 128-128l 256,0 c 70.624,0, 128,57.376, 128,128S 454.624,416, 384,416z M 384,224L 128,224 c-35.28,0-64,28.752-64,64
			c0,35.12, 31.088,62.128, 64.064,63.12C 128.192,336, 130.816,321.248, 136.064,307.248l 59.936,22.368C 193.344,336.752, 192,344.256, 192,352c0,35.248, 28.72,64, 64,64
			c 20.72,0, 39.408-10.256, 51.248-26.256C 276.32,366.368, 256,329.68, 256,288l 64,0 c0,35.248, 28.752,64, 64,64s 64-28.752, 64-64S 419.248,224, 384,224zM 256,160L 160,64L 224,64L 224-32L 288-32L 288,64L 352,64 		z"  />
<glyph unicode="&#xe0aa;" d="M 320,480l0-62 c0-25.632-10-49.744-28.064-67.808L 110.88,170.128C 82.256,141.568, 66.496,104.064, 64.752,64L0,64 
			l 96-96l 96,96L 128.688,64 c 1.68,23.008, 10.944,44.368, 27.376,60.88l 181.056,180C 367.376,335.12, 384,375.248, 384,418L 384,480 L 320,480 zM 383.248,64c-1.744,40.064-17.568,77.568-46.192,106.256l-35.68,35.44L 256,160.56l 35.872-35.68
			c 16.496-16.432, 25.744-37.872, 27.44-60.88L 256,64 l 96-96l 96,96L 383.248,64 z" horiz-adv-x="448"  />
<glyph unicode="&#xe0ab;" d="M 276.688,235.328l-45.264,45.264l-64-64c-31.248-31.248-31.248-81.904,0-113.136c 31.248-31.248, 81.888-31.248, 113.136,0l 161.952,158.064
	c 49.968,49.984, 49.968,131.008,0,181.008c-50,49.984-131.040,49.984-181.008,0L 83.568,268.448c-68.736-68.72-68.736-180.16,0-248.912
	c 68.736-68.736, 180.176-68.736, 248.896,0l 96,96L 383.2,160.8l-0.16-0.16l-95.824-95.84c-43.728-43.712-114.656-43.712-158.4,0
	c-43.728,43.712-43.728,114.656,0,158.384L 306.752,397.28c 24.992,24.992, 65.52,24.992, 90.496,0c 25.008-25.008, 25.008-65.552,0-90.512l-161.936-158.064
	c-6.256-6.256-16.368-6.256-22.624,0s-6.256,16.368,0,22.624L 276.688,235.328z"  />
<glyph unicode="&#x20;" horiz-adv-x="256" />
</font>
</defs>
</svg>
