<?xml version="1.0" standalone="no"?>
<!DOCTYPE svg PUBLIC "-//W3C//DTD SVG 1.1//EN" "http://www.w3.org/Graphics/SVG/1.1/DTD/svg11.dtd" >
<svg xmlns="http://www.w3.org/2000/svg">
<metadata>
This is a custom SVG font generated by IcoMoon.
<iconset grid="20"></iconset>
</metadata>
<defs>
<font id="entypo" horiz-adv-x="640" >
<font-face units-per-em="640" ascent="608" descent="-32" />
<missing-glyph horiz-adv-x="640" />
<glyph class="hidden" unicode="&#xf000;" d="M0,608L 640 -32L0 -32 z" horiz-adv-x="0" />
<glyph unicode="&#xe000;" d="M 359.328,248.672c-50.656-50.688-109.344-99.136-132.544-75.904c-33.216,33.184-53.664,62.112-126.88,3.296s-16.992-98.048, 15.2-130.24
		c 37.12-37.088, 175.488-1.952, 312.288,134.816c 136.736,136.768, 171.936,275.168, 134.784,312.288c-32.16,32.192-71.36,88.384-130.208,15.2
		s-29.92-93.664, 3.296-126.88C 458.4,358.016, 409.984,299.36, 359.328,248.672z"  />
<glyph unicode="&#xe001;" d="M 444.064,608L 195.936,608 C 160,608, 130.624,578.624, 130.624,542.688l0-509.376 C 130.624-2.592, 160-32, 195.936-32l 248.128,0 c 35.936,0, 65.312,29.408, 65.312,65.312
		L 509.376,542.688 C 509.376,578.624, 480,608, 444.064,608z M 320-5.888c-25.216,0-45.696,14.624-45.696,32.672s 20.48,32.672, 45.696,32.672
		c 25.248,0, 45.696-14.624, 45.696-32.672S 345.248-5.888, 320-5.888z M 457.12,92.096L 182.848,92.096 L 182.848,523.104 l 274.272,0 L 457.12,92.096 z"  />
<glyph unicode="&#xe002;" d="M 492.864,147.104l-84.032,241.152c-23.136,66.368-94.944,103.040-162.976,84.928L 182.624,595.872C 176.896,606.976, 163.488,611.232, 152.64,605.376
		C 141.792,599.488, 137.632,585.728, 143.36,574.624l 61.728-119.776c-49.184-32.64-74.752-94.496-58.56-152.736l 68.48-246.272
		c 19.264-69.216, 98.56-104.48, 178.272-80.096C 471.968,3.36, 516.512,79.328, 492.864,147.104z M 284.768,322.464C 261.44,314.816, 236.416,327.968, 228.928,351.936
		C 221.44,375.872, 234.304,401.504, 257.664,409.152c 23.36,7.68, 48.384-5.504, 55.872-29.44S 308.16,330.144, 284.768,322.464z"  />
<glyph unicode="&#xe003;" d="M 272,576L 243.232,576 C 236.16,576, 230.4,570.24, 230.4,563.2l0-121.6 L 117.248,441.6 c-5.28,0-11.84-1.216-18.112-3.136
		C 92.8,436.512, 86.752,433.824, 82.432,430.88l-76-52.16C 2.144,375.776,0,371.904,0,368s 2.144-7.776, 6.432-10.72l 76-52.16
		C 86.752,302.176, 92.8,299.488, 99.136,297.536C 105.408,295.616, 111.968,294.4, 117.248,294.4L 230.4,294.4 l0-281.6 c0-7.072, 5.76-12.8, 12.8-12.8L 272,0 
		c 7.072,0, 12.8,5.76, 12.8,12.8L 284.8,563.2 C 284.8,570.24, 279.072,576, 272,576z M 633.568,442.688l-76,52.16c-4.288,2.944-10.336,5.632-16.672,7.584
		C 534.592,504.384, 528.032,505.6, 522.752,505.6L 304,505.6 l 25.632-147.2l 193.12,0 c 5.28,0, 11.84,1.216, 18.144,3.136s 12.384,4.64, 16.672,7.552l 76,52.16
		C 637.888,424.224, 640,428.096, 640,432S 637.888,439.776, 633.568,442.688z"  />
<glyph unicode="&#xe004;" d="M 51.008,438.848c 15.616-8.416, 231.968-124.608, 240.032-128.928C 299.072,305.6, 309.504,303.52, 320,303.52c 10.528,0, 20.96,2.080, 28.992,6.432
		c 8.064,4.32, 224.384,120.512, 240,128.928C 604.64,447.264, 619.424,473.6, 590.72,473.6L 49.312,473.6 C 20.608,473.6, 35.36,447.264, 51.008,438.848z M 595.616,374.848
		c-17.76-9.28-235.744-123.232-246.624-128.928S 330.528,239.488, 320,239.488c-10.496,0-18.080,0.736-28.96,6.432S 62.144,365.6, 44.416,374.848
		C 31.904,381.376, 32,373.728, 32,367.84c0-5.888,0-234.72,0-234.72C 32,119.68, 49.888,102.4, 63.744,102.4l 512.544,0 c 13.888,0, 31.712,17.28, 31.712,30.688
		c0,0,0,228.832,0,234.72C 608,373.728, 608.128,381.376, 595.616,374.848z"  />
<glyph unicode="&#xe005;" d="M 598.208,523.68C 587.232,519.808, 43.936,328.384, 33.248,324.608c-9.088-3.2-11.136-11.040-0.32-15.328
	c 12.832-5.152, 121.472-48.672, 121.472-48.672L 154.368,260.608 l 72.032-28.864c0,0, 346.784,254.688, 351.488,258.112c 4.704,3.456, 10.176-3.040, 6.752-6.752
	c-3.424-3.744-251.872-272.448-251.872-272.448c-0.032,0-0.032,0-0.032,0l-14.464-16.128l 19.168-10.304l0,0c0,0, 148.8-80.096, 159.392-85.824
	c 9.28-4.992, 21.376-0.832, 24.064,10.72c 3.168,13.632, 91.040,392.384, 92.992,400.768C 616.448,520.864, 609.216,527.552, 598.208,523.68z M 225.76,58.816
	c0-7.904, 4.448-10.080, 10.592-4.512c 8,7.296, 91.168,81.92, 91.168,81.92l-101.76,52.672L 225.76,58.816 z"  />
<glyph unicode="&#xe006;" d="M 529.952,497.984c-46.144,46.176-80.8,39.264-80.8,39.264L 287.456,375.552L 102.72,190.816L 70.4,38.4l 152.416,32.32l 184.736,184.736l 161.664,161.664
		C 569.216,417.12, 576.16,451.776, 529.952,497.984z M 213.728,89.056l-51.936-11.2c-5.024,9.376-11.072,18.752-22.112,29.824
		c-11.040,11.040-20.448,17.056-29.824,22.080l 11.232,51.968l 15.008,15.008c0,0, 28.288-0.576, 60.192-32.48c 31.936-31.936, 32.512-60.224, 32.512-60.224
		L 213.728,89.056z"  />
<glyph unicode="&#xe007;" d="M 136.128-24.384c 9.792,32.032, 24.64,77.152, 44.512,142.432c 86.592,13.984, 122.432-11.168, 177.44,89.088
	c-44.64-13.952-98.464,25.888-95.552,43.136c 2.88,17.28, 125.216-12.448, 205.28,103.616c-100.928-22.688-133.248,27.296-120.224,34.848
	c 30.048,17.44, 119.264,7.232, 166.816,54.496c 24.512,24.32, 35.968,83.488, 26.016,104.608c-12,25.472-85.024,63.488-125.28,59.936
	c-40.256-3.584-103.392-156.448-122.112-155.232S 270.56,520.992, 303.232,583.52c-34.464-15.552-97.6-63.968-117.408-105.344
	c-36.896-76.992, 3.456-253.536-9.472-259.84c-12.96-6.272-56.512,81.056-69.504,120.64c-17.76-60.672-18.176-121.472, 33.728-202.24
	c-19.584-52.992-30.272-113.984-31.904-144.992C 107.904-33.088, 131.808-38.4, 136.128-24.384z"  />
<glyph unicode="&#xe008;" d="M 158.752-32c-42.752,0-82.784,18.112-111.712,47.072c-56,56-71.648,153.792, 6.88,232.32C 99.968,293.376, 284.288,477.696, 376.288,569.696
		c 32.672,32.672, 74.208,45.28, 114.016,34.592c 39.072-10.432, 71.136-42.464, 81.6-81.568c 10.656-39.808-1.984-81.376-34.624-114.016l-308.224-308.256
		c-17.6-17.6-37.472-28.032-57.472-30.112c-19.776-2.080-38.656,4.288-51.904,17.504c-24,23.968-27.392,69.088, 12.48,108.928l 216.48,216.544
		c 8.896,8.864, 23.328,8.864, 32.224,0c 8.896-8.896, 8.896-23.328,0-32.224l-216.512-216.512c-18.72-18.72-20.448-36.608-12.48-44.576
		c 3.488-3.456, 8.8-5.056, 14.912-4.416c 9.376,0.992, 20.064,7.072, 30.048,17.056l 308.224,308.224c 21.152,21.152, 29.248,46.016, 22.816,70.048
		c-6.336,23.648-25.728,43.040-49.376,49.376c-24.032,6.432-48.896-1.696-70.048-22.816C 316.48,445.472, 132.16,261.152, 86.144,215.168
		c-60.032-60.032-45.664-129.12-6.912-167.904c 38.784-38.752, 107.872-53.152, 167.936,6.912L 569.504,376.48c 8.864,8.896, 23.328,8.896, 32.192,0
		c 8.896-8.896, 8.896-23.328,0-32.192L 279.36,21.952C 241.376-16.064, 198.88-32, 158.752-32z"  />
<glyph unicode="&#xe009;" d="M 618.848,302.624c-12.576,13.344-73.088,72.704-100.768,99.808c-8.512,8.288-20.672,13.568-33.376,13.568c-12.672,0-164.672,0-164.672,0
	s-152,0-164.704,0S 130.432,410.688, 121.952,402.4c-27.68-27.104-88.256-86.464-100.8-99.808c-15.648-16.64-24.224-29.92-20.128-46.368l 17.952-98.368
	c 4.064-16.448, 22.080-29.92, 40.032-29.92l 521.984,0 c 17.952,0, 35.968,13.472, 40.032,29.92l 17.984,98.368C 643.072,272.672, 634.496,285.984, 618.848,302.624
	z M 449.536,281.312c-3.264,0-6.176-1.664-7.648-4.256l-26.144-65.152L 224.288,211.904 l-26.144,65.152c-1.44,2.592-4.416,4.256-7.648,4.256L 77.056,281.312 
	l 65.312,73.888l 355.328,0 l 65.28-73.888L 449.536,281.312 z"  />
<glyph unicode="&#xe00a;" d="M 608,70.4c0,0-64,311.456-344.8,311.456L 263.2,505.6 L 32,299.040l 231.2-214.112l0,139.456 C 415.616,224.384, 528.544,210.88, 608,70.4z"  />
<glyph unicode="&#xe00b;" d="M 231.2,419.84L 231.2,505.6 L0,299.040l 231.2-214.112l0,88.928 L 96,299.040L 231.2,419.84z M 391.2,381.888L 391.2,505.6 L 160,299.040l 231.2-214.112l0,139.456 
		c 105.376,0, 169.344-13.504, 248.8-153.984C 640,70.4, 628.256,381.888, 391.2,381.888z"  />
<glyph unicode="&#xe00c;" d="M 376.8,224.384l0-139.424 L 608,299.040L 376.8,505.6l0-123.712 C 96,381.888, 32,70.4, 32,70.4C 111.456,210.88, 224.384,224.384, 376.8,224.384z"  />
<glyph unicode="&#xe00d;" d="M 474.24,145.664c-78.88,28.736-104.096,52.992-104.096,104.928c0,31.168, 24.096,20.992, 34.656,78.080c 4.384,23.68, 25.664,0.384, 29.76,54.432
		c0,21.536-11.616,26.912-11.616,26.912s 5.92,31.904, 8.224,56.416C 433.984,497.024, 413.504,576, 304,576C 194.528,576, 173.984,497.024, 176.864,466.432
		C 179.168,441.92, 185.088,410.016, 185.088,410.016S 173.44,404.672, 173.44,383.104c 4.064-54.048, 25.344-30.752, 29.728-54.432
		c 10.592-57.088, 34.688-46.912, 34.688-78.080c0-51.936-25.216-76.192-104.096-104.928c-79.168-28.8-130.56-58.208-130.56-78.272c0-20.032,0-67.36,0-67.36
		l 300.8,0 l 300.8,0 c0,0,0,47.328,0,67.36C 604.8,87.424, 553.376,116.832, 474.24,145.664z"  />
<glyph unicode="&#xe00e;" d="M 640,6.4c0,0-1.248,121.184-8.672,133.728c-11.040,18.72-36.672,31.552-84.288,51.456c-47.456,19.84-62.656,36.608-62.656,72.416
		c0,21.536, 14.496,14.496, 20.864,53.888c 2.624,16.352, 15.424,0.288, 17.888,37.568c0,14.88-6.976,18.592-6.976,18.592s 3.52,22.016, 4.928,38.944
		c 1.728,21.12-10.656,75.616-76.544,75.616s-78.208-54.528-76.512-75.616c 1.376-16.928, 4.896-38.944, 4.896-38.944s-6.976-3.712-6.976-18.592
		c 2.464-37.312, 15.264-21.248, 17.92-37.568c 6.336-39.392, 20.832-32.352, 20.832-53.888c0-24.352-7.040-39.904-26.464-53.568
		c 103.68-51.904, 117.6-62.496, 117.6-108.896L 495.84,6.4 L 640,6.4 z M 327.168,173.6c-63.328,26.432-83.52,48.768-83.52,96.544c0,28.672, 19.328,19.328, 27.808,71.872
		c 3.488,21.792, 20.608,0.352, 23.84,50.080c0,19.84-9.312,24.768-9.312,24.768s 4.736,29.344, 6.592,51.936C 294.88,496.896, 278.368,569.6, 190.528,569.6
		c-87.84,0-104.32-72.672-102.016-100.8c 1.856-22.592, 6.56-51.936, 6.56-51.936S 85.792,411.936, 85.792,392.096
		c 3.296-49.76, 20.352-28.32, 23.872-50.080c 8.48-52.544, 27.808-43.168, 27.808-71.872c0-47.776-20.256-70.112-83.52-96.544
		C 34.656,165.536,0,153.024,0,123.008L0,6.4 l 444.608,0 c0,0,0,68.96,0,87.392C 444.608,121.216, 390.624,147.040, 327.168,173.6z"  />
<glyph unicode="&#xe00f;" d="M 396.064,145.664C 316.352,174.4, 290.88,198.656, 290.88,250.592c0,31.168, 24.352,20.992, 35.040,78.080c 4.448,23.68, 25.952,0.384, 30.016,54.432
		c0,21.536-11.712,26.912-11.712,26.912s 5.984,31.904, 8.288,56.416C 355.392,497.024, 334.656,576, 224,576S 92.608,497.024, 95.488,466.432
		c 2.336-24.544, 8.32-56.416, 8.32-56.416S 92.064,404.672, 92.064,383.104c 4.128-54.048, 25.632-30.752, 30.016-54.432
		c 10.72-57.088, 35.072-46.912, 35.072-78.080c0-51.936-25.504-76.192-105.216-104.928c-9.6-3.424-32.48-8.8-51.936-17.216L0,0 l 512,0 
		c0,0,0,47.328,0,67.36S 476.064,116.832, 396.064,145.664z M 544,320L 544,416 l-64,0 l0-96 l-96,0 l0-64 l 96,0 l0-96 l 64,0 l0,96 l 96,0 L 640,320 L 544,320 z"  />
<glyph unicode="&#xe010;" d="M 576,544L 64,544 C 28.8,544,0,515.2,0,480l0-384 c0-35.2, 28.8-64, 64-64l 512,0 c 35.232,0, 64,28.8, 64,64L 640,480 C 640,515.2, 611.232,544, 576,544z M 576,96L 64,96 L 64,480 l 512,0 L 576,96 z M 288,220.8L 128,220.8 
		L 128,163.2 l 160,0 L 288,220.8 z M 288,316.8L 128,316.8 l0-57.6 l 160,0 L 288,316.8 z M 288,412.8L 128,412.8 l0-57.6 l 160,0 L 288,412.8 z M 508.8,208c0,0-54.4,14.208-54.4,42.176c0,26.624, 35.232,37.824, 35.232,92.224
		c0,44.16-13.44,70.4-57.632,70.4s-57.6-26.208-57.6-70.4c0-54.4, 35.2-65.6, 35.2-92.224c0-27.968-54.368-42.176-54.368-42.176C 352,208, 352,163.2, 352,163.2
		l 160,0 C 512,163.2, 512,208, 508.8,208z"  />
<glyph unicode="&#xe011;" d="M 480,102.4L 64,102.4 l0,288 l 83.040,0 c0,0, 22.048,28.672, 69.44,64L 32,454.4 c-17.664,0-32-14.336-32-32l0-352 c0-17.696, 14.336-32, 32-32l 480,0 c 17.696,0, 32,14.304, 32,32l0,119.872 
		l-64-52.64L 480,102.4 z M 427.584,324.8l0-113.6 L 640,377.632L 427.584,537.6l0-100.16 C 169.6,437.408, 169.6,182.4, 169.6,182.4C 242.624,302.336, 287.552,324.8, 427.584,324.8z"  />
<glyph unicode="&#xe012;" d="M 320,544C 231.616,544, 160,472.352, 160,384c0-152.768, 160-352, 160-352s 160,199.232, 160,352C 480,472.352, 408.384,544, 320,544z M 320,295.68c-47.712,0-86.4,38.688-86.4,86.4
		s 38.688,86.4, 86.4,86.4s 86.4-38.688, 86.4-86.4S 367.712,295.68, 320,295.68z"  />
<glyph unicode="&#xe013;" d="M 629.856,447.232l-149.568,93.664c-6.624,4.16-14.912,4.16-21.536,0L 320,453.984L 181.248,540.864c-6.624,4.16-14.912,4.16-21.536,0
		L 10.144,447.232C 3.872,443.296,0,436.16,0,428.512l0-374.624 c0-7.872, 4.032-15.168, 10.624-19.040s 14.624-3.776, 21.088,0.288l 138.752,86.912l 138.752-86.912
		c 6.624-4.16, 14.912-4.16, 21.568,0l 138.752,86.912l 138.752-86.912C 611.584,33.056, 615.328,32, 619.072,32c 3.552,0, 7.104,0.96, 10.304,2.848
		C 635.936,38.72, 640,46.016, 640,53.888L 640,428.512 C 640,436.16, 636.128,443.296, 629.856,447.232z M 149.536,159.904L 41.856,92.48L 41.856,416.128 l 107.68,67.424L 149.536,159.904 z
		 M 299.072,92.48l-107.68,67.424L 191.392,483.552 l 107.68-67.424L 299.072,92.48 z M 448.608,159.904l-107.648-67.424L 340.96,416.128 l 107.648,67.424L 448.608,159.904 z M 598.112,92.48
		l-107.648,67.424L 490.464,483.552 l 107.648-67.424L 598.112,92.48 z"  />
<glyph unicode="&#xe014;" d="M 315.904,595.168C 146.24,592.896, 10.56,453.536, 12.832,283.904c 2.272-169.664, 141.632-305.344, 311.296-303.104
		c 169.632,2.304, 305.344,141.632, 303.072,311.296C 624.864,461.76, 485.504,597.44, 315.904,595.168z M 323.232,45.504c-133.92-1.824-243.936,105.312-245.76,239.264
		C 75.712,418.688, 182.816,528.704, 316.768,530.496c 133.92,1.792, 243.936-105.312, 245.728-239.264S 457.184,47.328, 323.232,45.504z M 174.496,143.872
		c0,0, 146.208,20.064, 208.576,82.432c 62.368,62.368, 82.432,208.576, 82.432,208.576S 319.328,414.784, 256.96,352.448C 194.592,290.048, 174.496,143.872, 174.496,143.872z
		 M 288.48,320.896C 314.688,347.136, 364.8,365.728, 407.808,377.28c-11.552-42.912-30.24-93.408-56.288-119.424c-17.408-17.408-45.632-17.408-63.040,0
		C 271.040,275.264, 271.040,303.488, 288.48,320.896z"  />
<glyph unicode="&#xe015;" d="M 631.008,599.040c-21.76,21.792-42.56,1.184-113.12-32.704C 329.088,475.552,0,291.168,0,291.168l 282.72-40.416L 323.136-32
		c0,0, 184.416,329.088, 275.168,517.888C 632.256,556.48, 652.8,577.216, 631.008,599.040z M 563.2,526.272l-205.376-381.344l-20.832,173.312L 563.2,526.272z"  />
<glyph unicode="&#xe016;" d="M 320,563.2c-151.968,0-275.2-123.232-275.2-275.2c0-152, 123.232-275.2, 275.2-275.2c 152,0, 275.2,123.2, 275.2,275.2C 595.2,439.968, 472,563.2, 320,563.2z
		 M 342.4,65.12L 342.4,188.8 L 297.6,188.8 l0-123.68 c-105.824,10.496-189.952,94.656-200.48,200.48L 220.8,265.6 L 220.8,310.4 L 97.12,310.4 C 107.648,416.224, 191.776,500.384, 297.6,510.88L 297.6,387.2 l 44.8,0 
		L 342.4,510.88 c 105.856-10.496, 189.984-94.656, 200.48-200.48L 419.2,310.4 l0-44.8 l 123.68,0 C 532.384,159.776, 448.256,75.616, 342.4,65.12z"  />
<glyph unicode="&#xe017;" d="M 480,192c-22.016,0-42.176-7.456-58.368-19.904l-167.008,100.192C 255.424,277.408, 256,282.656, 256,288c0,5.376-0.576,10.592-1.376,15.712
		l 167.008,100.192C 437.824,391.456, 457.984,384, 480,384c 52.992,0, 96,42.976, 96,96s-43.008,96-96,96s-96-42.976-96-96c0-5.344, 0.576-10.592, 1.408-15.712
		L 218.4,364.064C 202.208,376.544, 182.016,384, 160,384c-53.024,0-96-42.976-96-96c0-52.992, 42.976-96, 96-96c 22.016,0, 42.208,7.456, 58.4,19.904l 167.008-100.192
		C 384.576,106.592, 384,101.376, 384,96c0-52.992, 43.008-96, 96-96s 96,43.008, 96,96S 532.992,192, 480,192z"  />
<glyph unicode="&#xe018;" d="M 217.6,288c0-56.544, 45.856-102.4, 102.4-102.4s 102.4,45.888, 102.4,102.4c0,56.544-45.856,102.4-102.4,102.4
	S 217.6,344.544, 217.6,288z M 144.928,326.4C 162.496,406.912, 234.208,467.2, 320,467.2c 49.504,0, 94.272-20.064, 126.688-52.48c 15.008-15.008, 39.328-15.008, 54.336,0
	c 14.976,15.008, 14.976,39.328,0,54.304C 454.688,515.328, 390.688,544, 320,544C 205.376,544, 108.352,468.672, 75.744,364.8L0,364.8 L0,288 l 102.4,0 
	C 134.368,288, 142.208,314.016, 144.928,326.4z M 537.6,288c-31.936,0-39.808-26.016-42.528-38.4C 477.504,169.088, 405.824,108.8, 320,108.8
	c-49.472,0-94.272,20.032-126.688,52.48c-15.008,15.008-39.328,15.008-54.304,0s-15.008-39.328,0-54.304C 185.312,60.672, 249.312,32, 320,32
	c 114.624,0, 211.648,75.328, 244.256,179.2L 640,211.2 L 640,288 L 537.6,288 z"  />
<glyph unicode="&#xe019;" d="M 550.048,475.168c-53.504,49.12-140.256,49.12-193.76,0L 320,441.824L 283.68,475.168c-53.504,49.12-140.224,49.12-193.728,0
		c-60.192-55.232-60.192-144.768,0-200.032L 320,64l 230.048,211.136C 610.24,330.4, 610.24,419.936, 550.048,475.168z"  />
<glyph unicode="&#xe01a;" d="M 550.048,475.2c-53.504,49.088-140.256,49.088-193.76,0L 320,441.856L 283.68,475.2c-53.504,49.088-140.224,49.088-193.728,0
	c-60.192-55.264-60.192-144.768,0-200.032L 320,64l 230.048,211.168C 610.24,330.4, 610.24,419.936, 550.048,475.2z M 516,308L 320,125.152L 124.032,308
	c-19.776,18.112-27.424,41.984-27.424,67.2c0,25.152, 4.416,45.824, 24.192,63.968C 138.24,455.2, 161.696,464, 186.784,464
	c 25.12,0, 48.576-15.232, 66.016-31.264L 320,374.304L 387.2,432.736C 404.64,448.768, 428.064,464, 453.184,464s 48.576-8.8, 66.048-24.832
	c 19.744-18.144, 24.128-38.816, 24.192-63.968C 543.424,350.016, 535.744,326.112, 516,308z"  />
<glyph unicode="&#xe01b;" d="M 320,569.6L 396.416,354.496L 601.6,354.496L 434.176,228.16L 494.016,6.4L 320,139.328L 145.984,6.4L 205.824,228.16L 38.4,354.496L 243.584,354.496 	z"  />
<glyph unicode="&#xe01c;" d="M 601.6,354.496l-205.216,0 L 319.968,569.6L 243.584,354.496L 38.4,354.496 l 167.392-126.336l-59.84-221.76l 174.016,132.928l 174.016-132.928l-59.84,221.76L 601.6,354.496z
	 M 319.968,202.112l-96.384-80.032l 39.744,113.984l-91.232,73.6l 112.672-3.2l 35.168,129.28l 35.2-129.28l 112.672,3.2l-91.232-73.6l 39.776-113.984L 319.968,202.112z
	"  />
<glyph unicode="&#xe01d;" d="M 436.736,372.384c-4.224,11.36, 113.28,116.32, 44.736,201.344c-16.064,19.872-70.432-95.232-147.68-147.328C 291.2,397.664, 192,336.48, 192,302.656l0-218.912 
	C 192,43.072, 349.248,0, 468.768,0C 512.576,0, 576,274.4, 576,318.016C 576,361.76, 440.96,360.992, 436.736,372.384z M 160,369.344c-21.024,0-96-12.8-96-99.904
	l0-155.136 c0-87.104, 74.976-96.672, 96-96.672s-32,18.304-32,72.288L 128,293.856 C 128,350.432, 181.024,369.344, 160,369.344z"  />
<glyph unicode="&#xe01e;" d="M 203.296,203.584c 4.192-11.36-113.28-116.288-44.736-201.312c 16.064-19.904, 70.432,95.2, 147.68,147.328C 348.832,178.336, 448,239.552, 448,273.344
	l0,218.88 C 448,532.928, 290.784,576, 171.264,576C 127.456,576, 64,301.6, 64,257.984C 64,214.24, 199.072,215.008, 203.296,203.584z M 480,206.656c 21.056,0, 96,12.768, 96,99.904
	L 576,461.664 c0,87.104-74.944,96.704-96,96.704c-21.024,0, 32-18.336, 32-72.288l0-203.936 C 512,225.568, 458.976,206.656, 480,206.656z"  />
<glyph unicode="&#xe01f;" d="M 185.6,217.6L 185.6,416 L 64,416 C 28.8,416,0,387.2,0,352l0-192 c0-35.2, 28.8-64, 64-64l 32,0 l0-96 l 96,96l 160,0 c 35.2,0, 64,28.8, 64,64l0,58.24 c-2.048-0.448-4.224-0.672-6.4-0.672L 185.6,217.568 
		z M 576,576L 288,576 C 252.8,576, 224,547.2, 224,512l0-256 l 224,0 l 96-96l0,96 l 32,0 c 35.2,0, 64,28.8, 64,64L 640,512 C 640,547.2, 611.2,576, 576,576z"  />
<glyph unicode="&#xe020;" d="M 512,512L 128,512 C 92.8,512, 64,483.2, 64,448l0-224 c0-35.2, 28.8-64, 64-64l 128,0 l 128-96l0,96 l 128,0 c 35.2,0, 64,28.8, 64,64L 576,448 C 576,483.2, 547.2,512, 512,512z"  />
<glyph unicode="&#xe021;" d="M 157.312,486.304c-51.52,0-93.312-42.976-93.312-96s 41.792-96, 93.312-96c 93.28,0, 31.104-185.6-93.312-185.6l0-44.768 
		C 286.016,63.936, 373.024,486.304, 157.312,486.304z M 426.080,486.304c-51.52,0-93.312-42.976-93.312-96s 41.792-96, 93.312-96c 93.28,0, 31.104-185.6-93.312-185.6
		l0-44.768 C 554.816,63.936, 641.824,486.304, 426.080,486.304z"  />
<glyph unicode="&#xe022;" d="M 600.64,278.4l-256.768,256.992c-13.12,13.632-34.592,13.632-47.712,0L 39.36,278.4c-13.152-13.6-8.256-24.768, 10.88-24.768l 53.536,0 l0-197.376 
		c0-14.24, 0.608-25.888, 26.368-25.888l 124.64,0 l0,198.016 l 130.4,0 l0-198.016 l 130.848,0 c 19.648,0, 20.192,11.616, 20.192,25.888l0,197.376 l 53.504,0 
		C 608.832,253.632, 613.76,264.768, 600.64,278.4z"  />
<glyph unicode="&#xe023;" d="M 512,544L 255.36,544 C 220.16,544, 192,515.84, 192,480.64L 192,224 c0-35.2, 28.8-64, 64-64l 256,0 c 35.2,0, 64,28.8, 64,64L 576,480 C 576,515.2, 547.2,544, 512,544z M 512,224L 256,224 L 256,480 l 256,0 L 512,224 z M 128,288L 64,288 l0-192 
		c0-35.2, 28.8-64, 64-64l 192,0 l0,64 L 128,96 L 128,288 z"  />
<glyph unicode="&#xe024;" d="M 561.44,113.024l-120.928,120.928c 18.24,29.984, 28.736,65.12, 28.736,102.784c0,109.312-94.752,204.064-204.096,204.064
		C 155.84,540.8, 67.2,452.16, 67.2,342.848c0-109.344, 94.72-204.096, 204.064-204.096c 36.352,0, 70.4,9.856, 99.68,26.976l 121.568-121.6
		c 11.936-11.904, 31.2-11.904, 43.072,0l 30.176,30.144C 577.632,86.176, 573.312,101.152, 561.44,113.024z M 128.128,342.848
		c0,75.68, 61.344,137.056, 137.024,137.056c 75.712,0, 143.168-67.456, 143.168-143.168s-61.344-137.056-137.056-137.056S 128.128,267.136, 128.128,342.848z"  />
<glyph unicode="&#xe025;" d="M 547.68,515.712c-53.632,53.6-120.928,73.216-142.368,51.776L 319.040,481.184C 305.952,468.096, 294.528,424.288, 299.776,379.968l-261.152-261.184
		c-15.488-15.456-2.944-53.12, 28.032-84.096c 30.976-31.008, 68.672-43.52, 84.128-28.064l 261.152,261.152c 44.352-5.248, 88.16,6.176, 101.216,19.264
		l 86.304,86.304C 620.896,394.784, 601.28,462.080, 547.68,515.712z M 260.512,254.72C 248.576,266.624, 252.48,289.824, 269.12,306.496s 39.84,20.544, 51.776,8.64
		c 11.872-11.904, 8.032-35.104-8.64-51.776C 295.584,246.688, 272.416,242.816, 260.512,254.72z M 476.512,444.512c-41.536,41.536-51.968,96.32-48.288,100.032
		c 3.712,3.712, 56.352-8.896, 97.92-50.432c 41.536-41.536, 53.984-94.304, 50.4-97.888S 518.016,402.976, 476.512,444.512z"  />
<glyph unicode="&#xe026;" d="M 48,383.936l 544,0 c 18.24,0, 15.264,19.456, 6.176,22.624C 589.088,409.728, 488,447.936, 470.4,447.936l-28.8,0 l0,96 L 198.4,543.936 l0-96 L 169.6,447.936 
		c-17.6,0-118.688-38.208-127.776-41.376C 32.736,403.392, 29.728,383.936, 48,383.936z M 598.4,348.736L 41.6,348.736 c-17.6,0-35.2-20.8-35.2-38.4l0-112 
		c0-17.6, 17.6-38.4, 35.2-38.4l 63.424,0 l-28.224-160l 486.4,0 l-28.224,160L 598.4,159.936 c 17.6,0, 35.2,20.8, 35.2,38.4l0,112 C 633.6,327.936, 616,348.736, 598.4,348.736z
		 M 140.8,63.936l 44.8,208l 268.8,0 l 44.768-208L 140.8,63.936 z"  />
<glyph unicode="&#xe027;" d="M 468.8,335.584c-72.96,157.024-110.88,216.672-230.112,214.176c-42.464-0.864-32.256,30.752-64.64,18.752
		C 141.696,556.544, 169.472,538.976, 136.352,511.808c-92.864-76.224-84.32-146.752-41.248-314.88c 18.176-70.784-43.744-74.272-19.264-142.912
		c 17.888-50.016, 149.728-71.008, 288.832-19.36c 139.104,51.584, 226.88,154.016, 208.992,204.096C 549.184,307.36, 499.552,269.472, 468.8,335.584z M 349.568,76.928
		c-124.192-46.080-226.304-18.976-230.624-6.944c-7.424,20.768, 40.096,90.112, 182.112,142.816c 142.016,52.704, 221.28,33.152, 229.568,9.952
		C 535.52,209.056, 473.824,123.040, 349.568,76.928z M 309.664,188.736c-64.96-24.096-110.080-51.648-139.296-76.48
		c 20.576-18.688, 59.072-23.232, 97.472-8.992c 48.864,18.144, 78.88,59.776, 67.008,92.96c-0.128,0.416-0.352,0.768-0.512,1.152
		C 326.336,194.784, 318.112,191.904, 309.664,188.736z"  />
<glyph unicode="&#xe028;" d="M 251.488,137.792l-25.92-25.728c-22.464-22.24-58.976-22.272-81.408,0c-10.784,10.72-16.704,24.896-16.704,40.032
		s 5.952,29.344, 16.704,40.064l 95.36,94.624c 19.744,19.616, 56.928,48.448, 84.032,21.568c 12.448-12.352, 32.544-12.256, 44.864,0.16
		c 12.352,12.416, 12.288,32.512-0.16,44.864c-46.048,45.696-114.144,37.248-173.44-21.568l-95.36-94.624C 76.608,214.464, 64,184.256, 64,152.096
		c0-32.128, 12.608-62.336, 35.488-85.056C 123.040,43.648, 153.952,32, 184.864,32s 61.888,11.648, 85.44,35.040l 25.92,25.76
		c 12.448,12.352, 12.512,32.448, 0.16,44.832C 284.032,150.048, 263.936,150.112, 251.488,137.792z M 540.512,505.312
		c-49.472,49.088-118.624,51.744-164.448,6.304l-32.288-32.032c-12.448-12.352-12.544-32.416-0.192-44.864c 12.384-12.448, 32.448-12.512, 44.864-0.16
		l 32.288,32.032c 23.712,23.552, 54.784,13.792, 75.072-6.304c 10.784-10.688, 16.704-24.928, 16.704-40.032c0-15.136-5.952-29.344-16.704-40.032
		l-101.76-100.928c-46.496-46.144-68.352-24.512-77.664-15.264c-12.448,12.352-32.512,12.256-44.832-0.16c-12.352-12.448-12.288-32.544, 0.16-44.864
		c 21.344-21.184, 45.76-31.68, 71.296-31.68c 31.296,0, 64.352,15.744, 95.776,46.944l 101.728,100.928C 563.392,357.888, 576,388.096, 576,420.224
		S 563.392,482.592, 540.512,505.312z"  />
<glyph unicode="&#xe029;" d="M 591.552,458.24C 226.496,312.096, 374.368,705.44, 91.232,498.368L 32,477.12L 149.312,16l 64.608,0 L 156.48,241.856
		c 252.608,211.776, 150.336-230.752, 449.152,203.424C 612.576,455.36, 603.296,462.944, 591.552,458.24z"  />
<glyph unicode="&#xe02a;" d="M 537.12,288c0,33.536, 20.64,60, 51.68,78.176c-5.632,18.688-12.992,36.64-22.112,53.504c-34.88-9.12-63.072,4.544-86.752,28.224
		c-23.744,23.712-31.008,51.936-21.888,86.752c-16.864,9.12-34.752,16.576-53.504,22.144C 386.368,525.728, 353.504,505.088, 320,505.088
		c-33.504,0-66.336,20.64-84.544,51.712C 216.704,551.232, 198.816,543.776, 181.952,534.688C 191.040,499.84, 183.808,471.616, 160.096,447.904
		C 136.384,424.224, 108.16,410.56, 73.344,419.648C 64.224,402.816, 56.8,384.864, 51.2,366.176C 82.272,348, 102.912,321.536, 102.912,288
		c0-33.504-20.64-66.368-51.712-84.576c 5.6-18.72, 13.024-36.64, 22.144-53.504c 34.848,9.12, 63.040,1.856, 86.752-21.856
		c 23.712-23.712, 30.944-51.904, 21.856-86.752c 16.864-9.12, 34.784-16.576, 53.504-22.144c 18.208,31.104, 51.040,51.712, 84.544,51.712
		c 33.504,0, 66.4-20.64, 84.576-51.712c 18.752,5.6, 36.64,13.024, 53.504,22.144c-9.12,34.848-1.888,63.040, 21.888,86.752
		c 23.68,23.68, 51.872,37.344, 86.752,28.256c 9.12,16.864, 16.512,34.784, 22.112,53.504C 557.76,228.032, 537.12,254.496, 537.12,288z M 320,171.104
		c-64.544,0-116.864,52.352-116.864,116.896S 255.456,404.896, 320,404.896c 64.576,0, 116.896-52.352, 116.896-116.896S 384.576,171.104, 320,171.104z"  />
<glyph unicode="&#xe02b;" d="M 100.288,387.52C 130.176,410.72, 154.944,394.752, 188,356.48C 191.744,352.192, 196.736,357.216, 199.552,359.68c 2.816,2.496, 46.464,41.728, 48.576,43.552
	C 250.272,405.12, 252.832,408.64, 249.44,412.576s-15.808,20-23.776,30.4c-57.856,75.68, 158.272,127.008, 125.056,127.808
	c-16.864,0.448-84.672,1.216-94.784,0.16C 214.88,566.592, 163.328,528.224, 137.376,510.368c-33.92-23.328-46.624-36.864-48.704-38.752
	c-9.6-8.416-1.536-27.744-18.944-43.008C 51.328,412.48, 39.872,424.672, 29.216,415.328c-5.312-4.672-20.064-15.712-24.32-19.456
	C 0.672,392.16-0.096,385.856, 4.224,380.8c0,0, 40.416-44.672, 43.84-48.608C 51.456,328.256, 60.576,324.928, 66.24,329.92
	c 5.664,4.96, 20.192,17.728, 22.656,19.904C 91.392,351.968, 87.296,377.44, 100.288,387.52z M 282.976,371.008c-3.84,4.448-8.576,4.544-12.704,0.896
	L 224.352,331.872c-3.584-3.2-4.064-9.088-0.832-12.8l 265.408-302.016c 6.176-7.168, 16.928-7.904, 24.064-1.696l 31.072,25.984
	c 7.072,6.208, 7.808,17.088, 1.632,24.224L 282.976,371.008z M 636.864,499.552c-2.368,15.808-10.56,12.48-14.816,5.76
	c-4.192-6.688-23.072-35.232-30.816-48.128c-7.68-12.864-26.56-38.112-61.888-13.184c-36.736,25.984-23.936,44.128-17.568,56.32
	c 6.432,12.256, 26.176,46.56, 29.056,50.88c 2.816,4.32-0.512,16.864-11.872,11.616c-11.424-5.28-80.736-32.832-90.368-72.32
	c-9.824-40.224, 8.256-76.128-27.2-111.808l-42.944-44.8l 43.136-50.176l 52.928,50.272c 12.64,12.672, 39.552,24.992, 63.936,19.456
	c 52.256-11.84, 80.736,7.808, 97.952,40.224C 641.824,422.688, 639.264,483.744, 636.864,499.552z M 87.68,62.368c-6.656-6.72-6.656-17.6,0-24.288
	l 30.432-29.76c 6.656-6.688, 17.216-3.872, 23.872,2.816l 157.024,154.4L 250.88,220.352L 87.68,62.368z"  />
<glyph unicode="&#xe02c;" d="M 357.792,148.672c0,46.432, 35.2,72.096, 92.608,110.112C 520.64,305.344, 608,363.264, 608,500.672c0,12.384-10.112,22.4-22.624,22.4l-109.792,0 
		C 460.064,551.744, 413.888,582.4, 320,582.4c-93.856,0-140.064-30.656-155.552-59.328L 54.656,523.072 C 42.144,523.072, 32,513.056, 32,500.672
		c0-137.408, 87.392-195.328, 157.632-241.856c 57.44-38.016, 92.64-63.68, 92.64-110.112l0-41.952 c-60.32-6.72-104.64-29.024-104.64-55.552
		c0-31.808, 63.744-57.6, 142.368-57.6c 78.656,0, 142.4,25.792, 142.4,57.6c0,26.528-44.32,48.832-104.64,55.552L 357.76,148.672 z M 446.624,310.4
		c 18.176,38.4, 32.544,90.464, 34.848,167.872l 80.288,0 C 554.112,391.904, 502.176,348.256, 446.624,310.4z M 320,543.168c 87.424,0.032, 121.6-35.712, 121.568-48.96
		c0-13.344-34.080-49.056-121.568-49.12C 232.576,445.184, 198.464,480.864, 198.464,494.208C 198.432,507.456, 232.576,543.232, 320,543.168z M 78.272,478.272l 80.256,0 
		C 160.864,400.864, 175.232,348.8, 193.376,310.4C 137.824,348.256, 85.92,391.904, 78.272,478.272z"  />
<glyph unicode="&#xe02d;" d="M 617.312,595.008c-3.456,10.080-14.368,15.392-24.352,11.904s-15.232-14.528-11.744-24.64c 29.44-85.44-28.992-149.248-73.504-183.392
		l-18.016,26.048c-6.016,8.704-19.584,15.968-30.080,16.128l-100.96-0.48c-10.496,0.16-26.112-4.704-34.752-10.784l-297.472-210.816
		c-14.4-10.208-17.952-30.304-7.84-44.896l 135.232-195.424c 10.080-14.592, 26.304-12.832, 40.704-2.656l 297.472,210.848
		c 8.64,6.080, 18.464,19.328, 21.952,29.376l 31.616,100.672c 3.424,10.048, 1.344,25.408-4.672,34.112l-11.008,15.872
		C 589.696,413.12, 651.776,494.944, 617.312,595.008z M 478.912,295.616c-23.072-16.352-54.848-10.656-71.008,12.672
		c-16.128,23.328-10.528,55.488, 12.544,71.84c 18.304,12.992, 42.080,12.032, 59.2-0.576c-8.64-5.248-14.528-8.256-15.648-8.8
		c-9.536-4.544-13.632-16.064-9.12-25.728c 3.264-7.008, 10.112-11.136, 17.312-11.136c 2.72,0, 5.504,0.608, 8.128,1.856
		c 6.112,2.912, 12.736,6.464, 19.616,10.592C 503.008,327.36, 495.52,307.392, 478.912,295.616z"  />
<glyph unicode="&#xe02e;" d="M 320,352c-52.992,0-96-43.008-96-96c0-53.024, 43.008-96, 96-96c 53.024,0, 96,42.976, 96,96C 416,308.992, 373.024,352, 320,352z M 576,448l-76.768,0 
		c-10.56,0-21.952,8.192-25.28,18.208l-19.84,59.552C 450.72,535.808, 439.36,544, 428.8,544L 211.2,544 C 200.64,544, 189.248,535.808, 185.952,525.792L 166.048,466.208
		C 162.72,456.192, 151.36,448, 140.8,448L 64,448 C 28.8,448,0,419.2,0,384l0-288 c0-35.2, 28.8-64, 64-64l 512,0 c 35.232,0, 64,28.8, 64,64L 640,384 C 640,419.2, 611.232,448, 576,448z M 320,96
		c-88.384,0-160,71.616-160,160c0,88.352, 71.616,160, 160,160c 88.352,0, 160-71.648, 160-160C 480,167.616, 408.352,96, 320,96z M 553.6,339.264
		c-12.352,0-22.368,10.016-22.368,22.4s 10.016,22.4, 22.368,22.4c 12.384,0, 22.4-10.016, 22.4-22.4S 565.984,339.264, 553.6,339.264z"  />
<glyph unicode="&#xe02f;" d="M 551.136,383.072c-50.656,117.92-132.224,207.712-173.472,190.912c-70.048-28.48, 41.76-165.248-302.272-305.088
	c-29.728-12.064-37.248-60.416-24.8-89.312c 12.416-28.896, 53.056-57.664, 82.784-45.6c 5.12,2.080, 24.032,8.16, 24.032,8.16
	c 21.216-28.48, 43.424-11.584, 51.328-29.696c 9.472-21.76, 30.048-69.024, 37.024-85.088c 7.040-16.064, 22.912-30.976, 34.432-26.592
	c 11.456,4.384, 50.592,19.296, 65.568,24.96s 18.56,19.040, 13.984,29.568c-4.928,11.328-25.152,14.656-30.912,27.904
	c-5.792,13.248-24.64,55.648-30.048,69.024c-7.36,18.176, 8.288,32.96, 31.040,35.328c 156.608,16.32, 185.888-80.416, 239.2-58.72
	C 610.176,145.664, 601.792,265.152, 551.136,383.072z M 533.504,191.808c-9.152-3.712-70.784,44.864-110.176,136.544
	c-39.36,91.648-34.4,175.424-25.28,179.136c 9.152,3.744, 69.28-54.912, 108.672-146.56C 546.048,269.312, 542.656,195.52, 533.504,191.808z"  />
<glyph unicode="&#xe030;" d="M 392.64,215.36C 301.856,124.608, 164.352,109.184, 57.6,168.96c 12.32-21.952, 27.712-42.624, 46.4-61.312c 109.44-109.44, 286.88-109.44, 396.32,0
		c 109.44,109.472, 109.44,286.912,0,396.352c-18.688,18.688-39.328,34.080-61.312,46.4C 498.816,443.648, 483.36,306.144, 392.64,215.36z"  />
<glyph unicode="&#xe031;" d="M 555.264,461.92c-99.328,66.048-210.848,88.864-343.104,50.976c-103.232-29.6-197.856-147.008-205.184-247.552
		c-8.672-118.88, 83.936-220.672, 246.976-220.512c 175.808,0.192, 241.6,84.608, 243.072,110.24c 1.44,25.664-68.608,73.088-23.52,121.856
		c 56.48,61.088, 106.752,9.024, 137.216,16.384C 641.184,300.608, 656.608,394.464, 555.264,461.92z M 351.296,163.744c-26.592,0-48.16,21.504-48.16,48
		c0,26.528, 21.568,48, 48.16,48s 48.128-21.472, 48.128-48C 399.392,185.248, 377.888,163.744, 351.296,163.744z"  />
<glyph unicode="&#xe032;" d="M 170.24,476.672C 47.936,405.696, 54.976,290.112, 59.2,247.36c 157.984,187.104, 394.272,178.016, 394.272,178.016S 118.496,310.528, 20.096,80.128
		c-7.744-18.24, 36.48-41.888, 46.56-20.384c 30.112,64.064, 72.096,112.128, 72.096,112.128c 61.952-23.072, 169.056-50.048, 245.024,3.36
		c 100.832,71.008, 90.528,228.352, 234.528,304.96C 651.936,498.112, 336.064,572.896, 170.24,476.672z"  />
<glyph unicode="&#xe033;" d="M 377.568,569.632l-51.328,0 l0-418.304 c-28.384,10.944-65.12,11.104-101.344-2.080c-64.896-23.616-103.584-81.088-86.4-128.32
		c 17.216-47.264, 83.776-66.4, 148.672-42.784c 55.136,20.064, 91.2,64.544, 90.304,106.4l 0.096,342.080c 89.504-14.080, 95.616-127.264, 84.896-159.008
		c-4.096-12.032, 3.104-21.024, 16.64,0C 575.584,417.792, 377.568,484, 377.568,569.632z"  />
<glyph unicode="&#xe034;" d="M 195.52,520.672l0-379.744c-20.672,4.32-44.736,2.688-68.608-6.144c-53.664-19.936-72.608-68.48-58.368-108.352
	c 14.208-39.904, 56.224-56.032, 109.888-36.096c 45.568,16.928, 75.424,54.432, 74.656,89.824c0,0,0,201.376,0,313.696l 227.232,52.064l0-240.96 
	c-20.672,4.32-44.736,2.688-68.608-6.144c-53.696-19.936-72.64-68.48-58.4-108.352c 14.24-39.904, 56.224-56.032, 109.92-36.096
	c 45.6,16.928, 75.392,54.432, 74.688,89.824L 537.92,594.24 L 195.52,520.672z"  />
<glyph unicode="&#xe035;" d="M 598.080,212.928l-55.264,49.28c-16,14.272-16,37.568,0,51.84l 55.264,49.248c 16,14.272, 11.712,27.552-9.504,29.568l-73.248,6.944
	c-21.216,2.016-32.64,20.256-25.344,40.544l 38.88,108.224c 7.296,20.288-1.632,27.68-19.808,16.416l-86.432-53.44
	c-18.176-11.264-41.664-5.12-52.192,13.664l-31.328,55.872c-10.496,18.784-27.904,18.88-38.624,0.224L 271.392,530.688
	C 260.672,512.032, 236.032,504.064, 216.64,512.992l-51.2,23.52C 146.016,545.408, 131.104,535.104, 132.256,513.536L 135.040,461.856
	c 1.152-21.536-14.752-43.744-35.328-49.28L 50.272,399.296C 29.696,393.728, 25.92,377.536, 41.92,363.264l 55.264-49.248c 16-14.24, 16-37.568,0-51.808
	L 41.92,212.992c-16-14.304-11.776-28.064, 9.376-30.624l 67.040-8.128c 21.152-2.624, 32.96-21.504, 26.208-41.952l-34.4-104.256
	c-6.752-20.512, 2.88-28.512, 21.376-17.76l 78.816,45.568c 18.528,10.752, 43.392,4.8, 55.296-13.056l 32.736-49.184
	c 11.872-17.952, 29.76-16.928, 39.648,2.176l 28.768,55.424c 9.952,19.136, 33.696,26.944, 52.768,17.376l 55.488-27.744
	c 19.136-9.568, 33.824,0.256, 32.672,21.824l-2.784,51.68c-1.152,21.568, 14.752,43.744, 35.328,49.312l 49.408,13.248
	C 610.304,182.496, 614.080,198.688, 598.080,212.928z M 352,153.76L 288,153.76 l0,67.2 l 64,0 L 352,153.76 z M 352,256.128L 288,256.128 l0,166.4 l 64,0 L 352,256.128 z"  />
<glyph unicode="&#xe036;" d="M 105.664,216.384c 14.848-60.192, 33.728-86.432, 96.704-113.984C 265.376,74.88, 295.296,44.8, 320,44.8s 52.704,26.304, 115.712,53.888
	c 63.008,27.488, 46.208,35.936, 61.056,96.064L 320,108.8L 105.664,216.384z M 624.352,373.248l-266.4,149.184c-20.864,11.68-55.008,11.68-75.872,0
	L 15.648,373.248c-20.864-11.68-20.864-30.816,0-42.496l 266.4-149.184c 20.864-11.68, 55.008-11.68, 75.872,0l 172.224,96.448l-186.752,43.744
	C 336.224,319.968, 328.32,318.976, 320,318.976c-33.632,0-60.896,16.224-60.896,36.224S 286.368,391.456, 320,391.456c 26.112,0, 48.352-9.824, 56.992-23.552
	l 197.792-64.896l 49.568,27.744C 645.216,342.432, 645.216,361.568, 624.352,373.248z M 542.944,90.496c-2.016-12.256, 41.056-32.512, 45.152,3.488
	c 18.528,162.272-13.312,208.992-13.312,208.992l-44.64-24.992C 530.144,278.016, 568,241.984, 542.944,90.496z"  />
<glyph unicode="&#xe037;" d="M 532.736,443.424L 244.8,591.872C 205.344,612.64, 127.584,572.512, 105.248,537.184C 95.296,521.376, 96,509.984, 96,503.52l 3.552-335.2
	c 0.224-7.136, 9.216-16.704, 16.864-21.44c 15.968-9.792, 257.92-160.8, 264.736-165.088c 3.68-2.304, 8.064-3.36, 12.352-3.36
	c 3.648,0, 7.328,0.8, 10.656,2.464C 411.456-15.52, 416-8.608, 416-1.024L 416,351.008 c0,7.328-4.288,14.080-11.264,17.76L 143.040,514.88
	C 145.984,520.64, 157.632,532.8, 179.040,544C 201.6,555.84, 218.464,551.36, 222.336,549.856c0,0, 251.2-134.432, 258.88-138.432c 7.648-4, 7.808-4.608, 7.808-11.424
	c0-6.848,0-334.080,0-334.080c0-16.672, 16.896-23.488, 29.344-23.488c 12.384,0, 25.632,12.16, 25.632,23.488L 544,425.664 
	C 544,432.992, 539.68,439.776, 532.736,443.424z"  />
<glyph unicode="&#xe038;" d="M 512,576L 128,576 C 92.8,576, 64,547.2, 64,512l0-448 c0-35.2, 28.8-64, 64-64l 384,0 c 35.232,0, 64,28.8, 64,64L 576,512 C 576,547.2, 547.232,576, 512,576z M 512,64L 128,64 L 128,512 l 384,0 L 512,64 z M 352,224L 192,224 l0-32 l 160,0 
	L 352,224 z M 448,352l-128,0 l0-32 l 128,0 L 448,352 z M 320,384l 128,0 L 448,448 l-128,0 L 320,384 z M 288,448L 192,448 l0-128 l 96,0 L 288,448 z M 256,288L 192,288 l0-32 l 64,0 L 256,288 z M 288,256l 160,0 l0,32 L 288,288 L 288,256 z M 448,160L 192,160 l0-32 l 256,0 L 448,160 z M 384,192l 64,0 l0,32 l-64,0 L 384,192 z"  />
<glyph unicode="&#xe039;" d="M 579.904,490.656c-9.472,8.192-60.992,47.2-70.624,55.488S 484.608,556.8, 473.984,556.8L 166.016,556.8 c-10.592,0-25.664-2.336-35.264-10.656
		c-9.632-8.32-61.152-47.328-70.624-55.488S 42.752,470.144, 45.28,452.544c 2.528-17.6, 61.984-415.136, 61.984-415.136
		C 110.592,27.392, 121.984,19.2, 132.608,19.2l 374.816,0 c 10.624,0, 22.016,8.224, 25.344,18.208c0,0, 59.424,397.536, 61.984,415.136
		C 597.248,470.144, 589.376,482.464, 579.904,490.656z M 320,212.224c-103.936,0-126.176,147.104-130.784,177.408L 248,389.632 c 8.864-44.224, 28.992-119.808, 72-119.808
		s 63.168,75.584, 72.032,119.808l 58.752,0 C 446.176,359.328, 423.936,212.224, 320,212.224z M 94.816,448l 70.592,73.6l 309.184,0 L 545.184,448L 94.816,448 z"  />
<glyph unicode="&#xe03a;" d="M 171.2-28.16l 64,0 l 143.616,256.032L 544,227.872 c0,0, 96,0, 96,44.768c0,44.8-96,44.8-96,44.8l-165.184,0 l-143.616,256l-64,0 l 79.616-256L 136.032,317.44 L 64,381.472L0,381.472 l 51.232-108.8
		L0,163.84l 64,0 l 72.032,64.032l 114.784,0 L 171.2-28.16z"  />
<glyph unicode="&#xe03b;" d="M 316.064,582.368c-162.56-2.176-292.608-135.712-290.432-298.304c 2.176-162.624, 135.744-292.608, 298.304-290.464
		c 162.592,2.176, 292.64,135.744, 290.432,298.304C 612.192,454.528, 478.624,584.544, 316.064,582.368z M 316.608,544c 43.84,0.608, 85.248-9.92, 121.6-28.832
		l-39.616-66.048C 374.848,460.672, 348.192,467.2, 320,467.2c-28.16,0-54.816-6.528-78.56-18.112L 201.856,515.104C 236.224,533.024, 275.2,543.424, 316.608,544z
		 M 158.912,209.44l-65.984-39.552c-17.92,34.336-28.32,73.312-28.864,114.688c-0.608,43.872, 9.92,85.28, 28.832,121.6l 66.016-39.648
		C 147.328,342.816, 140.8,316.192, 140.8,288C 140.8,259.84, 147.328,233.184, 158.912,209.44z M 323.424,32.032c-43.84-0.608-85.28,9.92-121.6,28.832l 39.616,66.048
		C 265.184,115.328, 291.84,108.8, 320,108.8c 28.192,0, 54.848,6.496, 78.56,18.080l 39.584-65.984C 403.776,43.008, 364.832,32.608, 323.424,32.032z
		 M 320,147.232c-77.76,0-140.768,63.040-140.768,140.768c0,77.76, 63.040,140.8, 140.768,140.8c 77.792,0, 140.8-63.040, 140.8-140.8
		C 460.8,210.24, 397.792,147.232, 320,147.232z M 481.088,209.44c 11.584,23.744, 18.112,50.4, 18.112,78.56c0,28.192-6.528,54.816-18.112,78.56
		l 65.984,39.616c 17.92-34.368, 28.352-73.312, 28.896-114.72c 0.576-43.872-9.952-85.28-28.864-121.6L 481.088,209.44z"  />
<glyph unicode="&#xe03c;" d="M 320,467.2C 110.048,467.2,0,312.544,0,288s 110.048-179.2, 320-179.2s 320,154.656, 320,179.2S 529.952,467.2, 320,467.2z M 320,150.144
		c-78.528,0-142.208,61.728-142.208,137.856S 241.472,425.856, 320,425.856c 78.56,0, 142.24-61.728, 142.24-137.856S 398.56,150.144, 320,150.144z M 320,288
		c-12.992,14.272, 21.248,68.896,0,68.896c-39.264,0-71.104-30.848-71.104-68.896S 280.736,219.072, 320,219.072c 39.296,0, 71.136,30.88, 71.136,68.928
		C 391.136,305.472, 331.104,275.84, 320,288z"  />
<glyph unicode="&#xe03d;" d="M 320,582.4c-162.592,0-294.4-131.84-294.4-294.4c0-162.592, 131.808-294.4, 294.4-294.4s 294.4,131.808, 294.4,294.4C 614.4,450.592, 482.592,582.4, 320,582.4z M 320,57.6
			c-127.264,0-230.4,103.168-230.4,230.4S 192.736,518.4, 320,518.4s 230.4-103.168, 230.4-230.4S 447.264,57.6, 320,57.6zM 342.4,454.4L 297.6,454.4L 297.6,278.72L 406.56,169.76L 438.24,201.44L 342.4,297.28 		z"  />
<glyph unicode="&#xe03e;" d="M 512,376.224l-19.2,0 c-7.072,0-12.8-5.76-12.8-12.8L 480,275.2 c0-42.784-33.696-115.2-160-115.2s-160,72.416-160,115.2L 160,363.424 c0,7.040-5.792,12.8-12.8,12.8L 128,376.224 
			c-7.040,0-12.8-5.76-12.8-12.8L 115.2,275.2 c0-71.584, 52.608-148.16, 172.8-158.72L 288,32 L 204.768,32 C 197.76,32, 192,26.24, 192,19.2L 192-19.2 C 192-26.24, 197.76-32, 204.768-32l 230.4,0 
			c 7.072,0, 12.8,5.76, 12.8,12.8L 447.968,19.2 c0,7.072-5.76,12.8-12.8,12.8L 352,32 l0,84.48 c 120.224,10.56, 172.8,87.168, 172.8,158.72L 524.8,363.424 
			C 524.8,370.464, 519.040,376.224, 512,376.224zM 320,224c 75.104,0, 96,30.848, 96,51.2L 416,376.224 L 224,376.224 L 224,275.2 C 224,254.848, 244.896,224, 320,224zM 416,556.8C 416,577.184, 395.104,608, 320,608S 224,577.184, 224,556.8l0-135.776 l 192,0 L 416,556.8 z"  />
<glyph unicode="&#xe03f;" d="M 544,512l-28.8,0 l0-64 L 412.8,448 L 412.8,512 L 227.2,512 l0-64 L 124.8,448 L 124.8,512 L 96,512 C 60.8,512, 32,483.2, 32,448l0-384 c0-35.2, 28.8-64, 64-64l 448,0 c 35.2,0, 64,28.8, 64,64L 608,448 C 608,483.2, 579.2,512, 544,512z M 544,64L 96,64 
		L 96,320 l 448,0 L 544,64 z M 198.4,576L 153.6,576 l0-108.8 l 44.8,0 L 198.4,576 z M 486.4,576l-44.8,0 l0-108.8 l 44.8,0 L 486.4,576 z"  />
<glyph unicode="&#xe040;" d="M 217.696,0.032c-6.176,4.064, 100.928,229.12, 97.216,239.008c-3.68,9.888-117.248,45.984-122.816,63.36
		c-5.536,17.376, 224.256,278.592, 230.272,273.536c 6.016-5.024-100.128-231.616-97.216-238.976s 119.328-44.992, 122.816-63.328
		C 451.456,255.232, 223.872-4, 217.696,0.032z"  />
<glyph unicode="&#xe041;" d="M 486.816,363.552c-8.8,0-17.472-0.768-25.888-2.176c-20.992,68.64-86.016,118.656-163.072,118.656c-94.016,0-170.208-74.496-170.208-166.4
	c0-8.192, 0.64-16.256, 1.824-24.16C 124.96,289.984, 120.416,290.336, 115.744,290.336C 51.84,290.336,0,239.648,0,177.184c0-62.496, 51.84-113.152, 115.744-113.152
	l 371.072,0 c 84.64,0, 153.184,67.072, 153.184,149.76C 640,296.48, 571.424,363.552, 486.816,363.552z M 363.904,225.6c-15.84-22.528-83.68-92.448-86.56-95.392
	c-3.328-4.096-12.512-10.976-21.216-5.312c-2.496,1.632-5.504,4.896-5.504,11.328c0,6.176, 2.816,12.48, 3.168,13.184l 33.056,73.152
	c-6.208,2.464-16.864,6.784-25.152,10.4L 259.488,233.92c-8.384,3.52-18.816,7.968-18.816,19.456c0,5.472, 2.624,11.872, 7.968,19.488
	c 15.84,22.528, 83.68,92.416, 86.56,95.392c 3.328,4.096, 12.48,10.976, 21.216,5.344c 2.496-1.632, 5.504-4.896, 5.504-11.328
	c0-6.176-2.816-12.48-3.168-13.184l-33.056-73.152c 6.208-2.496, 16.864-6.816, 25.152-10.4l 2.176-0.928c 8.384-3.552, 18.816-8, 18.816-19.488
	C 371.872,239.584, 369.248,233.216, 363.904,225.6z"  />
<glyph unicode="&#xe042;" d="M 326.496,590.048c-0.832,6.848-12.16,6.848-12.992,0C 285.248,362.592, 140.8,315.712, 140.8,157.632c0-97.632, 82.016-176.8, 179.2-176.8
	c 97.184,0, 179.2,79.2, 179.2,176.8C 499.2,315.712, 354.752,362.592, 326.496,590.048z M 299.232,338.624c-1.92-7.008-3.936-14.24-6.016-21.664
	c-12.832-45.568-27.392-97.248-27.392-156.992c0-32.384-19.136-43.872-37.024-43.872c-20.416,0-36.992,16.672-36.992,37.312
	c0,70.624, 34.016,116.736, 64.032,157.44c 9.408,12.736, 18.272,24.768, 25.504,36.8c 3.296,5.472, 12.192,5.248, 16.224-0.192
	C 299.392,344.832, 300.032,341.632, 299.232,338.624z"  />
<glyph unicode="&#xe043;" d="M 320,582.4c-162.592,0-294.4-131.808-294.4-294.4s 131.808-294.4, 294.4-294.4s 294.4,131.808, 294.4,294.4S 482.592,582.4, 320,582.4z M 320,192c-53.024,0-96,43.008-96,96
	c0,53.024, 42.976,96, 96,96c 52.992,0, 96-43.008, 96-96C 416,235.008, 372.992,192, 320,192z"  />
<glyph unicode="&#xe044;" d="M 291.2,255.936L 348.8,255.936 l0-64 L 640,191.936 c0,0-4.736,142.656-6.4,187.328c-1.568,42.432-16.736,68.672-64,68.672l-102.656,0 
	c-15.904,29.984-33.024,62.24-38.272,72.16c-10.592,19.968-14.208,23.84-37.76,23.84L 249.088,543.936 c-23.552,0-27.168-3.872-37.76-23.84
	C 206.080,510.176, 188.96,477.92, 173.056,447.936L 70.4,447.936 c-47.264,0-62.24-26.24-64-68.672S0,191.936,0,191.936l 291.2,0 L 291.2,255.936 z M 244.8,482.656
	c 7.328,13.824, 9.856,16.512, 26.112,16.512l 98.144,0 c 16.32,0, 18.816-2.688, 26.112-16.512c 2.752-5.184, 10.176-19.2, 18.432-34.688L 226.4,447.968 
	C 234.624,463.424, 242.048,477.44, 244.8,482.656z M 348.8,95.936L 291.2,95.936 l0,64 L 16,159.936 c0,0, 4-57.536, 6.4-106.304c 0.992-20.256, 6.944-53.696, 57.568-53.696
	l 480.064,0 c 50.624,0, 56.448,33.472, 57.568,53.696c 2.784,50.144, 6.4,106.304, 6.4,106.304l-275.2,0 L 348.8,95.936 z"  />
<glyph unicode="&#xe045;" d="M 84.608,404.576c 55.904,48, 100.096,85.984, 219.904,18.24c 57.568-32.544, 104-44.768, 142.656-44.768c 67.68,0, 111.52,37.664, 149.44,70.208
	c 13.536,11.616, 15.296,32.256, 3.904,46.048s-31.552,15.584-45.088,3.968c-55.904-48.032-100.064-85.984-219.936-18.24
	C 177.152,569.472, 102.976,505.76, 43.392,454.56C 29.888,442.944, 28.128,422.336, 39.488,408.544S 71.072,392.928, 84.608,404.576z M 555.392,334.848
	c-55.904-48-100.064-85.984-219.936-18.24C 177.152,406.048, 102.976,342.336, 43.392,291.168c-13.536-11.616-15.296-32.256-3.904-46.048
	s 31.552-15.584, 45.088-3.968c 55.904,48.032, 100.096,85.984, 219.904,18.272c 57.568-32.544, 104-44.8, 142.656-44.8c 67.68,0, 111.52,37.664, 149.44,70.24
	c 13.536,11.616, 15.296,32.224, 3.904,46.016C 589.12,344.704, 568.928,346.464, 555.392,334.848z M 555.392,171.424c-55.904-48-100.064-85.984-219.936-18.24
	c-158.304,89.44-232.512,25.76-292.064-25.44c-13.536-11.616-15.296-32.256-3.904-46.048s 31.552-15.584, 45.088-3.968
	C 140.512,125.76, 184.672,163.68, 304.512,96c 57.568-32.544, 104-44.8, 142.656-44.8c 67.68,0, 111.52,37.664, 149.44,70.24
	c 13.536,11.584, 15.296,32.224, 3.904,46.016S 568.928,183.072, 555.392,171.424z"  />
<glyph unicode="&#xe046;" d="M 499.2,461.504c0,68.48,0,75.168,0,75.168C 499.2,561.952, 418.976,608, 320,608S 140.8,561.952, 140.8,536.672c0,0,0-6.688,0-75.168
		c0-68.48, 124.064-125.024, 124.064-173.504c0-48.512-124.064-105.024-124.064-173.536c0-68.48,0-75.168,0-75.168C 140.8,14.048, 221.024-32, 320-32
		s 179.2,46.048, 179.2,71.328c0,0,0,6.688,0,75.168c0,68.512-124.032,125.024-124.032,173.536C 375.168,336.48, 499.2,393.056, 499.2,461.504z M 190.080,533.472
		c 22.272,14.048, 64.032,34.656, 131.648,34.656c 67.648,0, 128.192-34.656, 128.192-34.656c 4.544-2.752, 22.336-12.288, 10.144-19.488
		c-26.848-15.904-79.328-32.64-140.096-32.64S 208.512,499.808, 181.664,515.712C 169.472,522.944, 190.080,533.472, 190.080,533.472z M 336.032,288
		c0-38.176, 31.872-62.752, 65.664-95.552c 24.672-23.968, 58.4-56.768, 58.4-77.984l0-42.496 c-31.008,15.456-123.872,30.592-123.872,80.128
		c0,25.088-32.448,25.088-32.448,0c0-49.536-92.864-64.672-123.872-80.128l0,42.496 c0,21.184, 33.76,54.016, 58.432,77.984
		C 272.096,225.248, 303.968,249.824, 303.968,288c0,38.176-31.872,62.752-65.632,95.552C 213.664,407.52, 179.904,440.352, 179.904,461.504l-1.504,32
		C 211.232,475.84, 263.296,458.976, 320,458.976s 109.024,16.864, 141.856,34.528l-1.76-32c0-21.152-33.76-53.984-58.4-77.952
		C 367.904,350.752, 336.032,326.176, 336.032,288z"  />
<glyph unicode="&#xe047;" d="M 260.096,166.336c-22.080-38.272-7.232-69.76, 23.392-87.424s 65.344-14.848, 87.424,23.424c 22.080,38.24, 161.504,379.712, 149.376,386.72
	C 508.192,496.064, 282.176,204.608, 260.096,166.336z M 320,409.536c 14.016,0, 27.68-1.216, 40.992-3.456c 14.016,17.536, 29.728,36.864, 44.992,55.264
	C 378.72,469.248, 349.952,473.536, 320,473.536c-179.424,0-320-151.296-320-344.448c0-11.904, 0.544-23.776, 1.568-35.36
	c 1.568-17.6, 17.28-30.56, 34.72-29.024c 17.6,1.6, 30.592,17.12, 29.024,34.72C 64.448,109.12, 64,119.104, 64,129.088
	C 64,286.336, 176.48,409.536, 320,409.536z M 551.008,369.568c-8.928-24-18.368-48.448-26.688-69.6C 556.864,252.928, 576,193.952, 576,129.088
	c0-10.144-0.448-20.352-1.344-30.24c-1.6-17.6, 11.36-33.152, 28.96-34.784c 0.992-0.096, 1.952-0.128, 2.944-0.128
	c 16.352,0, 30.304,12.512, 31.808,29.088C 639.456,104.864, 640,116.992, 640,129.088C 640,223.52, 606.336,307.936, 551.008,369.568z"  />
<glyph unicode="&#xe048;" d="M 632.096,259.808c-19.968,54.656-75.744,87.264-149.184,87.264c-2.848,0-5.632-0.096-8.384-0.224l-0.48,65.984
	c0,0, 109.088,18.848, 112.768,19.488s 4.288,3.808, 3.52,7.36c-0.736,3.552-5.344,28.288-6.016,31.264c-0.896,4.16-3.296,4.064-6.624,3.488
	s-104.032-14.784-104.032-14.784s-0.352,62.528-0.384,66.528c-0.032,4-2.24,5.088-6.208,5.024c-4-0.064-29.472-0.448-32.832-0.512
	c-3.36-0.032-5.216-1.568-5.152-4.768c 0.064-3.2, 1.056-73.792, 1.056-73.792s-97.984-16.928-100.672-17.376s-5.44-1.728-4.8-4.576
	c 0.608-2.848, 6.080-34.976, 6.656-37.504c 0.544-2.528, 2.272-4.064, 5.984-3.424s 93.6,16.16, 93.6,16.16l 1.12-64.576
	c-34.464-9.056-57.632-26.368-72.192-41.696c-24.576-25.824-38.624-60.384-38.624-94.816c0-50.816, 31.040-80.928, 74.464-86.24
	c 101.216-12.384, 163.808,97.888, 184.64,150.848c 35.136-48.16, 8.224-139.328-67.008-191.328c-1.344-0.992-3.104-4.128-1.024-6.624
	s 17.28-21.184, 19.808-24.256c 2.528-3.008, 6.592-1.824, 8.192-0.672C 620.608,101.312, 657.408,190.432, 632.096,259.808z M 395.712,157.824
	c-30.88,3.872-30.176,29.248-30.176,46.496c0,24.736, 10.464,50.56, 28,68.992c 10.752,11.296, 24,19.872, 39.328,25.568l 2.624-136.864
	C 423.232,157.824, 409.984,156.064, 395.712,157.824z M 473.408,175.488l 1.44,131.488c 2.688,0.128, 5.344,0.32, 8.064,0.32
	c 24.736,0, 47.84-4.64, 60.352-11.584C 555.776,288.768, 510.528,208.928, 473.408,175.488z M 186.976,420.864C 186.016,423.872, 183.712,425.472, 180.736,425.472
	l-62.4,0 c-2.944,0-5.28-1.6-6.208-4.608C 98.976,379.296, 0.736,69.12, 0.256,67.552c-0.544-1.696-0.352-2.432, 1.984-2.432l 55.456,0 
	c 2.4,0, 3.168,0.736, 3.616,2.304c 0.512,1.632, 32.288,106.176, 32.288,106.176l 111.872,0 c0,0, 31.776-104.576, 32.256-106.176
	c 0.512-1.568, 1.216-2.304, 3.648-2.304l 55.424,0 c 2.368,0, 2.56,0.736, 1.984,2.432C 298.368,69.12, 200.16,379.296, 186.976,420.864z M 103.264,218.688
	l 46.304,168l 46.272-168L 103.264,218.688 z"  />
<glyph unicode="&#xe049;" d="M 168.736,386.752c 6.432,0, 12.64-0.96, 18.464-2.784C 209.28,408.704, 233.76,431.232, 260.256,451.2C 259.168,455.84, 258.496,460.704, 258.496,465.728
	c0,6.976, 1.152,13.632, 3.264,19.84C 232.096,506.88, 199.776,524.736, 165.472,538.56C 133.248,518.656, 105.184,492.704, 82.816,462.304
	c 16.608-29.408, 36.384-56.832, 58.816-81.824C 149.856,384.48, 159.040,386.752, 168.736,386.752z M 106.112,324.128c0,8.768, 1.824,17.152, 5.088,24.736
	C 91.136,370.944, 72.896,394.752, 56.928,420.16C 36.928,380.416, 25.6,335.52, 25.6,288c0-55.072, 15.168-106.56, 41.472-150.624
	c 9.376,52.96, 27.232,103.040, 51.84,148.928C 110.912,296.8, 106.112,309.888, 106.112,324.128z M 321.12,528.384c 16.576,0, 31.552-6.464, 42.752-16.928
	c 32.672,14.048, 67.104,24.832, 102.912,31.712C 423.552,568.064, 373.472,582.4, 320,582.4c-36.448,0-71.328-6.688-103.52-18.816
	c 25.568-12.64, 49.952-27.328, 72.832-43.968C 298.656,525.152, 309.504,528.384, 321.12,528.384z M 414.816,233.344c 3.904,8.128, 9.44,15.296, 16.288,20.992
	c-18.496,56.896-47.776,108.928-85.504,153.728c-7.52-3.2-15.776-4.96-24.48-4.96c-13.568,0-26.112,4.384-36.384,11.712
	c-22.72-17.248-43.712-36.608-62.816-57.728C 227.872,347.52, 231.36,336.256, 231.36,324.128c0-6.56-0.992-12.832-2.848-18.784
	C 283.456,268.64, 346.688,243.456, 414.816,233.344z M 496.064,148.768c 0.832-11.84, 1.312-23.808, 1.312-35.872c0-21.28-1.376-42.176-3.936-62.752
	c 49.952,36.48, 87.936,88.224, 107.136,148.448c-22.72-5.504-46.016-9.44-69.792-11.712C 525.184,169.76, 512.448,155.872, 496.064,148.768z
	 M 400.128,191.264c-72.672,12.032-140.064,39.744-198.688,79.488c-9.536-5.856-20.672-9.28-32.672-9.28c-4.416,0-8.672,0.48-12.832,1.344
	c-28.064-53.248-46.016-112.64-51.2-175.552c 28.032-30.048, 62.24-54.24, 100.672-70.496C 253.088,90.080, 319.776,150.784, 400.128,191.264z M 517.632,506.176
	c-47.168-4.544-92.224-16.384-134.176-34.176c 0.256-2.048, 0.352-4.16, 0.352-6.272c0-9.888-2.336-19.2-6.432-27.488
	c 41.92-49.216, 74.464-106.56, 95.040-169.312c 25.44-0.48, 47.232-16.064, 56.608-38.24c 28.352,2.88, 55.936,8.32, 82.528,16.128
	C 613.376,260.256, 614.4,273.984, 614.4,288C 614.4,374.528, 577.056,452.352, 517.632,506.176z M 431.648,157.792c-75.040-35.136-137.728-89.248-183.168-155.392
	C 271.36-3.328, 295.328-6.4, 320-6.4c 44.448,0, 86.496,9.888, 124.256,27.488c 6.048,29.664, 9.28,60.352, 9.28,91.808
	c0,11.328-0.544,22.592-1.376,33.76C 444.608,149.056, 437.664,152.864, 431.648,157.792z"  />
<glyph unicode="&#xe04a;" d="M 566.080,456.768c-16.064,95.296-103.040,158.944-194.208,142.112c-91.2-16.8-168.128-90.112-152.064-185.408C 223.296,392.96, 232.864,360.832, 244.224,337.792
	l-165.6-247.136c-6.112-9.12-9.568-25.568-7.744-36.512l 10.656-63.072c 1.856-10.944, 11.936-18.304, 22.4-16.384l 48.512,8.928
	c 10.496,1.952, 23.776,11.168, 29.568,20.512l 65.504,105.92l 0.576,0.672l 44.32,8.192l 76.448,124.096c 25.152-4.448, 61.184-2.944, 82.496,0.992
	C 542.592,260.832, 582.176,361.472, 566.080,456.768z M 485.312,407.936c-25.088-37.408-50.656-11.040-86.496,15.2
	c-35.808,26.208-68.32,42.336-43.232,79.744c 25.088,37.44, 74.432,46.56, 110.272,20.32C 501.696,496.992, 510.4,445.344, 485.312,407.936z"  />
<glyph unicode="&#xe04b;" d="M 493.056,288c0,88.512, 40.864,138.24, 72.864,138.24c 11.648,0, 42.048,0, 42.048,0C 586.624,460.128, 568.96,480, 490.976,480L 170.72,480 
	C 51.232,480,0,369.888,0,288s 51.232-192, 170.72-192l 320.256,0 c 78.016,0, 95.648,19.872, 117.024,53.792c0,0-10.048,0-42.048,0S 493.056,199.52, 493.056,288z
	 M 406.016,230.592c-5.216-8.064-21.6-0.512-21.6-0.512l-94.624,42.752c0,0-8.448-21.408-14.976-36.48s-11.552-32.16-38.688-13.056
	c-27.168,19.104-114.56,104-114.56,104s-11.072,9.056-5.536,17.6C 121.248,352.96, 137.632,345.408, 137.632,345.408l 94.624-42.752
	c0,0, 8.448,21.376, 14.976,36.48C 253.76,354.176, 258.784,371.296, 285.92,352.192c 27.168-19.104, 114.592-104.032, 114.592-104.032S 411.52,239.136, 406.016,230.592z
	 M 604,354.336l-23.936,0 c-17.92,0-35.392-24.16-35.392-63.36s 17.504-63.328, 35.392-63.328l 23.936,0 c 17.888,0, 36,24.128, 36,63.328
	S 621.888,354.336, 604,354.336z"  />
<glyph unicode="&#xe04c;" d="M 362.592,563.2L 362.592,563.2c-157.056,0-255.936-54.112-249.312-97.6C 115.2,453.184, 120.48,419.36, 127.168,376.8
	c-76.96-29.888-102.464-78.304-99.040-117.824c 4.032-46.752, 46.112-96.8, 138.496-105.472c 52.736-4.896, 116.192,24, 157.344,73.44
	c-3.936,6.656-6.176,14.336-6.176,22.624c0,24.736, 20.032,44.8, 44.768,44.8s 44.8-20.064, 44.8-44.8c0-24.384-19.52-44.192-43.776-44.736
	c-48.96-63.136-123.488-101.216-194.080-96.768c 1.632-10.4, 2.272-14.336, 3.072-19.616c 2.912-18.496, 75.104-75.52, 189.984-75.616l 0.032,0 
	c 114.88,0.096, 187.104,57.12, 189.984,75.616C 555.424,106.848, 605.12,421.44, 611.84,465.6C 618.496,509.056, 519.584,563.2, 362.592,563.2z M 72.768,262.88
	c-1.76,20.544, 14.56,47.904, 61.536,68.448c 6.752-42.912, 14.112-89.504, 20.576-130.4C 103.552,211.008, 74.944,237.76, 72.768,262.88z M 362.56,399.232
	C 247.68,399.296, 166.176,441.952, 166.176,457.856c-0.064,15.84, 81.504,58.56, 196.384,58.496c 114.88,0.064, 196.48-42.656, 196.416-58.496
	C 558.976,441.952, 477.472,399.296, 362.56,399.232z"  />
<glyph unicode="&#xe04d;" d="M 389.248,36.512c-0.896-9.92, 6.944-18.688, 17.472-19.552l 127.52-10.464c 10.496-0.864, 19.872,6.496, 20.768,16.416l 9.984,105.152
	l-165.792,13.664L 389.248,36.512z M 75.008,128.032l 9.952-105.152c 0.928-9.92, 10.304-17.28, 20.8-16.416l 127.52,10.464
	c 10.496,0.864, 18.368,9.664, 17.44,19.552l-9.984,105.184L 75.008,128.032z M 58.592,301.344l 10.272-108.48l 165.792,13.632L 224.352,314.88
	C 224.128,317.472, 224,320.192, 224,322.848C 224,372.64, 267.072,413.12, 320,413.12s 96-40.512, 96-90.272c0-2.656-0.128-5.344-0.384-7.968l-10.24-108.384l 165.76-13.632
	l 10.272,108.48C 582.048,308.512, 582.4,315.712, 582.4,322.848C 582.4,458.912, 464.672,569.6, 320,569.6S 57.6,458.912, 57.6,322.848
	C 57.6,315.712, 57.952,308.512, 58.592,301.344z"  />
<glyph unicode="&#xe04e;" d="M 597.888,243.264l-100.736,239.744c-7.936,16-29.056,29.088-46.944,29.088L 189.824,512.096 c-17.888,0-39.008-13.088-46.976-29.088l-100.704-239.744
		c-8-16-12.128-43.52-9.184-61.184l 21.76-117.952c 2.944-17.632, 19.936-32.064, 37.792-32.064l 455.040,0 c 17.888,0, 34.88,14.432, 37.824,32.064
		l 21.76,117.952C 609.984,199.712, 605.888,227.264, 597.888,243.264z M 554.24,159.232l-8.256-48.064c-2.496-18.464-19.136-33.568-36.928-33.568L 130.944,77.6 
		c-17.824,0-34.432,15.104-36.928,33.568l-8.288,48.064c-2.464,18.464, 10.080,33.568, 27.936,33.568l 412.672,0 
		C 544.192,192.768, 556.736,177.696, 554.24,159.232z"  />
<glyph unicode="&#xe04f;" d="M 320,550.4c-136.928,0-222.016-45.12-217.408-81.728l 46.144-379.744C 150.56,74.144, 219.808,25.696, 320,25.6
		c 100.224,0.096, 169.44,48.576, 171.296,63.328l 46.112,379.744C 542.016,505.28, 456.96,550.4, 320,550.4z M 320,413.088C 219.808,413.184, 148.704,448.864, 148.704,462.208
		C 148.672,475.456, 219.808,511.232, 320,511.168c 100.192,0.032, 171.328-35.712, 171.296-48.96C 491.296,448.864, 420.224,413.184, 320,413.088z"  />
<glyph unicode="&#xe050;" d="M 392.416,205.824c0,0, 225.888,162.976, 200.832,349.536c-0.576,4.096-1.92,6.784-3.584,8.608c-1.76,1.696-4.384,3.104-8.416,3.68
	C 398.944,593.216, 239.68,362.080, 239.68,362.080C 101.504,378.656, 111.552,351.072, 48.512,199.68c-12.064-28.864, 7.488-38.816, 28.928-30.688
	c 21.44,8.064, 68.768,25.952, 68.768,25.952l 82.848-84.768c0,0-17.472-48.416-25.376-70.336c-7.904-21.984, 1.792-41.984, 30.016-29.664
	C 381.664,74.72, 408.608,64.448, 392.416,205.824z M 424.672,395.136c-19.136,19.584-19.136,51.328,0,70.912c 19.136,19.552, 50.144,19.552, 69.28,0
	c 19.168-19.552, 19.168-51.328,0-70.912C 474.848,375.52, 443.808,375.52, 424.672,395.136z"  />
<glyph unicode="&#xe051;" d="M 88.416,174.016c-48.448-47.616-7.52-96.512-71.904-168.992c-29.056-32.704, 119.616-22.72, 193.28,49.696
	c 31.232,30.688, 22.432,75.456-11.072,108.416C 165.216,196.064, 119.648,204.704, 88.416,174.016z M 625.312,586.944c-24.864,24.416-300.128-196.16-382.080-276.704
	c-40.672-39.968-54.24-61.408-66.72-77.44c-5.408-6.976, 1.76-9.12, 4.96-10.784c 16.096-8.192, 27.36-15.808, 41.952-30.144
	c 14.592-14.304, 22.368-25.376, 30.688-41.216c 1.664-3.168, 3.872-10.208, 10.944-4.864c 16.32,12.256, 38.112,25.6, 78.752,65.568
	C 425.76,291.904, 650.112,562.496, 625.312,586.944z"  />
<glyph unicode="&#xe052;" d="M 576,480l-32,0 l0-480 l 32,0 c 35.2,0, 64,28.8, 64,64L 640,416 C 640,451.2, 611.2,480, 576,480z M0,416l0-352 c0-35.2, 28.8-64, 64-64l 32,0 L 96,480 L 64,480 C 28.8,480,0,451.2,0,416z M 428.8,546.976
	C 407.008,557.12, 372.224,576, 320,576S 232.992,557.12, 211.2,546.976L 211.2,480 L 140.8,480 l0-480 l 358.4,0 L 499.2,480 L 428.8,480 L 428.8,546.976 z M 390.4,480L 249.6,480 L 249.6,522.72 C 266.656,530.080, 291.136,537.6, 320,537.6
	s 53.312-7.488, 70.4-14.848L 390.4,480 z"  />
<glyph unicode="&#xe053;" d="M 320,221.472c 76.48,0, 140.512,25.984, 144.384,59.936c-11.36,31.904-23.776,66.688-35.968,100.896c-8.448-24.384-55.2-41.6-108.416-41.6
	S 220.064,357.888, 211.552,382.272C 199.36,348.064, 187.008,313.312, 175.616,281.376C 179.488,247.456, 243.488,221.472, 320,221.472z M 320,436.032
	c 35.936,0, 69.344,11.136, 79.136,28.416c-13.472,37.856-25.056,70.304-32.384,90.784C 361.92,568.896, 339.872,576, 320,576S 278.080,568.896, 273.248,555.264
	c-7.328-20.48-18.88-52.96-32.384-90.784C 250.656,447.168, 284.064,436.032, 320,436.032z M 600.96,189.888l-120.16,48.416l 13.856-38.624
	c-0.704-40.896-80.16-73.536-174.656-73.536s-173.952,32.64-174.624,73.536l 13.824,38.624L 39.040,189.888c-33.696-13.6-35.104-38.72-3.168-55.84
	l 225.984-121.184c 31.968-17.12, 84.288-17.12, 116.256,0l 225.984,121.184C 636.096,151.168, 634.656,176.288, 600.96,189.888z"  />
<glyph unicode="&#xe054;" d="M 320,595.232c-169.408,0-307.2-137.856-307.2-307.232c0-169.408, 137.792-307.232, 307.2-307.232s 307.2,137.824, 307.2,307.232
	C 627.2,457.376, 489.408,595.232, 320,595.232z M 582.016,288c0-59.936-20.352-115.232-54.272-159.392c-9.6,7.52-19.776,27.776-10.176,48.768
	c 9.664,21.12, 12.192,70.016, 9.984,89.024c-2.112,19.008-12,64.832-38.88,65.28c-26.784,0.416-45.184,9.248-61.12,41.056
	c-33.056,66.144, 62.048,78.88, 28.992,115.52c-9.248,10.272-57.056-42.368-64.064,27.776C 392,521.056, 396.8,528.576, 403.2,536.352
	C 507.008,501.472, 582.016,403.36, 582.016,288z M 284,547.392C 277.76,535.232, 261.216,530.24, 251.136,521.056C 229.28,501.28, 219.872,504, 208.064,484.992
	c-11.84-19.008-50.112-46.368-50.112-60.128c0-13.728, 19.328-29.984, 28.992-26.816c 9.664,3.2, 35.136,3.008, 50.112-2.24
	c 15.008-5.312, 125.28-10.592, 90.112-103.808c-11.136-29.632-59.904-24.64-72.896-73.728c-1.952-7.2-8.672-37.952-9.152-48
	c-0.768-15.552, 11.008-74.176-4-74.176c-15.072,0-55.584,52.448-55.584,61.952s-10.528,42.848-10.528,71.36s-48.544,28.064-48.544,65.984
	c0,34.24, 26.336,51.264, 20.416,67.616c-5.824,16.32-52.064,16.896-71.328,18.88C 109.216,469.312, 188.48,534.208, 284,547.392z M 237.6,39.36
	c 15.744,8.288, 17.344,19.040, 31.616,19.616c 16.32,0.704, 29.6,6.368, 47.968,10.4c 16.352,3.552, 45.536,20.128, 71.296,22.24
	c 21.664,1.792, 64.48-1.12, 76-22.048c-41.472-27.52-91.136-43.584-144.48-43.584C 291.2,25.984, 263.52,30.72, 237.6,39.36z"  />
<glyph unicode="&#xe055;" d="M 595.2,480L 44.8,480 C 20.16,480,0,459.84,0,435.2l0-294.432 C0,116.16, 20.16,96, 44.8,96l 550.4,0 c 24.672,0, 44.8,20.16, 44.8,44.768L 640,435.2 C 640,459.84, 619.84,480, 595.2,480
	z M 352,416l 64,0 l0-64 l-64,0 L 352,416 z M 448,320l0-64 l-64,0 L 384,320 L 448,320 z M 256,416l 64,0 l0-64 L 256,352 L 256,416 z M 352,320l0-64 L 288,256 L 288,320 L 352,320 z M 160,416l 64,0 l0-64 L 160,352 L 160,416 z M 256,320l0-64 L 192,256 L 192,320 L 256,320 z M 64,416l 64,0 l0-64 L 64,352 L 64,416 z M 160,320l0-64 L 96,256 L 96,320 L 160,320 z M 128,160
	L 64,160 l0,64 l 64,0 L 128,160 z M 480,160L 160,160 l0,64 l 320,0 L 480,160 z M 576,160l-64,0 l0,64 l 64,0 L 576,160 z M 480,256L 480,320 l 64,0 l0-64 L 480,256 z M 576,352l-128,0 L 448,416 l 128,0 L 576,352 z"  />
<glyph unicode="&#xe056;" d="M 576,544L 64,544 C 28.8,544,0,515.2,0,480l0-384 c0-35.232, 28.8-64, 64-64l 512,0 c 35.2,0, 64,28.768, 64,64L 640,480 C 640,515.2, 611.2,544, 576,544z M 147.2,484.16
	c 13.28,0, 24-10.432, 24-23.328c0-12.928-10.72-23.36-24-23.36S 123.2,447.904, 123.2,460.8C 123.2,473.728, 133.952,484.16, 147.2,484.16z M 59.2,460.8
	c0,12.896, 10.72,23.328, 24,23.328S 107.2,473.728, 107.2,460.8c0-12.928-10.72-23.36-24-23.36S 59.2,447.904, 59.2,460.8z M 576.64,96L 63.36,96 L 63.36,390.4 l 513.28,0 
	L 576.64,96 z M 576.64,441.6L 192,441.6 L 192,480 l 384.64,0 L 576.64,441.6 z"  />
<glyph unicode="&#xe057;" d="M 576,576L 64,576 C 28.8,576,0,547.2,0,512l0-384 c0-35.2, 28.8-63.36, 64-63.36l 127.36,0 L 191.36,127.36 l-128,0 L 63.36,422.4 l 513.28,0 l0-295.040 l-128,0 l0-62.752 L 576,64.608 c 35.232,0, 64,28.192, 64,63.36L 640,512 
	C 640,547.2, 611.232,576, 576,576z M 83.232,469.44c-13.28,0-24,10.464-24,23.36s 10.72,23.36, 24,23.36c 13.248,0, 24-10.464, 24-23.36
	S 96.48,469.44, 83.232,469.44z M 147.232,469.44c-13.28,0-24,10.464-24,23.36s 10.72,23.36, 24,23.36c 13.248,0, 24-10.464, 24-23.36
	S 160.48,469.44, 147.232,469.44z M 576.672,472.96L 191.36,472.96 L 191.36,512.64 l 385.28,0 L 576.64,472.96 z M 318.336,346.432l-155.264-154.304l 96,0 L 259.072,0 l 118.528,0 l0,192.128 l 96,0 L 318.336,346.432z"  />
<glyph unicode="&#xe058;" d="M 576,448L 64,448 C 28.8,448,0,419.2,0,384l0-192 c0-35.2, 28.8-64, 64-64l 512,0 c 35.232,0, 64,28.8, 64,64L 640,384 C 640,419.2, 611.232,448, 576,448z M 576,192L 64,192 L 64,384 l 512,0 L 576,192 z M 544,351.36l-128,0 
			l0-126.688 l 128,0 L 544,351.36 z M 384,351.36L 256,351.36 l0-126.688 l 128,0 L 384,351.36 z M 224,351.36L 96,351.36 l0-126.688 l 128,0 L 224,351.36 z"  />
<glyph unicode="&#xe059;" d="M 576,448L 64,448 C 28.8,448,0,419.2,0,384l0-192 c0-35.2, 28.8-64, 64-64l 512,0 c 35.232,0, 64,28.8, 64,64L 640,384 C 640,419.2, 611.232,448, 576,448z M 576,192L 64,192 L 64,384 l 512,0 L 576,192 z M 384,351.36L 256,351.36 
			l0-126.688 l 128,0 L 384,351.36 z M 224,351.36L 96,351.36 l0-126.688 l 128,0 L 224,351.36 z"  />
<glyph unicode="&#xe05a;" d="M 576,448L 64,448 C 28.8,448,0,419.2,0,384l0-192 c0-35.2, 28.8-64, 64-64l 512,0 c 35.232,0, 64,28.8, 64,64L 640,384 C 640,419.2, 611.232,448, 576,448z M 576,192L 64,192 L 64,384 l 512,0 L 576,192 z M 224,351.36L 96,351.36 
			l0-126.688 l 128,0 L 224,351.36 z"  />
<glyph unicode="&#xe05b;" d="M 576,448L 64,448 C 28.8,448,0,419.2,0,384l0-192 c0-35.2, 28.8-64, 64-64l 512,0 c 35.2,0, 64,28.8, 64,64L 640,384 C 640,419.2, 611.2,448, 576,448z M 576,192L 64,192 L 64,384 l 512,0 L 576,192 z"  />
<glyph unicode="&#xe05c;" d="M 320,390.4c-56.768,0-102.4-45.6-102.4-102.4s 45.6-102.4, 102.4-102.4s 102.4,45.6, 102.4,102.4S 376.768,390.4, 320,390.4z M 320,222.368
	c-36.256,0-65.6,29.376-65.6,65.6c0,36.256, 29.344,65.6, 65.6,65.6s 65.6-29.344, 65.6-65.6C 385.6,251.744, 356.256,222.368, 320,222.368z M 128,313.6
	c-17.664,0-32-11.456-32-25.6s 14.336-25.6, 32-25.6s 31.36,11.456, 31.36,25.6S 145.664,313.6, 128,313.6z M 477.024,445.024c-9.984,9.984-28.224,7.968-40.704-4.512
	c-12.512-12.512-14.528-30.72-4.544-40.736s 28.224-7.968, 40.704,4.512C 484.992,416.768, 487.040,435.008, 477.024,445.024z M 512,313.6
	c-17.696,0-31.36-11.456-31.36-25.6s 13.696-25.6, 31.36-25.6s 32,11.456, 32,25.6S 529.696,313.6, 512,313.6z M 320,128c-14.112,0-25.6-14.336-25.6-32
	c0-17.696, 11.456-32, 25.6-32s 25.6,14.304, 25.6,32C 345.6,113.664, 334.112,128, 320,128z M 167.488,168.512c-12.48-12.512-14.528-30.752-4.544-40.736
	s 28.256-7.936, 40.736,4.544c 12.512,12.512, 14.528,30.752, 4.544,40.736C 198.24,183.008, 180,180.992, 167.488,168.512z M 161.376,443.424
	C 151.36,433.408, 153.408,415.2, 165.92,402.688c 12.512-12.48, 30.72-14.528, 40.736-4.512s 7.968,28.224-4.544,40.704
	C 189.632,451.392, 171.36,453.408, 161.376,443.424z M 437.92,133.888c 12.512-12.48, 30.72-14.496, 40.704-4.512s 7.968,28.224-4.512,40.704
	c-12.512,12.512-30.752,14.528-40.736,4.544S 425.408,146.368, 437.92,133.888z M 320,448c 14.112,0, 25.6,14.336, 25.6,32S 334.112,512, 320,512S 294.4,497.664, 294.4,480
	S 305.888,448, 320,448z"  />
<glyph unicode="&#xe05d;" d="M 608,313.6c-5.824,0-25.568,0-31.36,0c-17.664,0-32-11.456-32-25.6s 14.336-25.6, 32-25.6c 5.824,0, 25.568,0, 31.36,0c 17.696,0, 32,11.456, 32,25.6
	S 625.696,313.6, 608,313.6z M 320,464C 222.4,464, 144,385.6, 144,288c0-97.632, 78.4-176, 176-176c 97.632,0, 176,78.368, 176,176
	C 496,385.6, 417.632,464, 320,464z M 320,160c-70.72,0-128,57.28-128,128c0,70.688, 57.28,128, 128,128s 128-57.312, 128-128C 448,217.28, 390.72,160, 320,160z M 95.328,288
	c0,14.144-13.664,25.6-31.328,25.6c-5.92,0-26.112,0-32,0c-17.664,0-32-11.456-32-25.6s 14.336-25.6, 32-25.6c 5.888,0, 26.080,0, 32,0
	C 81.664,262.4, 95.328,273.856, 95.328,288z M 320,512c 14.112,0, 25.6,14.336, 25.6,32c0,5.856,0,26.144,0,32c0,17.664-11.456,32-25.6,32S 294.4,593.664, 294.4,576
	c0-5.856,0-26.144,0-32C 294.4,526.336, 305.888,512, 320,512z M 320,64c-14.112,0-25.6-14.336-25.6-32c0-5.856,0-26.144,0-32c0-17.696, 11.456-32, 25.6-32
	s 25.6,14.304, 25.6,32c0,5.856,0,26.144,0,32C 345.6,49.664, 334.112,64, 320,64z M 555.68,487.488c 12.512,12.512, 14.528,30.752, 4.544,40.736
	s-28.224,7.968-40.704-4.544c-3.424-3.456-18.944-18.944-22.4-22.4c-12.512-12.512-14.528-30.72-4.544-40.704s 28.256-8, 40.736,4.512
	C 536.736,468.544, 552.256,484.032, 555.68,487.488z M 106.688,110.912c-3.456-3.456-18.944-18.976-22.4-22.4c-12.48-12.512-14.496-30.72-4.512-40.704
	c 9.984-9.984, 28.224-7.968, 40.704,4.512c 3.456,3.424, 18.976,18.944, 22.4,22.4c 12.512,12.512, 14.528,30.72, 4.512,40.704
	S 119.168,123.36, 106.688,110.912z M 120.512,523.712C 108,536.192, 89.792,538.24, 79.776,528.224S 71.808,500, 84.288,487.488
	c 3.456-3.456, 18.944-18.944, 22.4-22.4c 12.512-12.48, 30.72-14.528, 40.704-4.512s 8,28.224-4.512,40.704C 139.456,504.736, 123.968,520.256, 120.512,523.712z
	 M 497.088,74.688c 3.456-3.456, 18.976-18.976, 22.4-22.4c 12.512-12.48, 30.752-14.496, 40.736-4.512c 9.984,9.984, 7.936,28.224-4.544,40.704
	c-3.456,3.424-18.976,18.944-22.4,22.4c-12.512,12.48-30.752,14.496-40.736,4.512S 484.64,87.2, 497.088,74.688z"  />
<glyph unicode="&#xe05e;" d="M 608,313.6c-5.824,0-25.568,0-31.36,0c-17.664,0-32-11.456-32-25.6s 14.336-25.6, 32-25.6c 5.824,0, 25.568,0, 31.36,0c 17.696,0, 32,11.456, 32,25.6
	S 625.696,313.6, 608,313.6z M 320,464C 222.4,464, 144,385.6, 144,288c0-97.632, 78.4-176, 176-176c 97.6,0, 176,78.368, 176,176
	C 496,385.6, 417.6,464, 320,464z M 323.2,160C 249.28,160, 192,217.28, 192,288c0,70.688, 57.28,128, 131.2,128L 323.2,160 z M 95.328,288c0,14.144-13.664,25.6-31.328,25.6
	c-5.92,0-26.112,0-32,0c-17.664,0-32-11.456-32-25.6s 14.336-25.6, 32-25.6c 5.888,0, 26.080,0, 32,0C 81.664,262.4, 95.328,273.856, 95.328,288z M 320,512
	c 14.112,0, 25.6,14.336, 25.6,32c0,5.856,0,26.144,0,32c0,17.664-11.456,32-25.6,32S 294.4,593.664, 294.4,576c0-5.856,0-26.144,0-32C 294.4,526.336, 305.888,512, 320,512z
	 M 320,64c-14.112,0-25.6-14.336-25.6-32c0-5.856,0-26.144,0-32c0-17.696, 11.456-32, 25.6-32s 25.6,14.304, 25.6,32c0,5.856,0,26.144,0,32
	C 345.6,49.664, 334.112,64, 320,64z M 555.68,487.488c 12.512,12.512, 14.528,30.752, 4.544,40.736s-28.224,7.968-40.704-4.544
	c-3.424-3.456-18.944-18.944-22.4-22.4c-12.512-12.512-14.528-30.72-4.544-40.704s 28.256-8, 40.736,4.512
	C 536.736,468.544, 552.256,484.032, 555.68,487.488z M 106.688,110.912c-3.456-3.456-18.944-18.976-22.4-22.4c-12.48-12.512-14.496-30.72-4.512-40.704
	c 9.984-9.984, 28.224-7.968, 40.704,4.512c 3.456,3.424, 18.976,18.944, 22.4,22.4c 12.512,12.512, 14.528,30.72, 4.512,40.704
	S 119.168,123.36, 106.688,110.912z M 120.512,523.712C 108,536.192, 89.792,538.24, 79.776,528.224S 71.808,500, 84.288,487.488
	c 3.456-3.456, 18.944-18.944, 22.4-22.4c 12.512-12.48, 30.72-14.528, 40.704-4.512s 8,28.224-4.512,40.704C 139.456,504.736, 123.968,520.256, 120.512,523.712z
	 M 497.088,74.688c 3.456-3.456, 18.976-18.976, 22.4-22.4c 12.512-12.48, 30.752-14.496, 40.704-4.512c 9.984,9.984, 7.968,28.224-4.512,40.704
	c-3.456,3.424-18.976,18.944-22.4,22.4c-12.512,12.48-30.752,14.496-40.736,4.512S 484.64,87.2, 497.088,74.688z"  />
<glyph unicode="&#xe05f;" d="M 243.584,471.744c-11.744,11.040-27.616,11.040-39.392,0L0,288l 204.192-183.712c 11.776-11.072, 27.648-11.072, 39.392,0s 11.744,28.992,0,40.064
	L 85.056,288l 158.56,143.616C 255.328,442.688, 255.328,460.64, 243.584,471.744z M 435.808,471.744c-11.776,11.040-27.616,11.040-39.392,0
	c-11.744-11.104-11.136-29.024, 0.672-40.096L 554.944,288l-157.888-143.648c-11.776-11.072-12.416-28.992-0.672-40.064
	c 11.776-11.072, 27.616-11.072, 39.392,0L 640,288L 435.808,471.744z"  />
<glyph unicode="&#xe060;" d="M 576,569.6L 64,569.6 c-35.2,0-64-28.8-64-64l0-352 c0-35.2, 28.224-69.664, 62.752-76.576l 139.904-27.968c0,0-120.416-42.656-42.656-42.656l 320,0 
	c 77.76,0-42.656,42.656-42.656,42.656l 139.904,27.968C 611.744,83.936, 640,118.4, 640,153.6l0,352 C 640,540.8, 611.2,569.6, 576,569.6z M 576,156.8L 64,156.8 L 64,512 l 512,0 L 576,156.8 z"  />
<glyph unicode="&#xe061;" d="M 508.864,428.8c-66.528,0-139.424-37.056-188.864-93.28C 270.56,391.744, 197.632,428.8, 131.104,428.8C 67.712,428.8,0,391.808,0,288
	s 67.712-140.768, 131.104-140.8l0,0c 66.56,0, 139.456,37.056, 188.896,93.28c 49.44-56.224, 122.336-93.28, 188.864-93.28C 572.288,147.2, 640,184.192, 640,288
	S 572.288,428.8, 508.864,428.8z M 131.104,203.52c-48.384,0-72.928,28.416-72.928,84.48s 24.544,84.512, 72.928,84.512c 53.504,0, 115.648-34.752, 153.792-84.512
	C 246.752,238.24, 184.64,203.52, 131.104,203.52z M 508.864,203.52c-53.504,0-115.648,34.72-153.792,84.48c 38.112,49.76, 100.288,84.512, 153.792,84.512
	c 48.416,0, 72.928-28.448, 72.928-84.512S 557.28,203.52, 508.864,203.52z"  />
<glyph unicode="&#xe062;" d="M 229.92-5.44c 25.248-16.32, 54.496-27.36, 90.080-26.496
	c 35.584-0.864, 64.8,10.176, 90.048,26.496L 410.048,60.8 L 229.92,60.8 L 229.92-5.44 z M 406.272,99.232c0,139.392, 148.192,184, 137.088,322.848
	C 536.384,509.696, 477.024,608, 320,608S 103.616,509.696, 96.64,422.080c-11.104-138.88, 137.056-183.456, 137.056-322.848L 406.272,99.232 z M 164.416,417.024
	C 171.072,500.192, 227.648,542.368, 320,542.368c 92.352,0, 148.928-42.176, 155.552-125.344c 3.616-45.536-22.56-75.904-57.92-125.632
	c-26.016-36.672-56.8-79.968-71.2-136.352L 293.536,155.040 c-14.4,56.384-45.152,99.648-71.232,136.352C 186.976,341.152, 160.8,371.488, 164.416,417.024z"  />
<glyph unicode="&#xe063;" d="M 576,512L 64,512 C 28.8,512,0,483.2,0,448l0-320 c0-35.2, 28.8-64, 64-64l 512,0 c 35.2,0, 64,28.8, 64,64L 640,448 C 640,483.2, 611.2,512, 576,512z M 576,128L 64,128 L 64,320 l 512,0 L 576,128 z M 576,416L 64,416 L 64,448 l 512,0 L 576,416 z
	 M 128,252.8L 128,233.6 l 19.2,0 L 147.2,252.8 L 128,252.8 z M 243.2,214.4L 243.2,195.2 l 38.4,0 L 281.6,214.4 L 300.8,214.4 l0,19.2 L 320,233.6 L 320,252.8 L 281.6,252.8 L 281.6,233.6 L 262.4,233.6 l0-19.2 L 243.2,214.4 z M 320,195.2L 320,214.4 L 300.8,214.4 L 300.8,195.2 L 320,195.2 z M 224,195.2
	L 224,214.4 L 185.6,214.4 L 185.6,195.2 L 224,195.2 z M 243.2,233.6l 19.2,0 L 262.4,252.8 L 224,252.8 l0-38.4 l 19.2,0 L 243.2,233.6 z M 166.4,214.4l 19.2,0 l0,19.2 l 19.2,0 L 204.8,252.8 L 166.4,252.8 L 166.4,233.6 L 147.2,233.6 l0-19.2 L 128,214.4 L 128,195.2 l 38.4,0 L 166.4,214.4 z"  />
<glyph unicode="&#xe064;" d="M 535.264,197.12c-27.008-43.648-113.12-75.552-215.264-75.552c-102.080,0-188.256,31.904-215.232,75.552C 99.040,206.368, 96,201.408, 96,196.832
	c0-4.608,0-64.064,0-64.064C 96,70.72, 196.288,6.4, 320,6.4s 224,64.32, 224,126.368c0,0,0,59.456,0,64.064C 544,201.408, 540.928,206.368, 535.264,197.12z
	 M 535.584,360.8c-26.528-38.592-113.024-66.88-215.584-66.88s-189.056,28.288-215.584,66.88C 98.912,368.768, 96,364.448, 96,360.832c0-3.616,0-75.392,0-75.392
	c0-56.416, 100.288-102.112, 224-102.112s 224,45.696, 224,102.112c0,0,0,71.776,0,75.392C 544,364.448, 541.056,368.768, 535.584,360.8z M 320,569.6
	c-123.712,0-224-37.696-224-84.224l0-40.288 c0-49.344, 100.288-89.344, 224-89.344s 224,40, 224,89.344L 544,485.344 C 544,531.904, 443.712,569.6, 320,569.6z"  />
<glyph unicode="&#xe065;" d="M 492.8,422.368c-81.312,0-147.232-65.92-147.232-147.2c0-30.88, 9.536-59.52, 25.792-83.2L 268.64,191.968 C 284.864,215.648, 294.4,244.32, 294.4,275.2
	c0,81.28-65.92,147.2-147.2,147.2S0,356.48,0,275.2S 65.92,128, 147.2,128l 345.6,0 c 81.28,0, 147.2,65.92, 147.2,147.2S 574.080,422.368, 492.8,422.368z M 64,275.2
	c0,45.952, 37.248,83.2, 83.2,83.2s 83.2-37.248, 83.2-83.2c0-45.984-37.248-83.2-83.2-83.2S 64,229.216, 64,275.2z M 492.8,192c-45.984,0-83.232,37.216-83.232,83.2
	c0,45.952, 37.248,83.2, 83.232,83.2c 45.952,0, 83.2-37.248, 83.2-83.2C 576,229.216, 538.752,192, 492.8,192z"  />
<glyph unicode="&#xe066;" d="M 499.2,544L 460.8,448L 179.2,448 L 140.8,544C 116.16,544, 96,523.84, 96,499.2l0-486.4 C 96-11.84, 116.16-32, 140.8-32l 358.4,0 c 24.672,0, 44.8,20.16, 44.8,44.8L 544,499.2 
	C 544,523.84, 523.84,544, 499.2,544z M 435.2,480l 28.8,64l-69.76,0 L 371.2,608L 268.8,608 L 245.76,544L 176,544 l 28.8-64L 435.2,480 z"  />
<glyph unicode="&#xe067;" d="M 128,64c0-35.328, 28.672-64, 64-64c 35.36,0, 64,28.672, 64,64s-28.64,64-64,64C 156.672,128, 128,99.328, 128,64z M 448,64c0-35.328, 28.672-64, 64-64
	c 35.36,0, 64,28.672, 64,64s-28.64,64-64,64C 476.672,128, 448,99.328, 448,64z M 241.504,215.296L 595.712,316.48C 602.464,318.432, 608,325.76, 608,332.8L 608,508.8 L 156.8,508.8 L 156.8,563.2 
	C 156.8,570.24, 151.072,576, 144,576L 44.8,576 C 37.76,576, 32,570.24, 32,563.2L 32,512 l 62.176,0 l 62.976-289.824L 163.232,192l0-48 c0-7.040, 5.76-12.8, 12.768-12.8L 192,131.2 l 320,0 l 83.232,0 
	C 602.24,131.2, 608,136.96, 608,144L 608,192 L 248.064,192 C 211.296,192, 210.528,206.4, 241.504,215.296z"  />
<glyph unicode="&#xe068;" d="M 588.8,544L 51.2,544 C 40.608,544, 32,535.392, 32,524.8L 32,448 l 576,0 L 608,524.8 C 608,535.392, 599.392,544, 588.8,544z M 64,76.8C 64,52.16, 84.16,32, 108.8,32l 422.4,0 
	c 24.672,0, 44.8,20.16, 44.8,44.8L 576,416 L 64,416 L 64,76.8 z M 224,352l 192,0 l0-64 L 224,288 L 224,352 z"  />
<glyph unicode="&#xe069;" d="M 156.992,238.656l 113.664-113.664l 208.544,208.544l-113.696,113.664L 156.992,238.656z M 611.36,394.752l-48.384,48.352
	c-9.248-4.992-19.744-7.872-31.008-7.872c-35.744,0-64.736,28.992-64.736,64.768c0,11.232, 2.816,21.792, 7.872,31.008l-48.384,48.352
	c-12.64,12.608-33.184,12.608-45.824,0L 28.64,227.072c-12.608-12.608-12.608-33.216,0-45.824l 48.384-48.384c 9.216,5.024, 19.776,7.872, 30.976,7.872
	c 35.776,0, 64.768-28.96, 64.768-64.736c0-11.232-2.848-21.792-7.904-31.008l 48.352-48.384c 12.608-12.608, 33.216-12.608, 45.824,0l 352.32,352.32
	C 623.936,361.536, 623.936,382.144, 611.36,394.752z M 270.656,72.992l-165.632,165.664l 260.544,260.512L 531.2,333.536L 270.656,72.992z"  />
<glyph unicode="&#xe06a;" d="M 64.064,518.432l0-75.776 c 226.752,0, 410.56-183.84, 410.56-410.592l 75.808,0 C 550.432,300.672, 332.672,518.432, 64.064,518.432z M 64.064,366.848l0-75.808 
		c 143.040,0, 259.008-115.936, 259.008-258.976l 75.744,0 C 398.816,216.928, 248.96,366.848, 64.064,366.848z M 136.704,177.344c-40.096,0-72.64-32.544-72.64-72.672
		s 32.544-72.64, 72.64-72.64c 40.128,0, 72.672,32.512, 72.672,72.64S 176.832,177.344, 136.704,177.344z"  />
<glyph unicode="&#xe06b;" d="M 320,160c-35.008,0-63.328-28.672-63.328-64S 284.992,32, 320,32c 34.976,0, 63.328,28.672, 63.328,64S 354.976,160, 320,160z M 185.6,231.744l 44.8-45.248
		c 49.472,49.984, 129.696,49.984, 179.2,0l 44.8,45.248C 380.16,306.752, 259.808,306.752, 185.6,231.744z M 96,322.272l 44.768-45.248
		c 98.976,99.968, 259.424,99.968, 358.4,0L 544,322.272C 420.288,447.232, 219.712,447.232, 96,322.272z M 6.4,412.768L 51.2,367.52c 148.48,149.952, 389.152,149.952, 537.6,0
		l 44.8,45.248C 460.416,587.744, 179.584,587.744, 6.4,412.768z"  />
<glyph unicode="&#xe06c;" d="M 403.232,292.256L 403.232,576 c0,17.664-14.336,32-32,32L 262.4,608 C 244.704,608, 236.8,593.664, 236.8,576l0-283.744 C 183.392,262.848, 147.2,206.048, 147.2,140.8
	c0-95.424, 77.376-172.8, 172.8-172.8s 172.8,77.376, 172.8,172.8C 492.8,206.048, 456.608,262.848, 403.232,292.256z M 320,32c-60.096,0-108.8,48.704-108.8,108.8
	c0,49.728, 33.408,91.52, 78.976,104.544L 290.176,480 l 64,0 l0-235.936 c 43.328-14.336, 74.656-55.136, 74.656-103.264C 428.8,80.704, 380.096,32, 320,32z"  />
<glyph unicode="&#xe06d;" d="M 126.56,605.024c-0.48,3.968-7.040,3.968-7.488,0C 102.72,473.344, 19.2,446.208, 19.2,354.688c0-56.544, 47.424-102.368, 103.616-102.368
	s 103.616,45.824, 103.616,102.368C 226.432,446.208, 142.912,473.344, 126.56,605.024z M 520.928,605.024c-0.512,3.968-7.008,3.968-7.488,0
	c-16.352-131.68-99.872-158.816-99.872-250.336c0-56.544, 47.424-102.368, 103.616-102.368S 620.8,298.144, 620.8,354.688C 620.8,446.208, 537.28,473.344, 520.928,605.024
	z M 316.256,320.704C 299.904,189.024, 216.384,161.92, 216.384,70.4c0-56.576, 47.424-102.4, 103.616-102.4s 103.616,45.856, 103.616,102.4
	c0,91.488-83.52,118.624-99.872,250.304C 323.264,324.704, 316.736,324.704, 316.256,320.704z"  />
<glyph unicode="&#xe06e;" d="M 576,480L 288,480 l0-160 l 320,0 L 608,448 C 608,465.664, 593.696,480, 576,480z M 32,128c0-17.696, 7.936-32, 25.6-32L 224,96 l0,160 L 32,256 L 32,128 z M 288,96l 288,0 c 17.696,0, 32,14.304, 32,32l0,128 L 288,256 L 288,96 z
		 M 32,448l0-128 l 192,0 L 224,480 L 57.6,480 C 39.936,480, 32,465.664, 32,448z" />
<glyph unicode="&#xe06f;" d="M 22.080,245.376l 43.616-10.816l 32.832,51.584L 36.128,301.6c-15.616,3.904-31.392-5.568-35.264-21.12
	C-3.008,264.992, 6.496,249.248, 22.080,245.376z M 591.392,237.056l-142.816-128.576l-167.936,129.952c-3.2,2.496-6.88,4.256-10.816,5.248
	l-22.368,5.504l-32.832-51.552l 35.168-8.672l 182.336-141.056c 5.28-4.128, 11.552-6.112, 17.856-6.112c 7.008,0, 14.016,2.496, 19.52,7.488
	l 160.864,144.8c 11.936,10.752, 12.832,29.056, 2.080,40.928C 621.728,246.88, 603.328,247.808, 591.392,237.056z M 277.888,378.208l 156.384-100.128
	c 13.184-8.416, 30.72-4.928, 39.648,7.904l 160.896,231.744c 9.12,13.184, 5.824,31.2-7.392,40.32s-31.328,5.792-40.48-7.36l-144.896-208.704
	L 284.704,442.72C 278.208,446.88, 270.304,448.288, 262.72,446.624S 248.576,440.384, 244.448,433.856L 4.544,57.248c-8.64-13.504-4.608-31.36, 8.96-39.936
	C 18.336,14.24, 23.744,12.8, 29.088,12.8c 9.632,0, 19.040,4.736, 24.576,13.44L 277.888,378.208z"  />
<glyph unicode="&#xe070;" d="M 286.912,537.664C 163.584,523.008, 65.856,425.248, 51.2,301.952l 235.712,0 L 286.912,537.664 z M 354.336,537.184l0-270.56 c0-17.728-14.368-32.096-32.128-32.096L 51.648,234.528 
	c 17.312-132.32, 130.336-234.496, 267.328-234.496c 148.992,0, 269.824,120.768, 269.824,269.824C 588.8,406.848, 486.624,519.872, 354.336,537.184z"  />
<glyph unicode="&#xe071;" d="M 544,576l-70.4,0 C 455.936,576, 448,561.664, 448,544l0-544 l 128,0 L 576,544 C 576,561.664, 561.696,576, 544,576z M 352,384L 281.6,384 C 263.936,384, 256,369.664, 256,352l0-352 l 128,0 L 384,352 
	C 384,369.664, 369.696,384, 352,384z M 160,192L 89.6,192 C 71.936,192, 64,177.696, 64,160l0-160 l 128,0 l0,160 C 192,177.696, 177.664,192, 160,192z"  />
<glyph unicode="&#xe072;" d="M 623.616,531.616l-148.128-241.312c-5.504-8.928-16.256-10.4-23.936-3.232l-71.616,67.072c-7.68,7.168-18.688,5.888-24.512-2.88
	l-100.576-151.68c-5.792-8.736-16.896-10.112-24.672-3.072L 183.36,239.264c-7.776,7.072-19.488,6.144-26.048-2.016l-147.488-183.936
	C 3.232,45.088, 6.464,38.4, 16.928,38.4l 616.672,0 L 633.6,528.8 C 633.632,539.328, 629.12,540.608, 623.616,531.616z"  />
<glyph unicode="&#xe073;" d="M 505.632,351.936L 448,351.936 l0,44.8 c0,92.704-42.688,147.2-128,147.2c-85.28,0-128-54.496-128-147.2l0-44.8 L 128,351.936 c-17.664,0-32-20.704-32-38.4l0-249.6 
		c0-17.6, 13.728-36.448, 30.464-41.824l 38.272-12.384c 16.736-5.408, 44.832-9.824, 62.464-9.824l 185.6,0 c 17.6,0, 45.728,4.416, 62.464,9.824l 38.272,12.384
		C 530.304,27.488, 544,46.336, 544,63.936l0,249.6 C 544,331.232, 523.296,351.936, 505.632,351.936z M 256,409.536c0,46.24, 25.536,70.4, 64,70.4
		c 38.496,0, 64-24.16, 64-70.4l0-57.6 L 256,351.936 L 256,409.536 z"  />
<glyph unicode="&#xe074;" d="M 505.6,352L 448,352 L 448,428.8 C 448,521.504, 405.28,576, 320,576C 234.688,576, 192,521.504, 192,428.8L 192,416 l 64,0 L 256,441.6 C 256,487.84, 281.504,512, 320,512c 38.464,0, 64-24.16, 64-70.4L 384,352 L 128,352 
		C 110.304,352, 96,331.296, 96,313.6L 96,64 c0-17.6, 13.728-36.416, 30.464-41.824l 38.272-12.384C 181.504,4.416, 209.6,0, 227.2,0l 185.6,0 
		c 17.632,0, 45.728,4.416, 62.464,9.824l 38.272,12.384C 530.272,27.584, 544,46.4, 544,64L 544,313.6 C 544,331.296, 523.296,352, 505.6,352z"  />
<glyph unicode="&#xe075;" d="M 352.672,64L 95.36,64 L 95.36,512 l 257.28,0 l0-96 L 416,416 L 416,512 c0,35.2-28.768,64-64,64L 96,576 C 60.8,576, 32,547.2, 32,512l0-448 c0-35.2, 28.8-64, 64-64l 256,0 c 35.232,0, 64,28.8, 64,64l0,64 l-63.328,0 L 352.672,64 z
	 M 608,272l-127.328,124.8L 480.672,320 l-288,0 l0-96 l 288,0 l0-76.8 L 608,272z"  />
<glyph unicode="&#xe076;" d="M 544,576L 256,576 C 220.8,576, 192.64,547.2, 192.64,512l0-96 L 256,416 L 256,512 l 288,0 l0-448 L 256,64 l0,64 L 192.64,128 l0-64 c0-35.2, 28.16-64, 63.36-64l 288,0 c 35.2,0, 64,28.8, 64,64L 608,512 C 608,547.2, 579.2,576, 544,576z
	 M 320,147.2l 128,124.8l-128,124.8L 320,320 L 32,320 l0-96 l 288,0 L 320,147.2 z"  />
<glyph unicode="&#xe077;" d="M 265.44,64c-13.92,0-27.104,6.496-35.552,17.696L 115.52,232.672c-14.88,19.648-11.008,47.616, 8.64,62.496
			c 19.68,14.912, 47.616,11.008, 62.496-8.64l 75.232-99.328l 189.184,303.712c 13.024,20.896, 40.544,27.296, 61.472,14.272
			c 20.896-12.992, 27.296-40.544, 14.24-61.44L 303.328,85.024c-7.776-12.512-21.184-20.352-35.872-20.992C 266.784,64, 266.112,64, 265.44,64z"  />
<glyph unicode="&#xe078;" d="M 459.168,187.136L 370.912,288l 88.256,100.864c 15.008,15.008, 15.008,39.328,0,54.304c-15.008,14.976-39.328,14.976-54.304,0L 320,346.176
		l-84.832,96.96c-15.008,15.008-39.328,15.008-54.304,0c-14.976-15.008-14.976-39.328,0-54.304L 269.088,288l-88.256-100.864
		c-14.976-15.008-14.976-39.264,0-54.24c 15.008-15.008, 39.328-15.008, 54.304,0L 320,229.824l 84.832-96.928c 15.008-15.008, 39.328-15.008, 54.304,0
		S 474.144,172.128, 459.168,187.136z"  />
<glyph unicode="&#xe079;" d="M 512,544L 128,544 C 92.8,544, 64,515.2, 64,480l0-384 c0-35.2, 28.8-64, 64-64l 384,0 c 35.2,0, 64,28.8, 64,64L 576,480 C 576,515.2, 547.2,544, 512,544z M 480,256L 160,256 L 160,320 l 320,0 L 480,256 z"  />
<glyph unicode="&#xe07a;" d="M 512,544L 128,544 C 92.8,544, 64,515.2, 64,480l0-384 c0-35.2, 28.8-64, 64-64l 384,0 c 35.2,0, 64,28.8, 64,64L 576,480 C 576,515.2, 547.2,544, 512,544z M 480,256l-128,0 l0-128 L 288,128 l0,128 L 160,256 L 160,320 l 128,0 L 288,448 l 64,0 l0-128 l 128,0 L 480,256 z"  />
<glyph unicode="&#xe07b;" d="M 512,544L 128,544 C 92.8,544, 64,515.2, 64,480l0-384 c0-35.2, 28.8-64, 64-64l 384,0 c 35.2,0, 64,28.8, 64,64L 576,480 C 576,515.2, 547.2,544, 512,544z M 417.952,134.752L 320,232.672
	l-97.952-97.952l-55.296,55.328L 264.672,288l-97.92,97.92l 55.296,55.328L 320,343.328l 97.92,97.92l 55.328-55.296L 375.328,288l 97.952-97.952L 417.952,134.752z"  />
<glyph unicode="&#xe07c;" d="M 320,556.8c-148.48,0-268.8-120.384-268.8-268.8c0-148.48, 120.352-268.8, 268.8-268.8c 148.448,0, 268.8,120.352, 268.8,268.8C 588.8,436.448, 468.448,556.8, 320,556.8z
		 M 481.6,320.704l0-65.44 L 158.4,255.264 L 158.4,320.704 L 481.6,320.704 z"  />
<glyph unicode="&#xe07d;" d="M 320,556.8c-148.48,0-268.8-120.384-268.8-268.8c0-148.48, 120.352-268.8, 268.8-268.8c 148.448,0, 268.8,120.352, 268.8,268.8C 588.8,436.448, 468.448,556.8, 320,556.8z
		 M 352.704,255.296l0-128.864 L 287.296,126.432 l0,128.864 L 158.4,255.296 L 158.4,320.704 l 128.864,0 L 287.264,449.6 l 65.44,0 l0-128.864 l 128.864,0 l0-65.44 L 352.704,255.296 z"  />
<glyph unicode="&#xe07e;" d="M 320,556.8c-148.48,0-268.8-120.384-268.8-268.8c0-148.48, 120.352-268.8, 268.8-268.8c 148.448,0, 268.8,120.352, 268.8,268.8C 588.8,436.448, 468.448,556.8, 320,556.8z
		 M 375.328,288l 97.952-97.952l-55.328-55.328L 320,232.672l-97.952-97.952l-55.296,55.328L 264.672,288l-97.92,97.92l 55.296,55.328L 320,343.328l 97.952,97.92
		l 55.328-55.296L 375.328,288z"  />
<glyph unicode="&#xe07f;" d="M 486.368,320L 153.6,320 c-17.696,0-19.2-14.336-19.2-32s 1.504-32, 19.2-32l 332.768,0 c 17.696,0, 19.232,14.336, 19.232,32S 504.064,320, 486.368,320z"  />
<glyph unicode="&#xe080;" d="M 486.368,320l-134.4,0 L 351.968,454.4 c0,17.664-14.304,19.2-32,19.2c-17.664,0-32-1.504-32-19.2L 287.968,320 L 153.6,320 c-17.696,0-19.2-14.336-19.2-32s 1.504-32, 19.2-32l 134.368,0 
		l0-134.4 c0-17.664, 14.336-19.2, 32-19.2c 17.696,0, 32,1.536, 32,19.2L 351.968,256 l 134.4,0 c 17.696,0, 19.232,14.336, 19.232,32S 504.064,320, 486.368,320z"  />
<glyph unicode="&#xe081;" d="M 576,512L 270.272,512 c-14.080,0-34.272-7.584-44.864-16.864L 7.936,304.864c-10.592-9.28-10.592-24.448,0-33.728l 217.472-190.304
	C 236,71.584, 256.192,64, 270.272,64L 576,64 c 35.232,0, 64,28.8, 64,64L 640,448 C 640,483.2, 611.232,512, 576,512z M 486.112,160l-81.824,81.824L 322.528,160l-46.208,46.176
	L 358.112,288L 276.32,369.792L 322.528,416l 81.792-81.792L 486.112,416l 46.176-46.208L 450.528,288l 81.792-81.792L 486.112,160z"  />
<glyph unicode="&#xe082;" d="M 320,595.2c-169.664,0-307.2-137.536-307.2-307.2s 137.536-307.2, 307.2-307.2c 169.696,0, 307.2,137.536, 307.2,307.2S 489.696,595.2, 320,595.2z M 485.312,453.248
		l-0.064,0.064C 485.248,453.28, 485.312,453.248, 485.312,453.248z M 86.272,288c0,129.088, 104.64,233.728, 233.728,233.728c 56.128,0, 107.648-19.776, 147.968-52.736
		L 139.040,140.096C 106.048,180.384, 86.272,231.872, 86.272,288z M 154.688,122.752l 0.064-0.064C 154.72,122.72, 154.72,122.72, 154.688,122.752z M 320,54.24
		c-56.128,0-107.616,19.808-147.904,52.768L 500.928,435.904c 32.992-40.288, 52.8-91.776, 52.8-147.904C 553.76,158.912, 449.056,54.24, 320,54.24z"  />
<glyph unicode="&#xe083;" d="M 397.824,608c 42.88,0, 64.32-29.248, 64.32-62.656c0-41.728-37.248-80.352-85.696-80.352c-40.64,0-64.32,24-63.2,63.648
		C 313.248,562.080, 341.408,608, 397.824,608z M 265.888-32c-33.856,0-58.656,20.864-34.976,112.736l 38.848,162.912c 6.752,26.080, 7.872,36.544,0,36.544
		c-10.176,0-54.080-18.016-80.064-35.776L 172.8,272.608c 82.336,69.952, 177.024,110.944, 217.632,110.944c 33.824,0, 39.424-40.704, 22.56-103.328l-44.512-171.264
		c-7.872-30.272-4.512-40.704, 3.36-40.704c 10.176,0, 43.424,12.576, 76.128,38.656l 19.2-26.080C 387.136-0.64, 299.712-32, 265.888-32z"  />
<glyph unicode="&#xe084;" d="M 316.064,582.368c-162.56-2.176-292.608-135.744-290.432-298.336c 2.176-162.496, 135.744-292.576, 298.304-290.4
		c 162.56,2.176, 292.608,135.744, 290.432,298.336C 612.224,454.496, 478.624,584.544, 316.064,582.368z M 348.704,484.256c 29.92,0, 38.752-17.344, 38.752-37.216
		c0-24.8-19.872-47.744-53.76-47.744c-28.352,0-41.824,14.272-41.024,37.824C 292.672,456.992, 309.312,484.256, 348.704,484.256z M 271.968,104
		c-20.448,0-35.424,12.416-21.12,67.008l 23.456,96.768c 4.064,15.52, 4.736,21.728,0,21.728c-6.112,0-32.672-10.72-48.384-21.28l-10.208,16.736
		c 49.76,41.536, 106.976,65.92, 131.488,65.92c 20.448,0, 23.84-24.192, 13.632-61.408l-26.88-101.76c-4.736-17.984-2.688-24.192, 2.048-24.192
		c 6.112,0, 26.24,7.424, 46.016,22.976l 11.552-15.52C 345.216,122.624, 292.448,104, 271.968,104z"  />
<glyph unicode="&#xe085;" d="M 450.88,536.512C 414.368,562.848, 368.576,576, 313.408,576C 271.424,576, 236.032,566.72, 207.264,548.224C 161.6,519.232, 137.344,470.016, 134.4,400.576l 105.792,0 
		c0,20.224, 5.888,39.712, 17.696,58.464s 31.84,28.128, 60.096,28.128c 28.704,0, 48.512-7.616, 59.328-22.816c 10.848-15.264, 16.256-32.128, 16.256-50.624
		c0-16.096-8.064-30.816-17.792-44.224c-5.344-7.808-12.416-14.976-21.152-21.568c0,0-57.376-36.8-82.592-66.368
		c-14.624-17.152-15.936-42.816-17.216-79.648c-0.096-2.624, 0.896-8.032, 10.080-8.032s 74.144,0, 82.304,0s 9.856,6.048, 9.984,8.704
		c 0.576,13.408, 2.080,20.256, 4.544,28c 4.64,14.624, 17.184,27.392, 31.328,38.368l 29.12,20.096c 26.272,20.48, 47.264,37.28, 56.512,50.464
		C 494.496,361.216, 505.6,387.904, 505.6,419.552C 505.6,471.232, 487.328,510.208, 450.88,536.512z M 311.712,130.432c-36.48,1.088-66.56-24.128-67.712-63.68
		c-1.152-39.52, 27.456-65.632, 63.936-66.72c 38.080-1.12, 67.36,23.296, 68.512,62.816C 377.568,102.4, 349.792,129.312, 311.712,130.432z"  />
<glyph unicode="&#xe086;" d="M 316.096,582.368c-162.592-2.176-292.64-135.744-290.464-298.336c 2.176-162.496, 135.744-292.576, 298.336-290.4
	c 162.528,2.176, 292.608,135.744, 290.4,298.336C 612.224,454.496, 478.656,584.544, 316.096,582.368z M 315.232,108.8L 313.6,108.8 c-25.024,0.736-42.688,19.2-41.984,43.872
	c 0.704,24.224, 18.784,41.856, 43.008,41.856l 1.472-0.032c 25.728-0.768, 43.2-19.040, 42.432-44.416C 357.824,125.792, 340,108.8, 315.232,108.8z
	 M 420.544,317.824c-5.92-8.352-18.848-18.752-35.168-31.456l-17.984-12.416c-9.856-7.68-15.808-14.88-18.016-21.952
	c-1.792-5.632-2.624-7.072-2.784-18.432l-0.032-2.912L 277.984,230.656 l 0.192,5.824c 0.832,23.872, 1.44,37.888, 11.328,49.504
	c 15.52,18.208, 49.76,40.256, 51.2,41.184c 4.896,3.712, 9.024,7.904, 12.128,12.384c 7.2,9.92, 10.368,17.76, 10.368,25.408
	c0,10.656-3.168,20.512-9.408,29.28c-6.016,8.48-17.44,12.768-33.952,12.768c-16.384,0-27.584-5.216-34.304-15.872
	C 278.592,380.16, 275.136,368.672, 275.136,356.896l0-2.944 l-70.72,0 l 0.128,3.072c 1.824,43.328, 17.28,74.496, 45.952,92.704C 268.48,461.344, 290.88,467.2, 316.992,467.2
	c 34.208,0, 63.136-8.32, 85.856-24.704c 23.040-16.608, 34.72-41.504, 34.72-73.952C 437.568,350.368, 431.84,333.312, 420.544,317.824z"  />
<glyph unicode="&#xe087;" d="M 624.384,32.576L 339.328,532.768C 335.392,539.68, 328,543.936, 320,543.936c-8,0-15.36-4.256-19.328-11.168L 15.648,32.576
		c-3.872-6.784-3.808-15.072, 0.16-21.792s 11.264-10.848, 19.136-10.848l 570.080,0 c 7.808,0, 15.136,4.128, 19.136,10.848
		C 628.128,17.504, 628.192,25.792, 624.384,32.576z M 355.2,63.936L 284.8,63.936 l0,64 l 70.4,0 L 355.2,63.936 z M 355.2,175.936L 284.8,175.936 l0,192 l 70.4,0 L 355.2,175.936 z"  />
<glyph unicode="&#xe088;" d="M 176.512,152.832c-72.384,77.856-71.104,199.84, 4.064,275.552c 30.784,30.976, 69.248,49.472, 109.248,55.552L 287.616,550.4
	C 231.488,543.584, 177.152,518.528, 134.112,475.2C 33.344,373.696, 32.16,209.92, 130.176,106.176l-55.712-56.096l 176.32-9.632l-0.48,186.688L 176.512,152.832z
	 M 389.184,535.52l 0.48-186.688l 73.824,74.336c 72.384-77.856, 71.136-199.84-4.064-275.552c-30.784-31.008-69.248-49.472-109.28-55.552l 2.208-66.432
	c 56.16,6.816, 110.496,31.872, 153.536,75.232c 100.736,101.472, 101.984,265.28, 3.904,368.992l 55.712,56.096L 389.184,535.52z"  />
<glyph unicode="&#xe089;" d="M 280.736,550.4c 142.272,0, 257.952-113.984, 261.408-255.84L 620.8,294.56 l-117.728-131.232l-117.728,131.232l 91.392,0 C 473.312,400.192, 386.912,484.8, 280.736,484.8
			c-108.352,0-196.16-88.096-196.16-196.8s 87.808-196.8, 196.16-196.8c 43.456,0, 83.584,14.208, 116.096,38.176l 44.96-48.128
			C 397.408,46.4, 341.504,25.6, 280.736,25.6C 136.288,25.6, 19.2,143.072, 19.2,288C 19.2,432.928, 136.288,550.4, 280.736,550.4z"  />
<glyph unicode="&#xe08a;" d="M 359.232,550.4c-142.24,0-257.92-113.984-261.408-255.84L 19.2,294.56 l 117.728-131.2l 117.696,131.2L 163.232,294.56 C 166.688,400.192, 253.088,484.8, 359.232,484.8
			c 108.384,0, 196.192-88.096, 196.192-196.8s-87.808-196.8-196.192-196.8c-43.424,0-83.552,14.208-116.064,38.176l-44.992-48.128
			C 242.56,46.4, 298.464,25.6, 359.232,25.6c 144.48,0, 261.6,117.472, 261.6,262.4C 620.8,432.928, 503.68,550.4, 359.232,550.4z"  />
<glyph unicode="&#xe08b;" d="M 482.976,393.792L 505.6,393.792 l0-64.416 l 134.4,115.2l-134.4,115.2l0-76.384 l-22.624,0 c-118.176,0-184.832-87.584-243.648-164.864
	c-52.896-69.504-98.56-129.536-172.352-129.536L0,188.992 l0-89.632 l 66.976,0 c 118.208,0, 184.832,87.616, 243.68,164.896C 363.52,333.792, 409.184,393.792, 482.976,393.792z
	 M 173.152,337.344c 5.024,6.528, 10.112,13.184, 15.264,19.936c 12.512,16.448, 25.728,33.792, 40.032,51.072C 186.176,447.84, 135.168,476.992, 66.976,476.992L0,476.992 l0-89.6 
	l 66.976,0 C 109.44,387.392, 142.592,367.456, 173.152,337.344z M 505.6,182.624l-22.624,0 c-45.024,0-79.552,22.368-111.68,55.616
	c-3.232-4.192-6.432-8.448-9.696-12.736c-14.112-18.496-29.312-38.432-46.048-58.112c 43.424-42.368, 96.032-74.368, 167.424-74.368L 505.6,93.024 l0-76.8 l 134.4,115.2
	l-134.4,115.264L 505.6,182.624 z"  />
<glyph unicode="&#xe08c;" d="M 512.064,409.6l-345.6,0 L 166.464,480 l-134.4-115.2l 134.4-115.2L 166.464,320 l 320,0 l0-134.4 l-416,0 L 70.464,96 l 441.6,0 c 35.328,0, 64,28.672, 64,64L 576.064,345.6 C 576.064,380.96, 547.36,409.6, 512.064,409.6z
			"  />
<glyph unicode="&#xe08d;" d="M 128.064,192l 259.232,0 l0-96 l 153.6,140.8l-153.6,140.768l0-96 l-233.6,0 L 153.696,480 L 64.064,480 l0-224 C 64.064,220.672, 92.704,192, 128.064,192z"  />
<glyph unicode="&#xe08e;" d="M 159.36,185.6L 159.36,352.64 L 224,352.64 L 112,480L0,352.64l 64.64,0 L 64.64,160 c0-35.328, 28.64-64, 64-64L 416,96 l-81.984,89.6L 159.36,185.6 z M 575.328,223.36L 575.328,416 c0,35.328-28.672,64-64,64L 224,480 
		l 81.952-89.6l 174.688,0 l0-167.040 L 416,223.36 L 528,96l 112,127.36L 575.328,223.36 z"  />
<glyph unicode="&#xe08f;" d="M 544,409.6l-121.6,0 L 422.4,320 l 96,0 l0-134.4 L 121.6,185.6 L 121.6,320 L 256,320 l0-70.4 l 128,115.2L 256,480l0-70.4 L 96,409.6 c-35.328,0-64-28.64-64-64L 32,160 c0-35.328, 28.672-64, 64-64l 448,0 c 35.36,0, 64,28.672, 64,64L 608,345.6 
	C 608,380.96, 579.36,409.6, 544,409.6z"  />
<glyph unicode="&#xe090;" d="M 359.264,550.4c-142.272,0-257.952-113.984-261.408-255.84L 19.2,294.56 l 117.728-131.232l 117.696,131.232L 163.232,294.56 C 166.688,400.192, 253.088,484.8, 359.264,484.8
	c 108.352,0, 196.16-88.096, 196.16-196.8s-87.808-196.8-196.16-196.8c-43.456,0-83.584,14.208-116.096,38.176l-44.992-48.128
	C 242.592,46.4, 298.496,25.6, 359.264,25.6c 144.448,0, 261.568,117.472, 261.568,262.4C 620.8,432.928, 503.68,550.4, 359.264,550.4z M 336,428.8l0-150.080 l 96.16-96.16
	l 31.68,31.68L 380.8,297.28L 380.8,428.8 L 336,428.8 z"  />
<glyph unicode="&#xe091;" d="M 154.112,288l 326.4,0 l0-153.6 l 89.6,0 L 570.112,313.6 c0,35.36-28.672,64-64,64l-352,0 l0,64 l-128-108.8l 128-102.4L 154.112,288 z"  />
<glyph unicode="&#xe092;" d="M 448,441.6L 128,441.6 l0,64 L0,396.8l 128-102.4L 128,352 l 320,0 L 448,441.6 z M 640,172.8L 512,281.6l0-64 L 192,217.6 L 192,128 l 320,0 l0-57.6 L 640,172.8z"  />
<glyph unicode="&#xe093;" d="M 160,192L 128,192 c-17.664,0-32-14.304-32-32s 14.336-32, 32-32l 32,0 c 17.664,0, 32,14.304, 32,32S 177.664,192, 160,192z M 160,320L 128,320 c-17.664,0-32-14.336-32-32s 14.336-32, 32-32l 32,0 
	c 17.664,0, 32,14.336, 32,32S 177.664,320, 160,320z M 160,448L 128,448 C 110.336,448, 96,433.664, 96,416s 14.336-32, 32-32l 32,0 c 17.664,0, 32,14.336, 32,32S 177.664,448, 160,448z M 288,384l 224,0 
	c 17.696,0, 32,14.336, 32,32s-14.304,32-32,32L 288,448 C 270.336,448, 256,433.664, 256,416S 270.336,384, 288,384z M 512,320L 288,320 c-17.664,0-32-14.336-32-32s 14.336-32, 32-32l 224,0 
	c 17.696,0, 32,14.336, 32,32S 529.696,320, 512,320z M 512,192L 288,192 c-17.664,0-32-14.304-32-32s 14.336-32, 32-32l 224,0 c 17.696,0, 32,14.304, 32,32S 529.696,192, 512,192z"  />
<glyph unicode="&#xe094;" d="M 224,320L 32,320 c-17.664,0-32-14.336-32-32s 14.336-32, 32-32l 192,0 c 17.664,0, 32,14.336, 32,32S 241.664,320, 224,320z M 224,192L 32,192 c-17.664,0-32-14.304-32-32s 14.336-32, 32-32l 192,0 
		c 17.664,0, 32,14.304, 32,32S 241.664,192, 224,192z M 620.8,320L 512,320 L 512,428.8 C 512,446.464, 497.696,448, 480,448s-32-1.536-32-19.2L 448,320 l-105.6,0 C 324.704,320, 323.2,305.664, 323.2,288
		s 1.536-32, 19.232-32L 448,256 l0-108.8 c0-17.664, 14.304-19.2, 32-19.2s 32,1.536, 32,19.2L 512,256 l 108.8,0 c 17.664,0, 19.2,14.336, 19.2,32S 638.464,320, 620.8,320z M 224,448L 32,448 
		C 14.336,448,0,433.664,0,416s 14.336-32, 32-32l 192,0 c 17.664,0, 32,14.336, 32,32S 241.664,448, 224,448z"  />
<glyph unicode="&#xe095;" d="M 236.8,480L 179.2,480 C 144,480, 128,464, 128,428.8l0-57.6 C 128,336, 144,320, 179.2,320l 57.6,0 C 272,320, 288,336, 288,371.2L 288,428.8 C 288,464, 272,480, 236.8,480z M 460.8,480L 403.2,480 
		C 368,480, 352,464, 352,428.8l0-57.6 C 352,336, 368,320, 403.2,320L 460.8,320 C 496,320, 512,336, 512,371.2L 512,428.8 C 512,464, 496,480, 460.8,480z M 236.8,256L 179.2,256 
		C 144,256, 128,240, 128,204.8L 128,147.2 C 128,112, 144,96, 179.2,96l 57.6,0 C 272,96, 288,112, 288,147.2L 288,204.8 C 288,240, 272,256, 236.8,256z M 460.8,256L 403.2,256 
		c-35.2,0-51.2-16-51.2-51.2L 352,147.2 c0-35.2, 16-51.2, 51.2-51.2L 460.8,96 c 35.2,0, 51.2,16, 51.2,51.2L 512,204.8 C 512,240, 496,256, 460.8,256z"  />
<glyph unicode="&#xe096;" d="M 512,320L 128,320 c-17.664,0-32-14.336-32-32s 14.336-32, 32-32l 384,0 c 17.696,0, 32,14.336, 32,32S 529.696,320, 512,320z M 128,384l 384,0 c 17.696,0, 32,14.336, 32,32
		s-14.304,32-32,32L 128,448 C 110.336,448, 96,433.664, 96,416S 110.336,384, 128,384z M 512,192L 128,192 c-17.664,0-32-14.304-32-32s 14.336-32, 32-32l 384,0 c 17.696,0, 32,14.304, 32,32
		S 529.696,192, 512,192z"  />
<glyph unicode="&#xe097;" d="M 231.136,260.16l 179.2,0 l0,57.6 l-179.2,0 L 231.136,260.16 z M 480,576L 160,576 C 124.8,576, 96,547.2, 96,512l0-448 c0-35.2, 28.8-64, 64-64l 320,0 c 35.2,0, 64,28.8, 64,64L 544,512 C 544,547.2, 515.2,576, 480,576z
		 M 480,64L 160,64 L 160,512 l 320,0 L 480,64 z M 409.6,442.592L 230.4,442.592 l0-56 l 179.2,0 L 409.6,442.592 z M 409.6,191.36L 230.4,191.36 l0-56 l 179.2,0 L 409.6,191.36 z"  />
<glyph unicode="&#xe098;" d="M 480,576L 160,576 C 124.8,576, 96,547.2, 96,512l0-448 c0-35.2, 28.8-64, 64-64l 320,0 c 35.2,0, 64,28.8, 64,64L 544,512 C 544,547.2, 515.2,576, 480,576z M 185.984,442.592l 268,0 l0-56 L 185.984,386.592 L 185.984,442.592 
	z M 453.984,135.36L 185.984,135.36 l0,56 l 268,0 L 453.984,135.36 z M 454.752,260.16L 186.752,260.16 l0,57.6 l 268,0 L 454.752,260.16 z"  />
<glyph unicode="&#xe099;" d="M 480,576L 160,576 C 124.8,576, 96,547.2, 96,512l0-448 c0-35.2, 28.8-64, 64-64l 320,0 c 35.2,0, 64,28.8, 64,64L 544,512 C 544,547.2, 515.2,576, 480,576z M 480,64L 160,64 L 160,512 l 320,0 L 480,64 z"  />
</font>
</defs>
</svg>
