<?xml version="1.0" standalone="no"?>
<!DOCTYPE svg PUBLIC "-//W3C//DTD SVG 1.1//EN" "http://www.w3.org/Graphics/SVG/1.1/DTD/svg11.dtd" >
<svg xmlns="http://www.w3.org/2000/svg">
<metadata>
This is a custom SVG font generated by IcoMoon.
<iconset grid="22"></iconset>
</metadata>
<defs>
<font id="ecoico" horiz-adv-x="704" >
<font-face units-per-em="704" ascent="672" descent="-32" />
<missing-glyph horiz-adv-x="704" />
<glyph class="hidden" unicode="&#xf000;" d="M0,672L 704 -32L0 -32 z" horiz-adv-x="0" />
<glyph unicode="&#xe000;" d="M 352-32C 157.6-32,0,125.6,0,320S 157.6,672, 352,672s 352-157.6, 352-352S 546.4-32, 352-32z
	 M 352,608c-159.072,0-288-128.928-288-288s 128.928-288, 288-288s 288,128.928, 288,288S 511.072,608, 352,608z M 192,288l 96,0 l 64,256l 64-256l 96,0 l-160-160L 192,288z" data-tags="download, arrow-down, bottom" />
<glyph unicode="&#xe001;" d="M 384,32l-64,0 c-49.44,0-96.064,11.52-137.856,31.552L 32-32l 20.8,208.128
	C 19.488,226.592,0,287.008,0,352C0,528.736, 143.264,672, 320,672l 64,0 c 176.736,0, 320-143.264, 320-320C 704,175.264, 560.736,32, 384,32z M 384,608l-64,0 
	c-141.376,0-256-114.624-256-256c0-141.376, 114.624-256, 256-256l 64,0 c 141.376,0, 256,114.624, 256,256C 640,493.376, 525.376,608, 384,608z M 480,320c-17.696,0-32,14.336-32,32s 14.304,32, 32,32
	s 32-14.336, 32-32S 497.696,320, 480,320z M 352,320c-17.664,0-32,14.336-32,32s 14.336,32, 32,32c 17.696,0, 32-14.336, 32-32S 369.696,320, 352,320z M 224,320
	c-17.664,0-32,14.336-32,32s 14.336,32, 32,32s 32-14.336, 32-32S 241.664,320, 224,320z" data-tags="chat, comments, talk, bubble" />
<glyph unicode="&#xe002;" d="M 640,32c0,0-512,0-576,0s-64,64-64,64l0,224 l 160,288l 384,0 l 160-288c0,0,0-160,0-224S 640,32, 640,32z M 512,544L 192,544 
	l-112-224l 544,0 L 512,544z M 640,256L 64,256 l0-160 l 576,0 L 640,256 z M 416,160L 288,160 l0,32 l 128,0 L 416,160 z M 496,416L 512,384L 192,384 l 16,32L 496,416 z M 240,480l 224,0 L 480,448L 224,448 L 240,480z" data-tags="archive, drawer, cabinet, category" />
<glyph unicode="&#xe003;" d="M 640,32c0,0,0-64-64-64S 180.352-32, 128-32c-64,0-64,64-64,64s-34.016,245.376, 180.768,306.368
	C 212.576,373.504, 192,423.68, 192,480c0,106.016, 71.648,192, 160,192c 88.384,0, 160-85.984, 160-192c0-56.32-20.576-106.496-52.768-141.632C 674.016,277.376, 640,32, 640,32z M 352,608
	c0,0-96,0-96-128s 96-128, 96-128s 96,0, 96,128S 352,608, 352,608z M 352,288c-256,0-224-256-224-256l 448,0 C 576,32, 608,288, 352,288z" data-tags="user, profile, avatar" />
<glyph unicode="&#xe004;" d="M 832.928,32.355c0,0,0-63.921-63.921-63.921s-395.162,0-447.45,0c-63.921,0-63.921,63.921-63.921,63.921s-33.974,245.075, 180.545,305.991
	C 406.029,373.439, 385.478,423.553, 385.478,479.804c0,105.885, 71.559,191.764, 159.804,191.764s 159.804-85.878, 159.804-191.764c0-56.25-20.615-106.365-52.735-141.457
	C 866.902,277.428, 832.928,32.355, 832.928,32.355z M 545.281,607.647c0,0-95.882,0-95.882-127.843s 95.882-127.843, 95.882-127.843s 95.882,0, 95.882,127.843S 545.281,607.647, 545.281,607.647z M 545.281,288.039c-255.686,0-223.725-255.686-223.725-255.686l 447.45,0 
	C 769.007,32.355, 800.967,288.039, 545.281,288.039z M 284.801,276.758C 275.213,264.708, 266.999,251.7, 259.521,238.18c-18.186,7.319-39.855,12.081-66.799,12.081
	c-170.159,0-148.905-174.346-148.905-174.346l 176.902,0 C 220.912,61.119, 222.415,46.576, 224.78,32.355c-75.171,0-160.41,0-180.961,0
	C 1.279,32.355, 1.279,75.917, 1.279,75.917s-22.788,170.543, 125.254,209.727c-19.081,23.875-31.162,57.625-31.162,95.37C 95.37,453.213, 138.964,511.764, 192.691,511.764
	s 97.321-58.551, 97.321-130.751c0-37.777-12.081-71.529-31.162-95.37C 268.182,283.181, 276.812,280.177, 284.801,276.758z M 192.691,468.17
	c0,0-56.826,0-56.826-87.156c0-87.188, 56.826-87.188, 56.826-87.188s 56.826,0, 56.826,87.188C 249.549,468.17, 192.691,468.17, 192.691,468.17z" horiz-adv-x="834.909" data-tags="users, profiles, people, group" />
<glyph unicode="&#xe005;" d="M 640,32c0,0-512,0-576,0s-64,64-64,64l0,224 l 160,288l 384,0 l 160-288c0,0,0-160,0-224S 640,32, 640,32z M 512,544L 192,544 
	l-112-224L 224,320 c0,0, 64,0, 64-64l0-32 l 128,0 l0,32 c0,0,0,64, 64,64l 144,0 L 512,544z M 640,256l-152.288,0 C 483.264,247.584, 480,237.504, 480,224c0-64-64-64-64-64L 288,160 c0,0-64,0-64,64
	c0,13.504-3.264,23.584-7.712,32L 64,256 l0-160 l 576,0 L 640,256 z M 208,416l 288,0 L 512,384L 192,384 L 208,416z M 240,480l 224,0 L 480,448L 224,448 L 240,480z" data-tags="archive, drawer, category, cabinet" />
<glyph unicode="&#xe006;" d="M 352-32C 157.6-32,0,125.6,0,320S 157.6,672, 352,672s 352-157.6, 352-352S 546.4-32, 352-32z
	 M 352,608c-159.072,0-288-128.928-288-288s 128.928-288, 288-288s 288,128.928, 288,288S 511.072,608, 352,608z M 496.288,150.016l-8.288-4.992l-24-15.008l-14.144-10.624
	c-10.496-5.12-21.472-9.184-32.832-12.672l0,14.272 l-4,32.992c0,0-1.984,19.008-4.992,24s-9.984,12-16.992,15.008
	s-12,3.008-16,8s-7.008,14.016-12,22.016S 352,239.008, 352,243.008S 352,288, 352,288l 4.992,38.016l 11.008,8l 12.992,15.008L 390.016,352
	l 31.008-6.016l 22.016,0 l 8.992-19.008l 20.992-16.992l 12.992-20.992l 16.992-6.016l 19.008,0 l 12.992-16l 8-16.992l 3.008-12l0-20 l-2.048-11.808
	C 531.232,184.8, 515.168,166.016, 496.288,150.016z M 419.008,495.008l-22.016-12l-8-23.008L 376,448l-43.008,0 L 312.992,440L 312,424
	L 304,411.008L 302.016,396.992l 4-12l 4.992-12c0,0, 12-14.016,0-24c0,0-15.008,0-17.984,4.992S 268,372.992, 264,376.992
	s-16.992,8-16.992,8l-16,6.016L 216,392l 0.992,20.992L 216,431.008L 209.984,444L 192.992,456.992L 192,471.008l 2.048,7.776
	C 234.56,519.072, 290.368,544, 352,544c 34.784,0, 67.296-8.608, 96.672-22.752L 448,516L 419.008,495.008z" data-tags="earth, world, globe" />
<glyph unicode="&#xe007;" d="M 352-32c0,0-224,256-224,480s 224,224, 224,224s 224,0, 224-224S 352-32, 352-32z M 508.992,477.76
	c-7.36,39.104-29.152,72.704-59.36,96.16c-2.048,1.632-3.904,3.456-6.048,4.992c-4.736,3.36-9.984,6.016-15.136,8.832
	c-4.32,2.4-8.384,5.024-12.96,7.040c-4.48,1.952-9.312,3.104-14.016,4.64c-5.472,1.792-10.688,3.936-16.48,5.12
	C 374.336,606.752, 363.36,608, 352.064,608c0,0-0.032,0-0.064,0c-0.064,0-0.096,0-0.16,0c-11.136,0-21.984-1.184-32.48-3.328
	C 298.4,600.448, 279.648,592.128, 263.2,581.024C 262.944,580.864, 262.688,580.768, 262.464,580.608c-6.816-4.64-12.928-9.984-18.88-15.584
	c-1.792-1.664-3.776-3.072-5.472-4.8c-4-4.128-7.36-8.704-10.912-13.184C 224.16,543.168, 220.864,539.488, 218.144,535.328
	C 216.32,532.416, 214.944,529.28, 213.248,526.272C 209.856,520.224, 206.4,514.208, 203.776,507.712C 202.784,505.28, 202.304,502.688, 201.44,500.192
	c-2.432-7.040-4.896-14.080-6.336-21.568C 193.088,468.576, 192,458.304, 192,448c0-160, 160-384, 160-384s 160,224, 160,384C 512,457.952, 510.976,467.936, 508.992,477.76z M 256,448
	c0,53.024, 42.976,96, 96,96s 96-42.976, 96-96s-42.976-96-96-96S 256,394.976, 256,448z" data-tags="location, pin, map maker" />
<glyph unicode="&#xe008;" d="M 596,352L 384,352 L 384,564 l 61.312-61.312l 223.456,134.080l-134.080-223.488L 596,352z M 148.352,523.648
	c-85.408-85.408-105.792-211.104-61.44-315.936l-37.152-67.456c-80.448,135.136-62.944,312.384, 53.344,428.672s 293.536,133.792, 428.64,53.344l-67.424-37.152
	C 359.456,629.44, 233.792,609.088, 148.352,523.648z M 108,288L 320,288 l0-212 l-61.312,61.312l-223.456-134.080l 134.080,223.456L 108,288z M 555.648,116.384
	c 85.792,85.76, 105.92,212.096, 60.832,317.184l 37.216,67.072c 81.056-135.232, 63.712-313.024-52.8-429.536c-116.576-116.544-294.304-133.888-429.536-52.8
	l 67.072,37.216C 343.488,10.432, 469.888,30.56, 555.648,116.384z" data-tags="contract, minimize, collapse" />
<glyph unicode="&#xe009;" d="M 544-32L 160-32 c-35.328,0-64,28.672-64,64L 96,608 c0,35.328, 28.672,64, 64,64l 384,0 c 35.328,0, 64-28.672, 64-64l0-576 
	C 608-3.328, 579.328-32, 544-32z M 544,608L 160,608 l0-576 l 384,0 L 544,608 z M 480,128L 224,128 L 224,544 l 256,0 L 480,128 z M 384,64l-64,0 l0,32 l 64,0 L 384,64 z" data-tags="mobile, phone, cellular" />
<glyph unicode="&#xe00a;" d="M 640,96l-220.864,0 C 417.344,86.304, 416,75.872, 416,64c0-64, 64-64, 64-64c 17.696,0, 32-7.2, 32-16
	c0-8.832-14.304-16-32-16L 224-32 c-17.664,0-32,7.168-32,16C 192-7.2, 206.336,0, 224,0c0,0, 64,0, 64,64c0,11.872-1.344,22.304-3.136,32L 64,96 
	c-35.328,0-64,28.672-64,64L0,608 c0,35.328, 28.672,64, 64,64l 576,0 c 35.328,0, 64-28.672, 64-64l0-448 C 704,124.672, 675.328,96, 640,96z M 640,608L 64,608 l0-384 l 576,0 L 640,608 z" data-tags="screen, monitor, pc, desktop, computer" />
<glyph unicode="&#xe00b;" d="M 640,64L 64,64 c-35.328,0-64,28.672-64,64L0,512 c0,35.328, 28.672,64, 64,64l 576,0 c 35.328,0, 64-28.672, 64-64l0-384 
	C 704,92.672, 675.328,64, 640,64z M 608,128l-183.424,160.512L 352,224l-72.576,64.512L 96,128L 608,128 z M 64,160l 180,160L 64,480L 64,160 z M 96,512l 256-224l 256,224L 96,512 z M 640,480
	l-180-160L 640,160L 640,480 z" data-tags="mail, email, envelope, contact" />
<glyph unicode="&#xe00c;" d="M 600.896,71.104c-137.472-137.472-360.352-137.472-497.824,0
	c-137.44,137.472-137.44,360.352,0,497.824c 137.472,137.44, 360.352,137.44, 497.824,0C 738.368,431.424, 738.368,208.576, 600.896,71.104z M 531.68,95.072
	l-46.176,46.176c-79.232-59.2-187.776-59.2-266.976,0L 173.12,95.872C 277.92,12.128, 426.944,11.2, 531.68,95.072z M 465.12,433.152
	c-62.464,62.496-163.776,62.496-226.272,0s-62.496-163.808,0-226.272c 62.496-62.496, 163.808-62.496, 226.272,0C 527.616,269.344, 527.616,370.656, 465.12,433.152z
	 M 127.040,140.32l 46.208,46.176c-59.232,79.232-59.232,187.776,0,266.976L 127.872,498.88C 44.128,394.080, 43.2,245.056, 127.040,140.32z M 173.12,544.128
	l 45.408-45.408c 79.2,59.232, 187.776,59.232, 266.976,0l 46.176,46.208C 426.944,628.8, 277.92,627.872, 173.12,544.128z M 576.928,499.68l-46.176-46.208
	c 59.2-79.2, 59.2-187.776,0-266.976l 45.376-45.376C 659.872,245.92, 660.8,394.944, 576.928,499.68z" data-tags="support, help" />
<glyph unicode="&#xe00d;" d="M 352-32C 157.6-32,0,125.6,0,320S 157.6,672, 352,672s 352-157.6, 352-352S 546.4-32, 352-32z
	 M 352,608c-159.072,0-288-128.928-288-288s 128.928-288, 288-288s 288,128.928, 288,288S 511.072,608, 352,608z M 384,260.544C 384,243.008, 384,224, 384,224l-64,0 c0,0,0,46.304,0,64
	s 14.336,32, 32,32l0,0c 35.328,0, 64,28.672, 64,64s-28.672,64-64,64S 288,419.328, 288,384c0-11.712, 3.36-22.56, 8.864-32L 228.544,352 C 225.856,362.272, 224,372.896, 224,384
	c0,70.688, 57.312,128, 128,128s 128-57.312, 128-128C 480,324.448, 439.136,274.816, 384,260.544z M 384,128l-64,0 l0,64 l 64,0 L 384,128 z" data-tags="help, question" />
<glyph unicode="&#xe00e;" d="M 640-32L 64-32 c-35.328,0-64,28.672-64,64L0,608 c0,35.328, 28.672,64, 64,64l 576,0 c 35.328,0, 64-28.672, 64-64l0-576 
	C 704-3.328, 675.328-32, 640-32z M 128,608L 64,608 l0-64 l 64,0 L 128,608 z M 128,512L 64,512 l0-64 l 64,0 L 128,512 z M 128,416L 64,416 l0-64 l 64,0 L 128,416 z M 128,288L 64,288 l0-64 l 64,0 L 128,288 z M 128,192L 64,192 l0-64 l 64,0 L 128,192 z M 128,96L 64,96 l0-64 l 64,0 L 128,96 z M 544,608L 160,608 
	l0-576 l 384,0 L 544,608 z M 640,608l-64,0 l0-64 l 64,0 L 640,608 z M 640,512l-64,0 l0-64 l 64,0 L 640,512 z M 640,416l-64,0 l0-64 l 64,0 L 640,416 z M 640,288l-64,0 l0-64 l 64,0 L 640,288 z M 640,192l-64,0 l0-64 l 64,0 L 640,192 z M 640,96l-64,0 l0-64 l 64,0 L 640,96 z M 320,416
	c 32,0, 128-64, 128-96s-96-96-128-96s-31.872,32-31.872,32L 288.128,384 C 288.128,384, 288,416, 320,416z" data-tags="videos, movies, film" />
<glyph unicode="&#xe00f;" d="M 640-32L 64-32 c-35.328,0-64,28.672-64,64L0,608 c0,35.328, 28.672,64, 64,64l 576,0 c 35.328,0, 64-28.672, 64-64l0-576 
	C 704-3.328, 675.328-32, 640-32z M 640,608L 64,608 l0-576 l 576,0 L 640,608 z M 320,192l 96,128l 160-224L 128,96 l 128,160L 320,192z M 256,384C 220.672,384, 192,412.672, 192,448s 28.672,64, 64,64s 64-28.672, 64-64
	S 291.328,384, 256,384z" data-tags="pictures, images, photos" />
<glyph unicode="&#xe010;" d="M 623.52,48.448c-62.496-62.432-163.776-62.432-226.272,0l-67.872,67.936
	c-20.672,20.64-33.792,45.632-40.8,71.936c 21.056,2.56, 41.792,8.064, 61.568,16.64c 4.192-15.872, 12.096-30.944, 24.512-43.328l 67.872-67.936
	c 37.504-37.44, 98.272-37.44, 135.776,0c 37.472,37.504, 37.472,98.304,0,135.808l-67.904,67.872c-29.504,29.504-73.312,35.424-108.96,18.464l 63.712-63.712
	c 12.512-12.512, 12.512-32.736,0-45.248s-32.736-12.512-45.248,0l-70.144,70.112c-62.112-41.12-146.624-34.368-201.376,20.352L 80.48,365.248
	c-62.464,62.496-62.464,163.808,0,226.272s 163.776,62.496, 226.272,0l 67.872-67.904c 20.672-20.64, 33.824-45.664, 40.8-72
	c-21.056-2.56-41.792-8.064-61.568-16.576c-4.192,15.84-12.096,30.88-24.512,43.328L 261.504,546.272C 224,583.744, 163.232,583.744, 125.728,546.272
	C 88.256,508.768, 88.256,448, 125.728,410.496l 67.872-67.904c 29.536-29.504, 73.344-35.424, 108.992-18.464L 238.88,387.872c-12.512,12.512-12.512,32.768,0,45.28
	s 32.736,12.512, 45.248,0l 70.144-70.176c 62.112,41.152, 146.624,34.4, 201.376-20.352l 67.872-67.872C 686.016,212.256, 686.016,110.944, 623.52,48.448z" data-tags="link, anchor, chain" />
<glyph unicode="&#xe011;" d="M 704,32c0-64-64-64-64-64l-183.104,183.072C 409.44,116.576, 351.2,96, 288,96
	c-159.072,0-288,128.928-288,288s 128.928,288, 288,288s 288-128.928, 288-288c0-63.2-20.608-121.44-55.104-168.928L 704,32z M 288,608C 164.288,608, 64,507.712, 64,384s 100.288-224, 224-224
	s 224,100.288, 224,224S 411.712,608, 288,608z" data-tags="search, magnifier" />
<glyph unicode="&#xe012;" d="M 704,384l0-128 l-78.496-26.144c-4.48-13.568-10.24-26.432-16.576-39.040l 37.216-74.464l-90.528-90.496
	l-74.528,37.28c-12.544-6.304-25.408-12.064-38.912-16.512L 416-32L 288-32 l-26.208,78.624c-13.504,4.448-26.368,10.176-38.88,16.512l-74.56-37.28
	l-90.528,90.496l 37.248,74.464c-6.336,12.608-12.096,25.472-16.576,39.040L0,256L0,384 l 78.496,26.144c 4.48,13.568, 10.24,26.432, 16.576,39.040L 57.856,523.648
	l 90.528,90.496l 74.56-37.28c 12.544,6.304, 25.376,12.064, 38.88,16.512L 288,672l 128,0 l 26.176-78.624c 13.504-4.448, 26.368-10.176, 38.912-16.512l 74.528,37.28
	l 90.528-90.496l-37.216-74.464c 6.304-12.608, 12.096-25.472, 16.576-39.040L 704,384z M 572.992,352.736c-5.536,37.216-20.32,71.328-41.728,100.096
	l 35.648,59.488L 544.32,534.976L 484.8,499.264c-28.8,21.28-62.816,35.936-100,41.44L 368,608l-32,0 L 319.168,540.672C 282.016,535.2, 248,520.544, 219.2,499.264
	L 159.68,534.976L 137.056,512.352l 35.68-59.488C 151.296,424.064, 136.544,389.984, 131.008,352.736L 64,336l0-32 l 67.008-16.736
	c 5.504-37.216, 20.288-71.328, 41.696-100.096l-35.68-59.488l 22.624-22.624l 59.52,35.712c 28.768-21.28, 62.816-35.936, 99.968-41.44L 336,32l 32,0 
	l 16.8,67.328c 37.184,5.504, 71.2,20.16, 100,41.44l 59.488-35.712l 22.624,22.624l-35.648,59.488c 21.408,28.768, 36.192,62.88, 41.728,100.096
	L 640,304l0,32 L 572.992,352.736z M 352,224c-53.024,0-96,42.976-96,96s 42.976,96, 96,96c 52.992,0, 96-42.976, 96-96S 404.992,224, 352,224z M 352,352
	c-17.664,0-32-14.304-32-32s 14.336-32, 32-32c 17.696,0, 32,14.304, 32,32S 369.696,352, 352,352z" data-tags="cog, settings, gear" />
<glyph unicode="&#xe013;" d="M 640,544l-32,0 l0-512 c0-35.328-28.672-64-64-64L 160-32 c-35.328,0-64,28.672-64,64L 96,544 L 64,544 C 46.336,544, 32,558.304, 32,576
	s 14.336,32, 32,32l 192,0 c0,35.328, 28.672,64, 64,64l 64,0 c 35.328,0, 64-28.672, 64-64l 192,0 c 17.696,0, 32-14.304, 32-32S 657.696,544, 640,544z M 544,544L 160,544 l0-512 l 384,0 L 544,544 z M 288,480
	c 17.664,0, 32-14.304, 32-32l0-320 c0-17.696-14.336-32-32-32s-32,14.304-32,32L 256,448 C 256,465.696, 270.336,480, 288,480z M 416,480c 17.696,0, 32-14.304, 32-32l0-320 
	c0-17.696-14.304-32-32-32s-32,14.304-32,32L 384,448 C 384,465.696, 398.304,480, 416,480z" data-tags="trashcan, remove, delete, garbage" />
<glyph unicode="&#xe014;" d="M 615.552,536.448L 568,584L 624,640c0,0, 48,0.992, 48-47.008L 615.552,536.448z M 96,512l0-448 
	l 448,0 L 544,368 l 64,64L 608,64 c0-35.328-28.672-64-64-64L 96,0 c-35.328,0-64,28.672-64,64L 32,512 c0,35.328, 28.672,64, 64,64l 368,0 l-64-64L 96,512 z M 256,224l0,48 l 24,24l 47.968-47.968
	L 304,224L 256,224 z M 583.616,504.384l-239.68-240.32L 296,312l 240,240L 583.616,504.384z" data-tags="pencil, edit, write, blog" />
<glyph unicode="&#xe015;" d="M 352-32C 157.6-32,0,125.6,0,320S 157.6,672, 352,672s 352-157.6, 352-352S 546.4-32, 352-32z
	 M 352,608c-159.072,0-288-128.928-288-288s 128.928-288, 288-288s 288,128.928, 288,288S 511.072,608, 352,608z M 320,128c-32,0-32,32-32,32l 32,160c0,0,0,32-32,32c0,0-32,0-32,32l 96,0 
	c0,0, 32,0, 32-32s-32-128-32-160s 32-32, 32-32l 32,0 C 416,160, 416,128, 320,128z M 384,448c-17.696,0-32,14.304-32,32s 14.304,32, 32,32s 32-14.304, 32-32S 401.696,448, 384,448z" data-tags="info" />
<glyph unicode="&#xe016;" d="M 576-32L 128-32 c-35.328,0-64,28.672-64,64L 64,608 c0,35.328, 28.672,64, 64,64l 448,0 c 35.328,0, 64-28.672, 64-64l0-576 
	C 640-3.328, 611.328-32, 576-32z M 576,608L 128,608 l0-576 l 448,0 L 576,608 z M 288,480L 192,480 L 192,544 l 96,0 L 288,480 z M 288,352L 192,352 L 192,416 l 96,0 L 288,352 z M 512,224L 192,224 l0,64 l 320,0 L 512,224 z M 512,96L 192,96 l0,64 l 320,0 L 512,96 z M 352,544l 160,0 l0-192 l-160,0 L 352,544 
	z" data-tags="article, news, file" />
<glyph unicode="&#xe017;" d="M 352-32C 157.6-32,0,125.6,0,320S 157.6,672, 352,672s 352-157.6, 352-352S 546.4-32, 352-32z
	 M 352,608c-159.072,0-288-128.928-288-288s 128.928-288, 288-288s 288,128.928, 288,288S 511.072,608, 352,608z M 480,288l-72.864,0 c-11.104-19.072-31.488-32-55.136-32
	c-35.328,0-64,28.672-64,64c0,23.616, 12.928,44.032, 32,55.136L 320,512 c0,17.696, 14.304,32, 32,32s 32-14.304, 32-32l0-136.864 c 9.6-5.6, 17.632-13.568, 23.264-23.136L 480,352 
	c 17.696,0, 32-14.304, 32-32S 497.696,288, 480,288z" data-tags="clock, time, history" />
<glyph unicode="&#xe018;" d="M 640-32L 64-32 c-35.328,0-64,28.672-64,64L0,608 c0,35.328, 28.672,64, 64,64l 576,0 c 35.328,0, 64-28.672, 64-64l0-576 
	C 704-3.328, 675.328-32, 640-32z M 640,608L 64,608 l0-576 l 576,0 L 640,608 z M 342.528,426.848c 15.584-12.448, 25.76-32.384, 25.76-56.096c0-24.096-7.808-44.032-22.624-57.6
	c-19.104-18.432-49.152-27.104-83.072-27.104c-8.96,0-17.184,0.384-23.392,1.504l0-95.616 L 191.584,191.936 L 191.584,442.24 c 17.152,3.040, 40.96,5.28, 73.312,5.28
	C 300.032,447.52, 325.792,440.384, 342.528,426.848z M 239.2,324.064c 5.856-1.504, 13.664-1.888, 23.392-1.888c 35.872,0, 57.728,16.928, 57.728,46.688
	c0,28.224-20.288,43.296-53.44,43.296c-13.248,0-22.624-1.12-27.68-2.24L 239.2,324.064 z M 454.208,221.312c 21.056,0, 30.4,8.288, 30.4,20.32
	c0,12.448-7.776,18.848-31.2,26.72c-37.056,12.448-52.672,32-52.288,53.472c0,32.384, 27.68,57.6, 71.776,57.6c 21.056,0, 39.36-5.28, 50.304-10.912
	l-9.376-32.736c-8.192,4.512-23.392,10.528-40.16,10.528c-17.152,0-26.528-7.904-26.528-19.232c0-11.648, 8.96-17.312, 33.152-25.568
	c 34.304-12.064, 50.304-28.992, 50.688-56.096c0-33.12-26.912-57.6-77.216-57.6c-23.008,0-43.68,5.632-57.728,13.152l 9.344,33.504
	C 416.384,228.096, 437.024,221.312, 454.208,221.312z" data-tags="photoshop, adobe, file" />
<glyph unicode="&#xe019;" d="M 640-32L 64-32 c-35.328,0-64,28.672-64,64L0,608 c0,35.328, 28.672,64, 64,64l 576,0 c 35.328,0, 64-28.672, 64-64l0-576 
	C 704-3.328, 675.328-32, 640-32z M 640,608L 64,608 l0-576 l 576,0 L 640,608 z M 339.616,446.944l 84.032-255.584l-50.656,0 l-23.392,72.448L 267.456,263.808 l-22.24-72.448L 196.48,191.36 L 279.36,446.944
	L 339.616,446.944 z M 341.536,299.040l-20.352,62.976C 316.224,377.536, 312,395.008, 308.16,409.792L 307.36,409.792 c-3.84-14.784-7.648-32.64-12.288-47.776l-19.936-62.976
	L 341.536,299.040 z M 481.76,452.992c 16.128,0, 26.080-11.008, 26.464-25.408c0-14.016-10.336-25.024-26.848-25.024c-15.744,0-26.080,11.008-26.080,25.024
	C 455.296,441.984, 465.984,452.992, 481.76,452.992z M 505.536,191.328l-47.552,0 L 457.984,376.032 l 47.552,0 L 505.536,191.328 z" data-tags="illustrator, adobe, file" />
<glyph unicode="&#xe01a;" d="M 541.696,221.088c0,0, 66.272-218.688, 34.272-250.688s-222.688,107.328-222.688,107.328
	s-193.312-139.328-225.312-107.328s 36.896,250.688, 36.896,250.688s-196.896,165.312-164.896,197.312s 236.864,34.752, 236.864,34.752s 85.76,221.216, 116.448,221.216
	c 30.688,0.032, 116.448-221.216, 116.448-221.216s 202.24-2.752, 234.24-34.752S 541.696,221.088, 541.696,221.088z M 439.968,386.4c-32,32-73.984,192-88,192
	s-56-160-88-192c0,0-168,0-168-16s 128-80, 128-128s-48-176-32-192s 112.992,96, 160,96s 144-112, 160-96s-32,144-32,192s 128,112, 128,128
	S 439.968,386.4, 439.968,386.4z" data-tags="star, favorite, rate" />
<glyph unicode="&#xe01b;" d="M 352-32C 288-32,0,256,0,480c0,106.016, 85.984,192, 192,192c 66.88,0, 125.632-34.24, 160-86.080
	C 386.368,637.76, 445.12,672, 512,672c 106.016,0, 192-85.984, 192-192C 704,256, 416-32, 352-32z M 512,608L 512,608L 512,608c0,0-5.696,0-14.88-1.504
	c-22.784-2.688-43.616-11.040-61.12-24.032C 394.688,555.424, 352,499.744, 352,384c0,115.744-42.688,171.424-84,198.464
	c-17.504,12.992-38.368,21.344-61.12,24.032C 197.696,608, 192,608, 192,608l0,0l0,0C 121.312,608, 64,550.688, 64,480c0-160, 224-432, 288-432S 640,320, 640,480
	C 640,550.688, 582.688,608, 512,608z" data-tags="heart, love, favorite, rate" />
<glyph unicode="&#xe01c;" d="M 576,672L 128,672 C 92.672,672, 64,643.328, 64,608l0-576 c0-35.328, 28.672-64, 64-64l 448,0 c 35.328,0, 64,28.672, 64,64L 640,608 
	C 640,643.328, 611.328,672, 576,672z M 192,32L 128,32 L 128,608 l 64,0 L 192,32 z M 576,32L 224,32 L 224,608 l 192,0 l0-128 l 48,48L 512,480L 512,608 l 64,0 L 576,32 z" data-tags="bookmark" />
<glyph unicode="&#xe01d;" d="M 488,672L 128,672 C 92.672,672, 64,643.328, 64,608l0-576 c0-35.328, 28.672-64, 64-64l 448,0 c 35.328,0, 64,28.672, 64,64
	L 640,520 L 488,672z M 480,592.864L 560.128,512L 480,512 L 480,592.864 z M 576,32L 128,32 L 128,608 l 288,0 l0-160 l 160,0 L 576,32 z" data-tags="file, paper, new" />
<glyph unicode="&#xe01e;" d="M 640-32L 64-32 c-35.328,0-64,28.672-64,64L0,608 c0,35.328, 28.672,64, 64,64l 576,0 c 35.328,0, 64-28.672, 64-64l0-576 
	C 704-3.328, 675.328-32, 640-32z M 640,608L 64,608 l0-576 l 576,0 L 640,608 z M 576,96l-64,0 c0,224-160,384-384,384L 128,544 C 384,544, 576,352, 576,96z M 384,96l-64,0 c0,96-96,192-192,192l0,64 
	C 256,352, 384,224, 384,96z M 160,160c 17.664,0, 32-14.304, 32-32s-14.336-32-32-32s-32,14.304-32,32S 142.336,160, 160,160z" data-tags="feed, rss" />
<glyph unicode="&#xe01f;" d="M 608-32L 96-32 c-35.328,0-64,28.672-64,64L 32,352 c0,35.328, 28.672,64, 64,64l 64,0 L 160,480 c0,106.016, 85.984,192, 192,192
	s 192-85.984, 192-192l0-64 l 64,0 c 35.328,0, 64-28.672, 64-64l0-320 C 672-3.328, 643.328-32, 608-32z M 480,480c0,70.688-57.312,128-128,128S 224,550.688, 224,480l0-64 l 256,0 L 480,480 z M 608,352L 96,352 l0-320 l 512,0 
	L 608,352 z M 352,288c 35.328,0, 64-28.672, 64-64s-28.672-64-64-64s-64,28.672-64,64S 316.672,288, 352,288z M 352,160c 17.696,0, 32-14.304, 32-32s-14.304-32-32-32
	c-17.664,0-32,14.304-32,32S 334.336,160, 352,160z" data-tags="locked, encrypted, protected" />
<glyph unicode="&#xe020;" d="M 320,128A32,32 540 1 0 384,128A32,32 540 1 0 320,128zM 288,224A64,64 540 1 0 416,224A64,64 540 1 0 288,224zM 608,416l-64,0 L 544,480 c0,106.016-85.984,192-192,192C 256.928,672, 178.528,602.72, 163.232,512L 224,512l 4.544,0 C 242.784,567.104, 292.416,608, 352,608c 70.688,0, 128-57.312, 128-128l0-64 L 96,416 
	c-35.328,0-64-28.672-64-64l0-320 c0-35.328, 28.672-64, 64-64l 512,0 c 35.328,0, 64,28.672, 64,64L 672,352 C 672,387.328, 643.328,416, 608,416z M 608,32L 96,32 L 96,352 l 512,0 L 608,32 z" data-tags="unlocked, lock, password, login" />
<glyph unicode="&#xe021;" d="M 672,336l-224,96l 89.536,63.968C 490.88,545.12, 425.12,576, 352,576
	C 228,576, 124.672,487.84, 101.088,370.816L 41.344,395.552C 75.328,535.744, 201.344,640, 352,640c 94.624,0, 179.328-41.344, 237.952-106.624L 672,592L 672,336 z
	 M 166.464,144.032C 213.088,94.88, 278.88,64, 352,64c 124.48,0, 228.096,88.832, 251.136,206.56l 59.68-25.536C 629.024,104.544, 502.88,0, 352,0
	c-94.624,0-179.36,41.344-237.952,106.624L 32,48l0,256 l 224-96L 166.464,144.032z" data-tags="refresh, reset, reload, loop" />
<glyph unicode="&#xe022;" d="M 640,288L 256,288 c-17.696,0-32,14.304-32,32s 14.304,32, 32,32l 384,0 c 17.696,0, 32-14.304, 32-32
	S 657.696,288, 640,288z M 640,512L 256,512 C 238.304,512, 224,526.304, 224,544s 14.304,32, 32,32l 384,0 c 17.696,0, 32-14.304, 32-32S 657.696,512, 640,512z M 96,32c-35.328,0-64,28.672-64,64
	s 28.672,64, 64,64s 64-28.672, 64-64S 131.328,32, 96,32z M 96,256c-35.328,0-64,28.672-64,64s 28.672,64, 64,64s 64-28.672, 64-64S 131.328,256, 96,256z M 96,480
	C 60.672,480, 32,508.672, 32,544s 28.672,64, 64,64s 64-28.672, 64-64S 131.328,480, 96,480z M 256,128l 384,0 c 17.696,0, 32-14.304, 32-32s-14.304-32-32-32L 256,64 c-17.696,0-32,14.304-32,32
	S 238.304,128, 256,128z" data-tags="list, ul" />
<glyph unicode="&#xe023;" d="M 704,480l-224-160L 480,416 C 172.992,416, 133.792,197.024, 128.736,141.024C 137.024,511.328, 480,512, 480,512L 480,640 L 704,480z
	 M 128.736,141.024C 128.672,136.512, 128,132.64, 128,128C 128,128, 128.032,132.8, 128.736,141.024z M 64,512l0-448 l 512,0 l0,228.576 l 64,45.728L 640,64 c0-35.328-28.672-64-64-64L 64,0 
	c-35.328,0-64,28.672-64,64L0,512 c0,35.328, 28.672,64, 64,64l 416,0 c-0.032,0-125.408-0.416-238.496-64L 64,512 z" data-tags="share, outside, popout" />
<glyph unicode="&#xe024;" d="M 640-32c0,0-512,0-576,0s-64,64-64,64L0,384 l 160,288l 384,0 l 160-288c0,0,0-288,0-352S 640-32, 640-32z M 224,160
	c0,0,0-32, 32-32s 192,0, 192,0s 32,0, 32,32s0,32,0,32s0,32-32,32c-96,0-192,0-192,0s-32,0-32-32S 224,160, 224,160z M 512,608L 192,608 L 80,384l 544,0 L 512,608z M 496,480L 512,448L 192,448 l 16,32L 496,480 z
	 M 240,544l 224,0 L 480,512L 224,512 L 240,544z M 416,160L 288,160 l0,32 l 128,0 L 416,160 z" data-tags="archive, cabinet, drawer, category" />
<glyph unicode="&#xe025;" d="M 192,352A64,64 540 1 0 320,352A64,64 540 1 0 192,352zM 480,320L 320,160L 256,224L 128,96L 704,96 	zM 768,544L 64,544 C 28.672,544,0,515.328,0,480l0-448 c0-35.328, 28.672-64, 64-64l 704,0 c 35.328,0, 64,28.672, 64,64L 832,480 C 832,515.328, 803.328,544, 768,544z M 768,32L 64,32 L 64,480 l 704,0 L 768,32 zM 896,672L 192,672 C 156.672,672, 128,643.328, 128,608l 768,0 l0-512 c 35.328,0, 64,28.672, 64,64L 960,608 C 960,643.328, 931.328,672, 896,672z" horiz-adv-x="960" data-tags="images, pictures, photos" />
<glyph unicode="&#xe026;" d="M 640,96l0,64 L 640,608 L 192,608 L 128,608 c0,35.328, 28.672,64, 64,64l 448,0 c 35.328,0, 64-28.672, 64-64l0-448 
	C 704,124.672, 675.328,96, 640,96z M 576,480l0-448 c0-35.328-28.672-64-64-64L 64-32 c-35.328,0-64,28.672-64,64L0,480 c0,35.328, 28.672,64, 64,64l 448,0 C 547.328,544, 576,515.328, 576,480
	z M 64,32l 448,0 L 512,480 L 64,480 L 64,32 z M 224,224l 48-64l 80,96l 96-160L 128,96 L 224,224z M 208,288C 181.472,288, 160,309.472, 160,336S 181.472,384, 208,384S 256,362.528, 256,336S 234.528,288, 208,288z
	" data-tags="images, pictures, photos" />
<glyph unicode="&#xe027;" d="M 640-32L 64-32 c-35.328,0-64,28.672-64,64L0,608 c0,35.328, 28.672,64, 64,64l 480,0 l-64-64L 64,608 l0-576 l 576,0 L 640,448 l 64,64l0-480 
	C 704-3.328, 675.328-32, 640-32z M 600,616L 656,672c0,0, 48,0.992, 48-47.008l-56.448-56.576L 600,616z M 288,256l0,48 l 24,24
	l 47.968-47.968L 336,256L 288,256 z M 615.616,536.384l-239.68-240.32L 328,344l 240,240L 615.616,536.384z" data-tags="pencil, write, blog, edit" />
<glyph unicode="&#x20;" horiz-adv-x="352" />
</font>
</defs>
</svg>
