<?xml version="1.0" standalone="no"?>
<!DOCTYPE svg PUBLIC "-//W3C//DTD SVG 1.1//EN" "http://www.w3.org/Graphics/SVG/1.1/DTD/svg11.dtd" >
<svg xmlns="http://www.w3.org/2000/svg">
<metadata>
This is a custom SVG font generated by IcoMoon.
<iconset grid="16"></iconset>
</metadata>
<defs>
<font id="cuticons" horiz-adv-x="512" >
<font-face units-per-em="512" ascent="480" descent="-32" />
<missing-glyph horiz-adv-x="512" />
<glyph class="hidden" unicode="&#xf000;" d="M0,480L 512 -32L0 -32 z" horiz-adv-x="0" />
<glyph unicode="&#xe000;" d="M 256.032-31.936L 256.032,479.936 C 256.032,479.936, 512,288, 512,224C 512,152, 256.032-31.936, 256.032-31.936z
	 M0,288l 256,0 l0-128 L0,160 L0,288 z"  />
<glyph unicode="&#xe001;" d="M 256,160L 256,288 l 256,0 l0-128 L 256,160 z M0,224c0,64, 255.968,255.936, 255.968,255.936l0-511.872 C 255.968-31.936,0,152,0,224
	z"  />
<glyph unicode="&#xe002;" d="M 511.936,224.032L 0.064,224.032 C 0.064,224.032, 192,480, 256,480C 328,480, 511.936,224.032, 511.936,224.032z
	 M 192-32l 0,256 l 128,0 L 320-32 L 192-32 z"  />
<glyph unicode="&#xe003;" d="M 192,480l 128,0 l0-256 L 192,224 L 192,480 z M 256-32c-72,0-255.936,255.968-255.936,255.968l 511.872,0 
	C 511.936,223.968, 320-32, 256-32z"  />
<glyph unicode="&#xe004;" d="M 512,160l-192,0 l0-192 L 192-32 l0,192 L0,160 L0,288 l 192,0 L 192,480 l 128,0 l0-192 l 192,0 L 512,160 z"  />
<glyph unicode="&#xe005;" d="M0,288l 512,0 l0-128 L0,160 L0,288 z"  />
<glyph unicode="&#xe006;" d="M 384-32L 384,480 l 96,0 l0-512 L 384-32 z M 256,352l 96,0 l0-384 L 256-32 L 256,352 z M 128,224l 96,0 l0-256 L 128-32 L 128,224 z M0,96l 96,0 l0-128 L0-32 L0,96 z"  />
<glyph unicode="&#xe007;" d="M 550.347,246.739C 492.547,329.576, 396.702,383.913, 288.027,383.913C 179.64,383.913, 84.046,329.863, 26.162,247.375
	L 0.671,268.386C 64.603,357.583, 168.99,415.885, 287.26,415.885c 118.941,0, 223.902-58.937, 287.74-148.973L 550.347,246.739z M 288.027,319.944c 88.717,0, 166.846-45.185, 212.738-113.79
	l-24.437-19.994C 436.557,247.255, 367.281,287.959, 288.027,287.959C 208.965,287.959, 139.821,247.471, 100.002,186.712L 75.601,206.765C 121.565,275.010, 199.537,319.944, 288.027,319.944z M 288.027,224.003
	c 58.267,0, 108.735-32.296, 136.694-80.020l-24.342-19.922C 378.853,164.323, 336.866,192.018, 288.027,192.018c-48.707,0-90.598-27.54-112.197-67.646L 151.501,144.365
	C 179.508,191.887, 229.88,224.003, 288.027,224.003z M 288.027,128.050c 29.037,0, 53.284-19.478, 61.082-45.988L 288.027,32.108l-61.022,50.144C 234.875,108.704, 259.085,128.050, 288.027,128.050z" horiz-adv-x="575"  />
<glyph unicode="&#xe008;" d="M 256,160L 256,288 c0,0, 128-48, 128-64C 384,206.016, 256,160, 256,160z M 192-32l0,160 l 32,0 l0-128 l 192,0 L 416,448 L 224,448 l0-128 L 192,320 L 192,480 l 320,0 l0-512 L 192-32 z
	 M 256,192L0,192 L0,256 l 256,0 L 256,192 z"  />
<glyph unicode="&#xe009;" d="M0-32l0,64 l 512,0 l0-64 L0-32 z M 256,96c-54.016,0-191.968,192-191.968,192l 383.936,0 C 447.968,288, 304,96, 256,96z
	 M 192,480l 128,0 l0-192 L 192,288 L 192,480 z"  />
<glyph unicode="&#xe00a;" d="M 352-32L 160-32 c-53.024,0-96,43.008-96,96L 64,384 c0,53.024, 42.976,96, 96,96l 192,0 c 52.992,0, 96-42.976, 96-96l0-320 
	C 448,11.008, 404.992-32, 352-32z M 256,0c 17.696,0, 32,14.304, 32,32s-14.304,32-32,32s-32-14.304-32-32S 238.304,0, 256,0z M 288,448L 224,448 l0-32 l 64,0 L 288,448 z M 416,384L 96,384 l0-288 l 320,0 L 416,384 z
	 M 128,256L 128,352 l 96,0 L 128,256z"  />
<glyph unicode="&#xe00b;" d="M 384-32L 128-32 c-53.024,0-96,43.008-96,96L 32,384 c0,53.024, 42.976,96, 96,96l 224,0 c 52.992,0, 128-42.976, 128-96l0-320 
	C 480,11.008, 436.992-32, 384-32z M 256,0c 17.696,0, 32,14.304, 32,32s-14.304,32-32,32s-32-14.304-32-32S 238.304,0, 256,0z M 288,448L 224,448 l0-32 l 64,0 L 288,448 z M 448,384L 64,384 l0-288 l 384,0 L 448,384 z
	 M 96,224L 96,352 l 128,0 L 96,224z"  />
<glyph unicode="&#xe00c;" d="M 288,96l0-32 l 96,0 l0-64 L 128,0 l0,64 l 96,0 l0,32 L0,96 L0,448 l 512,0 l0-352 L 288,96 z M 480,416L 32,416 l0-256 l 448,0 L 480,416 z M 64,288.992L 64,384 l 96,0 L 64,288.992z"  />
<glyph unicode="&#xe00d;" d="M0,128l 128,256l 96-160l 160,192l-64,64l 192,0 l0-192 l-64,64l-224-264L 128,224l-128-256L0,128 z"  />
<glyph unicode="&#xe00e;" d="M0-32c0,0, 96,224, 160,224s 32-32, 96-32s 32,32, 96,32s 160-224, 160-224L0-32 z M 256,224C 185.312,224, 128,281.312, 128,352
	s 57.312,128, 128,128s 128-57.312, 128-128S 326.688,224, 256,224z M 224,416L 160,416 l0-64 l 64,0 L 224,416 z M 192,320l0-32 l 32,0 l0-32 l 64,0 L 288,288 l 32,0 L 320,320 L 192,320 z M 352,416L 288,416 l0-64 l 64,0 L 352,416 z"  />
<glyph unicode="&#xe00f;" d="M 256.512-32c0,0-256.992,128-256.992,320s 64.992,192, 128.992,192s 128-96, 128-96s 64,96, 128,96s 128,0, 128-192
	S 256.512-32, 256.512-32z"  />
<glyph unicode="&#xe010;" d="M 256.512-32c0,0-9.664,4.832-25.056,13.888L 352.512,224l-128,96l 58.432,97.408
	C 307.488,445.152, 345.888,480, 384.512,480c 64,0, 128,0, 128-192S 256.512-32, 256.512-32z M 160.512,288l 128-64l-60.064-240.32C 161.984,23.2-0.512,135.2-0.512,288
	c0,192, 64.992,192, 128.992,192C 150.592,480, 172.544,468.256, 192,453.28L 160.512,288z"  />
<glyph unicode="&#xe011;" d="M 512,96l0-128 l-128,0 l0,32 L 128,0 l0-32 L0-32 l0,128 l 32,0 L 32,352 L0,352 L0,480 l 128,0 l0-32 l 256,0 L 384,480 l 128,0 l0-128 l-32,0 l0-256 L 512,96 z M 416,352l-32,0 L 384,384 L 128,384 l0-32 L 96,352 l0-256 l 32,0 l0-32 l 256,0 
	l0,32 l 32,0 L 416,352 z"  />
<glyph unicode="&#xe012;" d="M 256-32c-141.376,0-256,114.624-256,256c0,141.376, 114.624,256, 256,256s 256-114.624, 256-256
	C 512,82.624, 397.376-32, 256-32z M 256,416C 149.984,416, 64,330.016, 64,224s 85.984-192, 192-192s 192,85.984, 192,192S 362.016,416, 256,416z M 288,96L 224,96 L 224,192 L 128,192 L 128,256 l 96,0 L 224,352 l 64,0 l0-96 l 96,0 l0-64 L 288,192 L 288,96 z"  />
<glyph unicode="&#xe013;" d="M 256-32c-141.376,0-256,114.624-256,256c0,141.376, 114.624,256, 256,256s 256-114.624, 256-256
	C 512,82.624, 397.376-32, 256-32z M 256,416C 149.984,416, 64,330.016, 64,224s 85.984-192, 192-192s 192,85.984, 192,192S 362.016,416, 256,416z M 128,256l 256,0 l0-64 L 128,192 L 128,256 z"  />
<glyph unicode="&#xe014;" d="M 64,416L 384,416L 384,480L0,480L0,416L0,32L0-32L 384-32L 384,32L 64,32 	zM 480,384L 272,176L 192,256L 160,256L 160,224L 256,128L 288,128L 512,352L 512,384 	z"  />
<glyph unicode="&#xe015;" d="M-0.067-31.56l 319.527,511.253l 319.527-511.253L-0.067-31.56 z M 351.423,351.906l-63.9,0 l0-223.73 l 63.9,0 L 351.423,351.906 z
	 M 287.51,96.226L 287.51,32.286 l 63.9,0 l0,63.94 L 287.51,96.226 z" horiz-adv-x="639"  />
<glyph unicode="&#xe016;" d="M 416,96L 288,96 l-224-128l 64,128L 96,96 c-53.024,0-96,46.88-96,104.704L0,375.296 C0,433.12, 42.976,480, 96,480l 320,0 
	c 52.992,0, 96-46.88, 96-104.704l0-174.56 C 512,142.88, 468.992,96, 416,96z"  />
<glyph unicode="&#xe017;" d="M 416,96L 288,96 l-224-128l 64,128L 96,96 c-53.024,0-96,46.88-96,104.704L0,375.296 C0,433.12, 42.976,480, 96,480l 320,0 
	c 52.992,0, 96-46.88, 96-104.704l0-174.56 C 512,142.88, 468.992,96, 416,96z M 96,352C 60.672,352, 32,323.328, 32,288s 28.672-64, 64-64s 64,28.672, 64,64S 131.328,352, 96,352z M 256,352
	C 220.672,352, 192,323.328, 192,288s 28.672-64, 64-64s 64,28.672, 64,64S 291.328,352, 256,352z M 415.008,352c-35.872,0-64.992-28.672-64.992-64s 29.12-64, 64.992-64
	C 450.912,224, 480,252.672, 480,288S 450.912,352, 415.008,352z"  />
<glyph unicode="&#xe018;" d="M 32-32l0,32 l 448,0 L 480,448 l 32,0 l0-448 l0-32 L 32-32 z M 448,32L 32,32 l0-32 L0,0 l0,32 L0,480 l 158.016,0 l0-222.016 L 224,328l 62.016-70.016L 288,480l 160,0 
	l 32,0 l0-32 l-32,0 L 448,32 z"  />
<glyph unicode="&#xe019;" d="M 384-32L 128-32 c-53.024,0-96,43.008-96,96L 32,224 c0,53.024, 42.976,96, 96,96l 32,0 L 160,448 l 32,0 l0-128 l 128,0 L 320,448 l 32,0 l0-128 l 32,0 
	c 53.024,0, 96-42.976, 96-96l0-160 C 480,11.008, 437.024-32, 384-32z M 288,151.136L 288,256 L 224,256 l0-104.864 C 204.928,140.032, 192,119.616, 192,96c0-35.328, 28.672-64, 64-64
	s 64,28.672, 64,64C 320,119.616, 307.072,140.032, 288,151.136z M 192,480l 128,0 l0-32 L 192,448 L 192,480 z"  />
<glyph unicode="&#xe01a;" d="M 384-32L 128-32 c-53.024,0-96,43.008-96,96L 32,224 c0,53.024, 42.976,96, 96,96l 32,0 L 160,448 l 32,0 l0-128 l 192,0 
	c 53.024,0, 96-42.976, 96-96l0-160 C 480,11.008, 437.024-32, 384-32z M 288,151.136L 288,256 L 224,256 l0-104.864 C 204.928,140.032, 192,119.616, 192,96c0-35.328, 28.672-64, 64-64
	s 64,28.672, 64,64C 320,119.616, 307.072,140.032, 288,151.136z M 320,480l0-32 L 192,448 L 192,480 L 320,480 z M 352,384l-32,0 L 320,448 l 32,0 L 352,384 z"  />
<glyph unicode="&#xe01b;" d="M0-32L0,480 l 480,0 l0-512 L0-32 z M 320,0l 32,0 l0,64 l-32,0 L 320,0 z M 256,0l 32,0 l0,64 L 256,64 L 256,0 z M 192,0l 32,0 l0,64 L 192,64 L 192,0 z M 128,0l 32,0 
	l0,64 L 128,64 L 128,0 z M 64,0l 32,0 l0,64 L 64,64 L 64,0 z M 96,448L 64,448 l0-64 l 32,0 L 96,448 z M 160,448L 128,448 l0-64 l 32,0 L 160,448 z M 224,448L 192,448 l0-64 l 32,0 L 224,448 z M 288,448L 256,448 l0-64 l 32,0 L 288,448 z M 352,448l-32,0 l0-64 l 32,0 L 352,448 z M 416,448l-32,0 l0-64 l 32,0 L 416,448 z M 416,352L 64,352 l0-256 l 352,0 
	L 416,352 z M 416,64l-32,0 l0-64 l 32,0 L 416,64 z"  />
<glyph unicode="&#xe01c;" d="M 416-32L 96-32 c-53.024,0-96,43.008-96,96L0,256 c0,53.024, 42.976,96, 96,96L 96,480 l 160,0 l0-128 l 64,0 L 320,384 l 96,0 l0-32 
	c 53.024,0, 96-42.976, 96-96l0-192 C 512,11.008, 469.024-32, 416-32z M 224,448L 128,448 l0-96 l 96,0 L 224,448 z M 384,288L 64,288 l0-256 l 320,0 L 384,288 z M 480,288l-64,0 l0-64 l 64,0 L 480,288 z M 480,192l-64,0 l0-32 l 64,0 L 480,192 z M 480,128l-64,0 l0-32 l 64,0 
	L 480,128 z M 96,128L 96,256 l 128,0 L 96,128z"  />
<glyph unicode="&#xe01d;" d="M 416-32L 96-32 c-53.024,0-96,43.008-96,96L0,256 c0,53.024, 42.976,96, 96,96L 96,384 l 96,0 l0-32 l 64,0 L 256,480 l 160,0 l0-128 
	c 53.024,0, 96-42.976, 96-96l0-192 C 512,11.008, 469.024-32, 416-32z M 160,256L 64,256 l0-32 l 96,0 L 160,256 z M 384,448L 288,448 l0-96 l 96,0 L 384,448 z M 352,256c-53.024,0-96-43.008-96-96s 42.976-96, 96-96
	s 96,43.008, 96,96S 405.024,256, 352,256z M 384,160c-17.664,0-32,14.304-32,32s 14.336,32, 32,32c 17.696,0, 32-14.304, 32-32S 401.696,160, 384,160z"  />
<glyph unicode="&#xe01e;" d="M 224,480L 288,480L 288,448L 224,448zM 32,416L 480,416L 480,192L 32,192zM 64,3.776L 64-32L 81.888-32L 160,124.224L 160,160L 142.112,160 	zM 352,160L 352,124.224L 430.112-32L 448-32L 448,3.776L 369.888,160 	z"  />
<glyph unicode="&#xe01f;" d="M 32,192L 32,416 l 448,0 l0-224 L 32,192 z M 128,384L 64,384 l0-64 l 64,0 L 128,384 z M 416,384l-64-128L 288,320L 224,224l 224,0 L 416,384z M 224,480l 64,0 l0-32 L 224,448 L 224,480 z M 64,3.776
	L 64-32 l 17.888,0 L 160,124.224L 160,160 L 142.112,160 L 64,3.776z M 352,160l0-35.776 L 430.112-32L 448-32 l0,35.776 L 369.888,160L 352,160 z"  />
<glyph unicode="&#xe020;" d="M 416,228C 416,314.144, 344.384,384, 256,384C 219.744,384, 186.688,371.808, 159.872,352L 72.544,352 
	C 113.024,409.92, 179.968,448, 256,448c 123.712,0, 224-100.288, 224-224l-64.416,0 C 415.616,225.376, 416,226.624, 416,228z M0,224l 64,96l 63.968-96L0,224 z M 256,72
	c 36.192,0, 69.184,12.16, 96,31.904L 352,96 l 87.456,0 c-40.512-57.92-107.424-96-183.456-96c-123.712,0-224,100.288-224,224l 64.416,0 C 98.624,139.744, 169.024,72, 256,72z
	 M 512,224l-64-96l-64,96L 512,224 z"  />
<glyph unicode="&#xe021;" d="M 416,32L 96,32 c-53.024,0-96,42.976-96,96L0,224 l 512,0 l0-96 C 512,74.976, 468.992,32, 416,32z M 160,160L 64,160 l0-64 l 96,0 L 160,160 z
	 M 224,160L 192,160 l0-64 l 32,0 L 224,160 z M 288,160L 256,160 l0-64 l 32,0 L 288,160 z M 96,384l 320,0 c 41.76,0, 76.896-26.784, 90.112-64L 5.888,320 C 19.104,357.216, 54.272,384, 96,384z"  />
<glyph unicode="&#xe022;" d="M 416,32L 96,32 c-53.024,0-96,42.976-96,96L0,288 c0,53.024, 42.976,96, 96,96l 320,0 c 52.992,0, 96-42.976, 96-96l0-160 
	C 512,74.976, 468.992,32, 416,32z M 256,320L 64,320 l0-224 l 192,0 L 256,320 z M 440,320L 288,320 l0-32 l 152,0 L 440,320 z M 440,256L 288,256 l0-32 l 152,0 L 440,256 z M 440,192L 288,192 l0-32 l 152,0 L 440,192 z M 440,128L 288,128 l0-32 l 152,0 L 440,128 z
	 M 160,288c 35.328,0, 64-21.504, 64-48S 195.328,192, 160,192S 96,213.504, 96,240S 124.672,288, 160,288z M 224,128L 96,128 l 64,64L 224,128z"  />
<glyph unicode="&#xe023;" d="M 236.736-30.016c0,0-318.016,508, 1.984,508S 236.736-30.016, 236.736-30.016z
	 M 238.752,414.016c-35.328,0-64-28.672-64-64s 28.672-64, 64-64c 35.36,0, 64,28.672, 64,64S 274.112,414.016, 238.752,414.016z"  />
<glyph unicode="&#xe024;" d="M 96-32L 96,384 l 64,0 L 160,480 l 192,0 l0-96 l 64,0 l0-416 L 96-32 z M 128,0l 224,0 l0,32 L 128,32 L 128,0 z M 128,128l 224,0 l0,32 L 128,160 L 128,128 z M 128,256l 224,0 L 352,288 L 128,288 L 128,256 z M 320,448L 192,448 
	l0-64 l 128,0 L 320,448 z M 384,352L 128,352 l0-32 l 256,0 L 384,352 z M 384,224L 128,224 l0-32 l 256,0 L 384,224 z M 384,96L 128,96 l0-32 l 256,0 L 384,96 z"  />
<glyph unicode="&#xe025;" d="M 64-32L 64,480 l 256,0 l0-128 l 128,0 l0-384 L 64-32 z M 352,480l 96-96l-96,0 L 352,480 z"  />
<glyph unicode="&#xe026;" d="M 288,64l0,64 c0-53.024-42.976-96-96-96L 96,32 c-28.32,0-53.504,12.512-71.104,32L 64,64 l0,32 L 5.888,96 
	C 2.304,106.048,0,116.704,0,128l 64,0 l0,32 L0,160 c0,11.296, 2.304,21.952, 5.888,32L 64,192 L 64,224 L 24.896,224 C 42.496,243.488, 67.68,256, 96,256l 96,0 L 192,340.352 C 192,364.448, 206.336,384, 224,384
	c 17.696,0, 32-19.552, 32-43.648l0-109.28 C 275.488,213.504, 288,188.32, 288,160L 288,224 l 192,0 l0-160 L 288,64 z"  />
<glyph unicode="&#xe027;" d="M 408-32L 96-32 c-53.024,0-96,46.88-96,104.704L0,247.296 C0,305.12, 42.976,352, 96,352L 96,384 l 32,0 l0-32 l 32,0 L 160,480 l 192,0 l0-128 l 32,0 
	L 384,384 l 32,0 l0-32 l-8,0 c 53.024,0, 96-46.88, 96-104.704l0-174.56 C 504,14.88, 461.024-32, 408-32z M 320,448L 192,448 l0-96 l 128,0 L 320,448 z M 448,288L 64,288 l0-32 l 384,0 L 448,288 z M 448,64L 64,64 l0-32 l 384,0 L 448,64 z"  />
<glyph unicode="&#xe028;" d="M 352,0l0-32 l-32,0 l0,32 L 192,0 l0-32 L 160-32 l0,32 L 96,0 L 96,384 l 32,0 l0-32 l 32,0 L 160,480 l 32,0 l 128,0 l 32,0 l0-128 l 32,0 L 384,384 l 32,0 l0-384 L 352,0 z M 320,448L 192,448 l0-96 l 32,0 L 224,384 l 64,0 l0-32 l 32,0 L 320,448 z
	 M 384,320L 128,320 l0-32 l 256,0 L 384,320 z M 384,192L 128,192 l0-128 l 256,0 L 384,192 z M 352,96L 160,96 l0,64 l 192,0 L 352,96 z" />
<glyph unicode="&#xe029;" d="M0-32L0,480 l 256,0 l0-64 L 64,416 l0-384 l 384,0 L 448,224 l 64,0 l0-256 L0-32 z M 229.472,152.224L 184.224,197.504l 209.152,209.12L 320,480l 192,0 l0-192 
	l-73.376,73.376L 229.472,152.224z"  />
<glyph unicode="&#xe02a;" d="M 416-32L 96-32 c-53.024,0-96,42.976-96,96L0,384 c0,53.024, 42.976,96, 96,96l 160,0 l0-64 L 160,416 C 106.976,416, 64,373.024, 64,320l0-192 
	c0-53.024, 42.976-96, 96-96l 192,0 c 52.992,0, 96,42.976, 96,96L 448,224 l 64,0 l0-160 C 512,10.976, 468.992-32, 416-32z M 229.472,152.224L 184.224,197.504l 209.152,209.12L 320,480l 192,0 l0-192 
	l-73.376,73.376L 229.472,152.224z"  />
<glyph unicode="&#xe02b;" d="M 416-32l-32,0 l0,96 L 128,64 l0-96 L 96-32 c-53.024,0-96,42.976-96,96L0,224 c0,53.024, 42.976,96, 96,96l 64,0 L 160,480 l 128,0 l0-32 L 192,448 l0-128 l 128,0 L 320,416 l 32,0 
	l0-96 l 64,0 c 52.992,0, 96-42.976, 96-96l0-160 C 512,10.976, 468.992-32, 416-32z M 448,256l-96,0 l0-64 l 96,0 L 448,256 z M 288,448l 32,0 l0-32 L 288,416 L 288,448 z M 352-32L 160-32 l0,64 l 192,0 L 352-32 z"  />
<glyph unicode="&#xe02c;" d="M 480,192c0-53.024-43.008-96-96-96L 96,96 c-53.024,0-96,42.976-96,96L0,256 c0,53.024, 42.976,96, 96,96l 288,0 
	c 52.992,0, 96-42.976, 96-96l 32,0 l0-64 L 480,192 z M 352,320L 128,320 C 74.976,320, 32,277.024, 32,224s 42.976-96, 96-96l 224,0 c 52.992,0, 96,42.976, 96,96S 404.992,320, 352,320z M 368,160
	c-26.496,0-16,0-48,0L 320,288 c 32,0, 21.504,0, 48,0S 416,265.056, 416,236.8L 416,211.2 C 416,182.912, 394.496,160, 368,160z M 192,288l 96,0 l0-128 L 192,160 L 192,288 z M 64,211.2L 64,236.8 
	C 64,265.056, 85.472,288, 112,288S 128,288, 160,288l0-128 c-32,0-21.472,0-48,0S 64,182.912, 64,211.2z"  />
<glyph unicode="&#xe02d;" d="M 480,192c0-53.024-42.976-96-96-96L 96,96 c-53.024,0-96,42.976-96,96L0,256 c0,53.024, 42.976,96, 96,96l 288,0 
	c 53.024,0, 96-42.976, 96-96l 32,0 l0-64 L 480,192 z M 352,320L 128,320 C 74.976,320, 32,277.024, 32,224s 42.976-96, 96-96l 224,0 c 53.024,0, 96,42.976, 96,96S 405.024,320, 352,320z M 64,211.2L 64,236.8 
	C 64,265.056, 85.504,288, 112,288S 128,288, 160,288l0-128 c-32,0-21.504,0-48,0S 64,182.912, 64,211.2z"  />
<glyph unicode="&#xe02e;" d="M 480,192c0-53.024-42.976-96-96-96L 96,96 c-53.024,0-96,42.976-96,96L0,256 c0,53.024, 42.976,96, 96,96l 288,0 
	c 53.024,0, 96-42.976, 96-96l 32,0 l0-64 L 480,192 z M 352,320L 128,320 C 74.976,320, 32,277.024, 32,224s 42.976-96, 96-96l 224,0 c 53.024,0, 96,42.976, 96,96S 405.024,320, 352,320z M 192,288l 96,0 l0-128 L 192,160 L 192,288 z M 64,211.2
	L 64,236.8 C 64,265.056, 85.504,288, 112,288S 128,288, 160,288l0-128 c-32,0-21.504,0-48,0S 64,182.912, 64,211.2z"  />
<glyph unicode="&#xe02f;" d="M 512,160l0-64 l-128,0 l0-128 l-64,0 l0,128 L 192,96 l0-128 L 128-32 l0,128 L0,96 l0,64 l 128,0 L 128,288 L0,288 L0,352 l 128,0 L 128,480 l 64,0 l0-128 l 128,0 L 320,480 l 64,0 l0-128 l 128,0 l0-64 l-128,0 l0-128 L 512,160 z M 320,288L 192,288 
	l0-128 l 128,0 L 320,288 z"  />
<glyph unicode="&#xe030;" d="M 32,320L 32,384 l 128,0 L 160,480 l 192,0 l0-96 l 128,0 l0-64 L 32,320 z M 320,448L 192,448 l0-64 l 128,0 L 320,448 z M 416,64c0-53.024-42.976-96-96-96L 192-32 
	c-53.024,0-96,42.976-96,96L 96,288 l 320,0 L 416,64 z M 192,256L 128,256 l0-224 l 64,0 L 192,256 z M 288,256L 224,256 l0-224 l 64,0 L 288,256 z M 384,256l-64,0 l0-224 l 64,0 L 384,256 z"  />
<glyph unicode="&#xe031;" d="M 448,160L 448,384 L 160,384 L 160,480 L 64,480 l0-96 L0,384 l0-96 l 64,0 l0-224 l 288,0 l0-96 l 96,0 l0,96 l 64,0 l0,96 L 448,160 z M 352,160L 160,160 L 160,288 l 192,0 L 352,160 z"  />
<glyph unicode="&#xe032;" d="M 37.728,171.264C 25.344,268.992, 62.56,334.144, 132.32,357.44s 99.264-17.056, 128.704-17.056
	c 29.472,0, 35.68,23.296, 100.8,23.296s 102.336-51.232, 102.336-51.232s-58.912-35.68-58.912-103.968c0-68.256, 72.864-100.832, 71.328-100.832
	C 453.344,30.048, 391.296-32, 355.648-32c-35.68,0-51.2,23.264-89.984,23.264C 226.912-8.736, 212.96-32, 171.104-32S 50.144,73.504, 37.728,171.264z
	 M 253.28,359.008C 245.536,422.592, 309.088,476.896, 357.184,480C 371.168,425.728, 318.4,352.768, 253.28,359.008z"  />
<glyph unicode="&#xe033;" d="M 512,64L 512,352 L 64,352 L 64,480 L0,480 l0-32 l 32,0 l0-384 l 64,0 l0-96 l 64,0 l0,64 L 128,32 l0,32 l 256,0 l0-96 l 64,0 l0,64 l-32,0 l0,32 L 512,64 z M 160,128L 96,128 l0,32 l 64,0 L 160,128 z M 160,192L 96,192 
	L 96,224 l 64,0 L 160,192 z M 160,256L 96,256 L 96,288 l 64,0 L 160,256 z M 256,128L 192,128 l0,32 l 64,0 L 256,128 z M 256,192L 192,192 L 192,224 l 64,0 L 256,192 z M 256,256L 192,256 L 192,288 l 64,0 L 256,256 z M 352,128L 288,128 l0,32 l 64,0 L 352,128 z M 352,192L 288,192 L 288,224 l 64,0 L 352,192 z M 352,256L 288,256 L 288,288 l 64,0 L 352,256 z M 384,288l 64,0 l0-32 l-64,0 
	L 384,288 z M 384,224l 64,0 l0-32 l-64,0 L 384,224 z M 384,128l0,32 l 64,0 l0-32 L 384,128 z"  />
<glyph unicode="&#xe034;" d="M 320-32L 320,480 l 192,0 l0-512 L 320-32 z M0,480l 192,0 l0-512 L0-32 L0,480 z"  />
<glyph unicode="&#xe035;" d="M-0.512,480l 512.992-255.008L 0.512-32L-0.512,480z"  />
<glyph unicode="&#xe036;" d="M 512.512,224.512l-256.992-256L 255.52,223.488 l-256-255.008L-0.48,479.488 l 256-254.016L 255.52,479.488 L 512.512,224.512z"  />
<glyph unicode="&#xe037;" d="M 512.512-31.488l-256,255.008l0-255.008 l-256.992,256l 256.992,255.008l0-254.016 l 256,254.016L 512.512-31.488 z"  />
<glyph unicode="&#xe038;" d="M 384.512-32L 384.512,224.992 L 384.512,480 l 128,0 l0-512 L 384.512-32 z M-0.512,480l 384.992-255.008l-384.992-256L-0.512,480 z"  />
<glyph unicode="&#xe039;" d="M 127.488,224.992L 512.512,480l0-511.008 L 127.488,224.992z M-0.512-32L-0.512,480 l 128,0 l0-255.008 L 127.488-32 L-0.512-32 z"  />
<glyph unicode="&#xe03a;" d="M 416-32L 96-32 c-53.024,0-96,42.976-96,96L0,384 c0,53.024, 42.976,96, 96,96l 320,0 c 53.024,0, 96-42.976, 96-96l0-320 
	C 512,10.976, 469.024-32, 416-32z M 256,320C 202.976,320, 160,277.024, 160,224s 42.976-96, 96-96s 96,42.976, 96,96S 309.024,320, 256,320z"  />
<glyph unicode="&#xe03b;" d="M0-32l0,128 l 512,0 l0-128 L0-32 z M 256,480l 255.936-319.936L 0.064,160.064 L 256,480z"  />
<glyph unicode="&#xe03c;" d="M0-32l0,128 l 99.552,0 l 312.864,0 L 512,96 l0-128 L0-32 z M 256,160c 35.328,0, 64,28.672, 64,64S 291.328,288, 256,288S 192,259.328, 192,224
	S 220.672,160, 256,160L 54.464,160 C 40.448,189.152, 32,221.472, 32,256c0,123.712, 100.288,224, 224,224s 224-100.288, 224-224c0-34.528-8.448-66.848-22.432-96L 256,160 z"  />
<glyph unicode="&#xe03d;" d="M 352,224L 352,256 l 128,0 l0-32 L 352,224 z M 384,480l 64,0 l0-192 l-64,0 L 384,480 z M 192,96l 128,0 l0-32 L 192,64 L 192,96 z M 224,480l 64,0 l0-352 L 224,128 L 224,480 z M 32,384l 128,0 l0-32 L 32,352 L 32,384 z
	 M 64,480l 64,0 l0-64 L 64,416 L 64,480 z M 128-32L 64-32 L 64,320 l 64,0 L 128-32 z M 288-32L 224-32 l0,64 l 64,0 L 288-32 z M 448-32l-64,0 L 384,192 l 64,0 L 448-32 z"  />
<glyph unicode="&#xe03e;" d="M 416,64l0-32 l 32,0 l0-32 L 288,0 l0,32 l 32,0 l0,32 L 224,64 L 224,288 l 288,0 l0-224 L 416,64 z M 480,256L 256,256 l0-160 l 224,0 L 480,256 z M 288,128L 288,224 l 96,0 L 288,128z M0,416l 160,0 l0-416 L0,0 L0,416 
	z M 32,128l 32,0 l0,32 L 32,160 L 32,128 z M 32,256l 96,0 L 128,288 L 32,288 L 32,256 z M 32,320l 96,0 L 128,352 L 32,352 L 32,320 z"  />
<glyph unicode="&#xe03f;" d="M 448,160c-35.328,0-64,28.672-64,64s 28.672,64, 64,64s 64-28.672, 64-64S 483.328,160, 448,160z M 448,352
	c-35.328,0-64,28.672-64,64s 28.672,64, 64,64s 64-28.672, 64-64S 483.328,352, 448,352z M 448,448c-17.696,0-32-14.304-32-32s 14.304-32, 32-32s 32,14.304, 32,32S 465.696,448, 448,448z
	 M 256-32c-35.328,0-64,28.672-64,64s 28.672,64, 64,64s 64-28.672, 64-64S 291.328-32, 256-32z M 256,64c-17.664,0-32-14.304-32-32s 14.336-32, 32-32c 17.696,0, 32,14.304, 32,32
	S 273.696,64, 256,64z M 256,160c-35.328,0-64,28.672-64,64s 28.672,64, 64,64s 64-28.672, 64-64S 291.328,160, 256,160z M 256,256C 238.336,256, 224,241.664, 224,224c0-17.696, 14.336-32, 32-32
	c 17.696,0, 32,14.304, 32,32C 288,241.664, 273.696,256, 256,256z M 256,352C 220.672,352, 192,380.672, 192,416s 28.672,64, 64,64s 64-28.672, 64-64S 291.328,352, 256,352z M 256,448
	C 238.336,448, 224,433.696, 224,416s 14.336-32, 32-32c 17.696,0, 32,14.304, 32,32S 273.696,448, 256,448z M 64-32c-35.328,0-64,28.672-64,64s 28.672,64, 64,64s 64-28.672, 64-64
	S 99.328-32, 64-32z M 64,64c-17.664,0-32-14.304-32-32s 14.336-32, 32-32s 32,14.304, 32,32S 81.664,64, 64,64z M 64,160c-35.328,0-64,28.672-64,64s 28.672,64, 64,64
	s 64-28.672, 64-64S 99.328,160, 64,160z M 64,256C 46.336,256, 32,241.664, 32,224c0-17.696, 14.336-32, 32-32s 32,14.304, 32,32C 96,241.664, 81.664,256, 64,256z M 64,352
	C 28.672,352,0,380.672,0,416s 28.672,64, 64,64s 64-28.672, 64-64S 99.328,352, 64,352z M 64,448C 46.336,448, 32,433.696, 32,416s 14.336-32, 32-32s 32,14.304, 32,32S 81.664,448, 64,448z M 448,96
	c 35.328,0, 64-28.672, 64-64s-28.672-64-64-64s-64,28.672-64,64S 412.672,96, 448,96z M 448,0c 17.696,0, 32,14.304, 32,32s-14.304,32-32,32s-32-14.304-32-32
	S 430.304,0, 448,0z"  />
<glyph unicode="&#xe040;" d="M 416-32L 96-32 c-53.024,0-96,42.976-96,96L0,224 c0,53.024, 42.976,96, 96,96l 128,128c0,17.664, 14.336,32, 32,32
	c 17.696,0, 32-14.336, 32-32l 128-128c 52.992,0, 96-42.976, 96-96l0-160 C 512,10.976, 468.992-32, 416-32z M 256,416L 160,320l 192,0 L 256,416z M 448,256L 64,256 l0-224 l 384,0 L 448,256 z"  />
<glyph unicode="&#xe041;" d="M 416-32L 96-32 c-53.024,0-96,40.288-96,89.984L0,358.016 C0,407.712, 42.976,448, 96,448l 64,0 l0-64 l 192,0 L 352,448 l 64,0 
	c 53.024,0, 96-40.288, 96-89.984l0-300 C 512,8.288, 469.024-32, 416-32z M 255.488,320C 202.752,320, 160,277.248, 160,224.512s 42.752-95.488, 95.488-95.488
	s 95.488,42.752, 95.488,95.488S 308.256,320, 255.488,320z M 256,128l-95.968-128l 191.936,0 L 256,128z M 192,480l 32,0 l0-32 l 64,0 L 288,480 l 32,0 l0-64 L 192,416 L 192,480 z"  />
<glyph unicode="&#xe042;" d="M0,480L 32,480L 32,448L0,448zM 32,96L 32,64L 64,64L 64,32L 96,32L 96,0L 128,0L 128,96 	zM 32,32L 64,32L 64,0L 32,0zM0,0L 32,0L 32-32L0-32zM 96,448L 96,416L 64,416L 64,384L 32,384L 32,352L 128,352L 128,448 	zM 32,448L 64,448L 64,416L 32,416zM 448,32L 480,32L 480,0L 448,0zM 448,448L 480,448L 480,416L 448,416zM 448,384L 448,416L 416,416L 416,448L 384,448L 384,352L 480,352L 480,384 	zM 384,256c0,53.024-42.976,96-96,96L 224,352 C 170.976,352, 128,309.024, 128,256l0-64 c0-53.024, 42.976-96, 96-96l 64,0 c 53.024,0, 96,42.976, 96,96L 384,256 zM 480,480L 512,480L 512,448L 480,448zM 480,0L 512,0L 512-32L 480-32zM 384,96L 384,0L 416,0L 416,32L 448,32L 448,64L 480,64L 480,96 	z"  />
<glyph unicode="&#xe043;" d="M 64,64L 96,64L 96,32L 64,32zM0,480L0,384L 32,384L 32,416L 64,416L 64,448L 96,448L 96,480 	zM 64,0L 64,32L 32,32L 32,64L0,64L0-32L 96-32L 96,0 	zM 96,384L 128,384L 128,352L 96,352zM 64,416L 96,416L 96,384L 64,384zM 96,96L 128,96L 128,64L 96,64zM 384,384L 416,384L 416,352L 384,352zM 480,64L 480,32L 448,32L 448,0L 416,0L 416-32L 512-32L 512,64 	zM 416,416L 448,416L 448,384L 416,384zM 416,480L 416,448L 448,448L 448,416L 480,416L 480,384L 512,384L 512,480 	zM 384,96L 416,96L 416,64L 384,64zM 416,64L 448,64L 448,32L 416,32zM 384,256c0,53.024-42.976,96-96,96L 224,352 C 170.976,352, 128,309.024, 128,256l0-64 c0-53.024, 42.976-96, 96-96l 64,0 c 53.024,0, 96,42.976, 96,96L 384,256 z"  />
<glyph unicode="&#xe044;" d="M 480,96L 480,256 L 288,256 L 288,352 l 32,0 L 320,480 L 192,480 l0-128 l 32,0 l0-96 L 32,256 l0-160 L0,96 l0-128 l 128,0 l0,128 L 96,96 L 96,192 l 128,0 l0-96 L 192,96 l0-128 l 128,0 l0,128 L 288,96 L 288,192 l 128,0 l0-96 l-32,0 l0-128 l 128,0 l0,128 L 480,96 z
	 M 96,0L 32,0 l0,64 l 64,0 L 96,0 z M 288,0L 224,0 l0,64 l 64,0 L 288,0 z M 224,384L 224,448 l 64,0 l0-64 L 224,384 z M 480,0l-64,0 l0,64 l 64,0 L 480,0 z"  />
<glyph unicode="&#xe045;" d="M 352,96l0-96 l-64,64l-128-96L0,480l 512-320L 352,96z M 64,416l 224-288l 24-56L 320,64l 32,64L 64,416z"  />
<glyph unicode="&#x20;" horiz-adv-x="256" />
</font>
</defs>
</svg>
