<?xml version="1.0" standalone="no"?>
<!DOCTYPE svg PUBLIC "-//W3C//DTD SVG 1.1//EN" "http://www.w3.org/Graphics/SVG/1.1/DTD/svg11.dtd" >
<svg xmlns="http://www.w3.org/2000/svg">
<metadata></metadata>
<defs>
<font id="caviar_dreamsitalic" horiz-adv-x="430" >
<font-face units-per-em="2048" ascent="1638" descent="-410" />
<missing-glyph horiz-adv-x="708" />
<glyph horiz-adv-x="2048" />
<glyph horiz-adv-x="2048" />
<glyph unicode="&#xd;" horiz-adv-x="708" />
<glyph unicode=" "  horiz-adv-x="708" />
<glyph unicode="&#x09;" horiz-adv-x="708" />
<glyph unicode="&#xa0;" horiz-adv-x="708" />
<glyph unicode="!" d="M139 76q6 37 37 63t68 26t59 -26t16 -63q-7 -38 -38 -64t-68 -26t-59 26t-15 64zM217 276l233 1324h90l-233 -1324h-90z" />
<glyph unicode="&#x22;" horiz-adv-x="575" d="M301 997l106 600h90l-106 -600h-90zM536 997l106 600h90l-106 -600h-90z" />
<glyph unicode="#" horiz-adv-x="1653" d="M226 575l39 90h445l97 230h-445l39 90h445l190 445h90l-190 -445h230l190 445h90l-190 -445h445l-39 -90h-445l-97 -230h445l-39 -90h-445l-189 -445h-90l189 445h-230l-189 -445h-90l189 445h-445zM800 665h230l97 230h-230z" />
<glyph unicode="$" horiz-adv-x="1011" d="M179 445l87 30q-8 -115 60 -196q66 -81 173 -92l125 704q-97 45 -151 112q-71 85 -49 207q21 119 122 205q85 73 185 84l29 163h90l-30 -165q86 -15 141 -81q39 -46 48 -108l-83 -31q-9 46 -37 80q-34 40 -84 53l-82 -464q128 -53 210 -151q98 -119 68 -287 q-30 -170 -170 -289q-119 -101 -257 -117l-24 -140h-90l24 139q-142 11 -230 118q-78 96 -75 226zM511 1210q-15 -86 34 -146q35 -42 95 -79l76 428q-64 -10 -118 -57q-72 -60 -87 -146zM590 189q102 15 192 91q110 94 134 228q23 133 -54 227q-61 74 -155 121z" />
<glyph unicode="%" horiz-adv-x="1221" d="M125 54l1149 1311l65 -51l-1149 -1311zM254 984q17 96 96.5 163.5t175.5 67.5t151.5 -67.5t38.5 -163.5t-96.5 -163.5t-175.5 -67.5t-151.5 67.5t-38.5 163.5zM341 984q-11 -60 24 -102t95 -42q59 0 108.5 42t60.5 102t-24.5 102t-94.5 42q-60 0 -109 -42t-60 -102z M748 384q17 96 96.5 163.5t175.5 67.5t151.5 -67.5t38.5 -163.5t-96.5 -163.5t-175.5 -67.5t-151.5 67.5t-38.5 163.5zM835 384q-10 -60 24.5 -102t94.5 -42q59 0 109 42t60 102q11 60 -24 102t-94 42q-60 0 -109.5 -42t-60.5 -102z" />
<glyph unicode="&#x26;" horiz-adv-x="1304" d="M156 456q34 196 197 342q112 101 271 151q-67 31 -128 111.5t-37 221.5q25 138 141.5 237.5t257.5 99.5q140 0 222 -99q46 -53 55 -119l-86 -32q-10 49 -43 90q-61 72 -164 72t-188.5 -72.5t-104.5 -176.5q-18 -103 39.5 -178t113.5 -98t145 -24l-14 -84l-73 -2 q-226 -41 -357 -161t-159 -279q-28 -160 65 -273t253 -113q159 0 292 113q77 66 120 148q-12 5 -23 12q-43 27 -102 102q-40 44 -59 55q-19 12 -41 12q-13 0 -26 -3q-38 -10 -61 -42q-17 -22 -21 -44q-2 -12 0 -25q3 -36 29 -52q18 -10 51 -10q18 0 41 3l-23 -82 q-27 -7 -52 -7q-40 0 -74 21q-54 33 -61 104q-2 25 2 48q8 44 39 86q48 64 122 83q26 7 50 7q44 0 81 -24q36 -22 88 -89q49 -53 73 -68q27 -17 59 -17q18 0 37 5q54 14 90 61q22 31 28 63q3 17 1 35q-5 51 -46 78q-25 16 -60 16q-25 0 -56 -8l15 89q29 8 57 8q53 0 99 -29 q70 -44 79 -131q3 -30 -2 -58q-10 -55 -48 -105q-57 -78 -150 -102q-27 -7 -51 -8q-52 -108 -153 -194q-164 -140 -360 -140t-310.5 139t-79.5 336z" />
<glyph unicode="'" horiz-adv-x="340" d="M301 997l106 600h90l-106 -600h-90z" />
<glyph unicode="(" horiz-adv-x="703" d="M241 800q77 439 326 694q160 165 338 223l-15 -89q-146 -62 -280 -199q-221 -228 -291 -629q-71 -402 69 -630q85 -137 209 -202l-15 -85q-158 58 -260 223q-159 254 -81 694z" />
<glyph unicode=")" horiz-adv-x="703" d="M79 -117l15 85q146 65 280 202q221 228 292 630q70 401 -70 629q-85 137 -209 199l15 89q158 -58 260 -223q159 -255 82 -694q-78 -440 -327 -694q-160 -165 -338 -223z" />
<glyph unicode="*" horiz-adv-x="800" d="M333 1162l217 135l-169 135l65 74l153 -123l38 214h90l-38 -213l196 122l39 -74l-217 -135l169 -135l-65 -74l-153 122l-37 -213h-90l38 214l-197 -123z" />
<glyph unicode="+" horiz-adv-x="1050" d="M125 547v90h355v355h90v-355h355v-90h-355v-355h-90v355h-355z" />
<glyph unicode="," horiz-adv-x="379" d="M-29 -219l171 385h166l-253 -385h-84z" />
<glyph unicode="-" horiz-adv-x="840" d="M221 547l16 90h590l-16 -90h-590z" />
<glyph unicode="." horiz-adv-x="380" d="M114 76q6 37 37 63t68 26t59 -26t16 -63q-7 -38 -38 -64t-68 -26t-59 26t-15 64z" />
<glyph unicode="/" horiz-adv-x="727" d="M-50 0l1006 1600h103l-1007 -1600h-102z" />
<glyph unicode="0" horiz-adv-x="1250" d="M168 521l93 530q41 227 230 388t416 161q228 0 360.5 -161t91.5 -388l-93 -530q-40 -227 -229 -388t-417 -161q-227 0 -359.5 161t-92.5 388zM263 521q-33 -188 76.5 -320.5t297.5 -132.5t344.5 132.5t189.5 320.5l93 530q34 188 -76 320.5t-298 132.5t-344 -132.5 t-190 -320.5z" />
<glyph unicode="1" horiz-adv-x="1250" d="M627 0l254 1442h-95l151 158h62l-282 -1600h-90z" />
<glyph unicode="2" horiz-adv-x="1250" d="M156 0q101 310 288 433.5t331 219t274 214.5t158 277q28 159 -64.5 271t-251.5 112q-157 0 -289 -112q-113 -96 -151 -229l-85 33q49 150 180 262q165 141 362 141q198 0 313 -140t80 -338q-35 -197 -198 -344q-111 -101 -254.5 -196t-323.5 -214t-251 -300h841l-16 -90 h-943z" />
<glyph unicode="3" horiz-adv-x="1250" d="M218 381l97 33q-9 -133 70 -229q93 -112 250 -112q159 0 291 112t160 271q28 158 -60.5 277t-298.5 160l-75 2l16 90q93 1 156.5 24t146 97t100.5 176q18 103 -41 174.5t-161 71.5q-101 0 -187 -71q-47 -41 -75 -92l-80 34q34 70 99 123q118 100 259 100 q143 0 225 -100.5t57 -239.5q-25 -142 -115 -223.5t-161 -108.5q135 -48 212 -150q111 -147 77 -344q-35 -198 -199.5 -338t-362.5 -140q-197 0 -312 141q-91 112 -88 262z" />
<glyph unicode="4" horiz-adv-x="1250" d="M256 468l860 1132h90l-184 -1042h153l-16 -90h-153l-83 -468h-90l83 468h-660zM427 558h505l149 848z" />
<glyph unicode="5" horiz-adv-x="1250" d="M154 210l77 71q62 -126 215 -175q68 -22 138 -22q112 0 228 56q189 92 280 280q35 72 47 142q20 112 -18 219q-62 172 -238 238q-76 28 -173 28q-127 0 -291 -49l-61 63l273 507l6 32h500l-16 -90h-425l-220 -407q53 16 118 30q66 11 126 11q110 0 205 -35 q212 -77 285 -284q47 -129 23 -264q-15 -84 -56 -169q-109 -225 -335 -336q-138 -67 -272 -67q-85 0 -168 27q-171 55 -248 194z" />
<glyph unicode="6" horiz-adv-x="1250" d="M162 504q72 353 271.5 577t482.5 488q17 16 32 31h124q-24 -25 -50 -50q-315 -294 -508 -513q-41 -46 -76 -97q174 131 379 131q228 0 360 -161t92 -389q-40 -227 -229 -388t-417 -161q-227 0 -359 161q-128 155 -96 371h-6zM266 521q-33 -188 76.5 -320.5t297.5 -132.5 t344.5 132.5t189.5 320.5t-76.5 321t-297.5 133t-344.5 -133t-189.5 -321z" />
<glyph unicode="7" horiz-adv-x="1250" d="M153 0q72 353 271.5 577t482 488t353.5 445h-841l16 90h943q-52 -260 -366 -554t-507 -513t-258 -533h-94z" />
<glyph unicode="8" horiz-adv-x="1250" d="M187 456q35 197 198 344q113 102 265 150q-61 27 -122.5 108.5t-36.5 223.5q24 139 141.5 239.5t260.5 100.5h36q143 0 224.5 -100.5t57.5 -239.5q-25 -142 -115.5 -223.5t-161.5 -108.5q136 -48 213 -150q111 -147 76 -344q-35 -198 -199 -338t-362 -140q-20 0 -41 2 q-20 -2 -41 -2q-198 0 -313 140t-80 338zM281 456q-28 -159 64 -271t251 -112q20 0 41 2h2q19 -2 39 -2q159 0 291 112t160 271q28 158 -60 277q-86 116 -287 158q-217 -42 -343 -158q-130 -119 -158 -277zM587 1282q-18 -102 38 -176t111 -97q28 -11 63 -17q37 6 69 17 q63 23 146 97t101 176q18 103 -41.5 174.5t-161.5 71.5q-9 0 -17 -1h-2q-8 1 -17 1q-102 0 -186.5 -71.5t-102.5 -174.5z" />
<glyph unicode="9" horiz-adv-x="1250" d="M258 1051q40 227 229 388t417 161q227 0 360 -161q127 -155 95 -371h6q-72 -353 -271.5 -577t-482.5 -488q-16 -16 -32 -31h-124q24 25 51 50q315 294 507 513q41 46 76 97q-174 -131 -379 -131q-228 0 -360 161t-92 389zM353 1051q-33 -188 76.5 -321t297.5 -133 t344.5 133t189.5 321t-76.5 320.5t-297.5 132.5t-344.5 -132.5t-189.5 -320.5z" />
<glyph unicode=":" d="M139 76q6 37 37 63t68 26t59 -26t16 -63q-7 -38 -38 -64t-68 -26t-59 26t-15 64zM247 693q7 37 38 63t68 26t59 -26t15 -63q-6 -38 -37 -64t-68 -26t-59 26t-16 64z" />
<glyph unicode=";" horiz-adv-x="477" d="M44 -219l171 385h166l-253 -385h-84zM247 693q6 37 37.5 63t68.5 26t58.5 -26t15.5 -63q-7 -38 -38 -64t-68 -26t-59 26t-15 64z" />
<glyph unicode="&#x3c;" horiz-adv-x="1349" d="M100 563l1149 418v-96l-886 -322l886 -322v-96z" />
<glyph unicode="=" horiz-adv-x="1050" d="M125 387v90h800v-90h-800zM125 707v90h800v-90h-800z" />
<glyph unicode="&#x3e;" horiz-adv-x="1349" d="M100 145v96l886 322l-886 322v96l1149 -418z" />
<glyph unicode="?" horiz-adv-x="956" d="M250 76q6 37 37 63t68 26t59 -26t16 -63q-7 -38 -38 -64t-68 -26t-59 26t-15 64zM337 265q-14 80 0 158q18 104 85 204q109 167 292 289q111 92 167 178q36 53 45 108q7 41 1 82q-18 98 -103 143q-49 25 -103 25q-41 0 -85 -15q-103 -34 -165 -126q-34 -52 -43 -105 l-87 4l1 8q12 65 55 129q84 127 224 173q62 20 118 20q74 0 140 -34q115 -61 138 -192q10 -57 0 -113q-13 -74 -61 -146q-83 -127 -244 -237q-136 -103 -218 -229q-54 -82 -69 -166q-11 -64 0 -129z" />
<glyph unicode="@" horiz-adv-x="1626" d="M222 547q50 284 288 486.5t522 202.5q285 0 450.5 -202.5t115.5 -486.5q-22 -127 -140.5 -272t-230.5 -145q-13 0 -24 2q-83 18 -76 100l15 81q-144 -127 -295 -127q-150 0 -238 107t-62 255q27 151 152.5 258t275.5 107q151 0 250 -127l20 114h81l-114 -648 q10 -43 47 -43q44 0 141.5 110.5t118.5 227.5q44 251 -103 429.5t-398 178.5t-460 -178.5t-253 -429.5t102 -428.5t397 -177.5q172 0 260 49l46 -60q-132 -70 -320 -70q-284 0 -451 202t-117 485zM634 548q-20 -115 47 -197t183 -82t212 82q67 57 98 132l23 132 q-4 75 -51 132q-67 83 -183 83t-212 -82.5t-117 -199.5z" />
<glyph unicode="A" horiz-adv-x="1291" d="M50 0l885 1637l306 -1637h-95l-115 613h-554l-331 -613h-96zM526 703h488l-126 671z" />
<glyph unicode="B" horiz-adv-x="1066" d="M150 0l282 1600h284q123 0 195 -87q56 -67 56 -156q0 -26 -5 -54q-22 -124 -168 -231q108 -23 188 -132q100 -123 101 -286q0 -50 -10 -103q-40 -227 -229 -393q-176 -154 -384 -157v-1h-310zM256 90h220v-1q169 11 312 137q157 137 190 325q8 44 8 84q0 135 -84 237 q-110 133 -298 133h-187zM434 1101h217q76 7 138 56q71 56 87 146q4 21 4 41q0 64 -39 108q-51 58 -141 58h-194z" />
<glyph unicode="C" horiz-adv-x="1595" d="M266 800q60 339 341.5 579t621.5 240q317 0 514 -213l-79 -62q-174 183 -451 183q-301 0 -551.5 -213t-303.5 -514q-12 -70 -12 -135q0 -216 134 -380q176 -213 477 -213q277 0 515 183l57 -61q-271 -213 -588 -213q-339 -1 -537 239q-151 184 -152 427q0 74 14 153z" />
<glyph unicode="D" horiz-adv-x="1199" d="M150 0l282 1600h90v-2h7q395 0 573 -218q152 -185 152 -428q0 -74 -14 -152q-60 -340 -342 -580q-256 -218 -651 -218h-7v-2h-90zM256 93h7q356 0 581 192q251 213 304 515q12 70 12 135q0 216 -134 380q-157 191 -513 191h-7z" />
<glyph unicode="E" horiz-adv-x="1075" d="M150 0l282 1600h800l-16 -90h-710l-117 -665h710l-16 -90h-710l-117 -665h710l-16 -90h-800z" />
<glyph unicode="F" horiz-adv-x="975" d="M150 0l282 1600h700l-16 -90h-610l-117 -665h610l-16 -90h-610l-133 -755h-90z" />
<glyph unicode="G" horiz-adv-x="1620" d="M266 800q60 339 341.5 579t621.5 240q317 0 514 -213l-79 -62q-174 183 -451 183q-301 0 -551.5 -213t-303.5 -514q-12 -70 -12 -135q0 -216 134 -380q176 -213 477 -213q258 0 483 159l86 488h90l-92 -520q-266 -218 -583 -218q-340 0 -537 239q-152 184 -152 427 q0 74 14 153z" />
<glyph unicode="H" horiz-adv-x="1150" d="M150 0l282 1600h90l-140 -793h670l140 793h90l-282 -1600h-90l126 717h-670l-126 -717h-90z" />
<glyph unicode="I" d="M170 0l282 1600h90l-282 -1600h-90z" />
<glyph unicode="J" horiz-adv-x="857" d="M171 259l63 23q1 -108 56 -162q46 -46 114 -46q12 0 26 2q83 0 153 59q62 53 85 179l226 1286h90l-228 -1296q-27 -152 -121 -232q-100 -86 -221 -86t-191 86q-56 68 -56 146q0 20 4 41z" />
<glyph unicode="K" horiz-adv-x="1097" d="M150 0l282 1600h90l-120 -681l631 681h116l-593 -644l451 -956h-111l-412 884l-107 -109l-137 -775h-90z" />
<glyph unicode="L" horiz-adv-x="950" d="M150 0l282 1600h90l-266 -1510h620l-16 -90h-710z" />
<glyph unicode="M" horiz-adv-x="1707" d="M154 0l281 1593l-3 7h103l418 -1040l783 1040h103l-5 -7l-281 -1593h-90l253 1437l-794 -1054l-425 1054l-253 -1437h-90z" />
<glyph unicode="N" horiz-adv-x="1311" d="M150 0l282 1600h99l571 -1423l251 1423h90l-282 -1600h-90l-578 1437l-253 -1437h-90z" />
<glyph unicode="O" horiz-adv-x="1892" d="M266 802q60 340 343 580.5t623 240.5q340 -1 538 -241q152 -185 152 -427q0 -74 -14 -153q-60 -340 -343 -580.5t-623 -240.5q-340 1 -538 241q-152 185 -152 427q0 74 14 153zM358 802q-12 -70 -12 -135q0 -216 134 -381q176 -214 478 -214t553.5 214t304.5 516 q12 70 12 135q0 217 -135 381q-176 214 -478 213q-302 0 -553 -213.5t-304 -515.5z" />
<glyph unicode="P" horiz-adv-x="1089" d="M150 0l282 1600h420q179 -25 284 -153q97 -118 97 -272q0 -47 -9 -97q-38 -217 -218 -370t-396 -153h-272l-98 -555h-90zM354 646h272q178 0 327 126.5t180 305.5q8 42 8 81q-1 128 -81 224q-104 126 -282 126h-272z" />
<glyph unicode="Q" horiz-adv-x="1892" d="M266 802q60 340 343 580.5t623 240.5t538 -241q152 -184 152 -427q0 -74 -14 -153q-60 -340 -342 -580q-205 -174 -438 -222q4 -2 9 -3q69 -20 180 -98q76 -45 108 -55q20 -6 40 -6q36 0 73 19q59 30 85 88q8 16 11 32h91q-6 -27 -19 -55q-44 -94 -137 -142 q-60 -31 -118 -31q-33 0 -65 10q-57 16 -155 86q-92 54 -133 66q-28 8 -56 8q-50 0 -100 -26q-82 -42 -118 -123q-6 -12 -9 -24h-91q6 24 17 49q54 116 170 176l22 10q-333 3 -528 241q-153 184 -153 428q0 73 14 152zM358 802q-12 -70 -12 -135q0 -217 134 -381 q176 -214 478 -214t553.5 214t304.5 516q12 70 12 135q0 216 -135 381q-176 213 -478 213t-553 -213.5t-304 -515.5z" />
<glyph unicode="R" horiz-adv-x="1089" d="M150 0l282 1600h420q179 -25 284 -153q97 -118 97 -272q0 -47 -9 -97q-38 -217 -218 -370q-125 -106 -268 -139l269 -569h-111l-259 556q-13 -1 -27 -1h-272l-98 -555h-90zM354 646h272q178 0 327 126.5t180 305.5q8 42 8 81q-1 128 -81 224q-104 126 -282 126h-272z" />
<glyph unicode="S" horiz-adv-x="1042" d="M117 379l90 31q-1 -13 -1 -26q0 -114 72 -201q93 -113 252 -113q160 0 293 113t161 273q7 37 7 72q0 113 -72 200q-81 99 -215 158q-160 57 -242 156q-62 76 -63 176q0 31 6 64q24 138 141 237.5t258 99.5q140 0 222 -99q46 -53 55 -119l-87 -32q-9 49 -43 90 q-60 72 -163 72t-189 -72.5t-104 -176.5q-4 -24 -4 -46q0 -74 46 -130q56 -67 166 -123q181 -62 289 -193q88 -106 88 -246q0 -43 -8 -88q-34 -197 -197.5 -336t-359.5 -139t-311 140q-87 106 -87 246v12z" />
<glyph unicode="T" horiz-adv-x="1000" d="M316 1510l16 90h900l-16 -90h-405l-266 -1510h-90l266 1510h-405z" />
<glyph unicode="U" horiz-adv-x="1345" d="M239 508l193 1092h91l-193 -1092q-7 -41 -7 -79q0 -127 80 -225q104 -126 283 -127q179 0 327.5 126.5t179.5 304.5l193 1092h91l-203 -1150q-57 -183 -208 -311q-180 -153 -396 -153q-217 0 -343 153q-97 118 -97 272q0 47 9 97z" />
<glyph unicode="V" horiz-adv-x="1291" d="M332 1600h95l258 -1374l742 1374h96l-885 -1637z" />
<glyph unicode="W" horiz-adv-x="1672" d="M191 370l216 1230h90l-215 -1222q-5 -28 -5 -55q0 -91 58 -159q75 -88 199 -88t229 87q40 34 71 77l239 1360h90l-239 -1360q15 -43 43 -77q75 -87 199 -87t230 88.5t128 213.5l215 1222h90l-216 -1230q-31 -156 -163 -268q-136 -116 -300 -116q-163 0 -259 115 q-17 20 -30 41q-19 -21 -44 -41q-136 -115 -299 -115q-164 0 -259 116q-73 88 -73 204q0 31 5 64z" />
<glyph unicode="X" horiz-adv-x="1218" d="M50 0l662 879l-289 721h103l253 -632l477 632h103l-545 -721l354 -879h-103l-318 790l-595 -790h-102z" />
<glyph unicode="Y" horiz-adv-x="1291" d="M332 1600h103l342 -853l643 853h103l-719 -953l-114 -647h-90l114 647z" />
<glyph unicode="Z" horiz-adv-x="1327" d="M150 0l1138 1510h-872l16 90h1027l-1139 -1510h873l-16 -90h-1027z" />
<glyph unicode="[" horiz-adv-x="560" d="M59 -375l348 1975h310l-16 -90h-220l-316 -1795h220l-16 -90h-310z" />
<glyph unicode="\" horiz-adv-x="727" d="M232 1600h103l442 -1600h-102z" />
<glyph unicode="]" horiz-adv-x="560" d="M59 -375l16 90h220l316 1795h-220l16 90h310l-348 -1975h-310z" />
<glyph unicode="^" horiz-adv-x="921" d="M100 1066l309 534h104l308 -534h-104l-256 443l-256 -443h-105z" />
<glyph unicode="_" horiz-adv-x="1050" d="M4 -120l16 90h1000l-16 -90h-1000z" />
<glyph unicode="`" horiz-adv-x="629" d="M377 1287h166l130 -187h-84z" />
<glyph unicode="a" horiz-adv-x="1360" d="M217 521q40 228 229.5 389t416.5 161q228 0 361 -161q25 -32 45 -67l24 139h90l-173 -982h-90l35 200q-32 -35 -68 -67q-190 -161 -418 -161q-227 0 -359 161q-102 124 -102 286q0 49 9 102zM312 521q-8 -44 -7 -84q-1 -135 83 -237q110 -132 298 -132t345 133 q117 100 165 231l32 178q-2 132 -84 232q-110 133 -298 133t-344.5 -133t-189.5 -321z" />
<glyph unicode="b" horiz-adv-x="1359" d="M150 0l282 1600h90l-133 -756q31 34 68 66q190 161 417 161q228 0 360 -161q101 -124 102 -287q0 -49 -10 -102q-40 -227 -229 -388t-417 -161q-227 0 -360 161q-26 32 -45 66l-35 -199h-90zM315 427q4 -128 84 -226q110 -133 298 -133t344.5 132.5t189.5 320.5 q8 44 8 84q-1 135 -85 237q-110 133 -297 133q-188 0 -345 -133q-115 -98 -164 -227z" />
<glyph unicode="c" horiz-adv-x="1177" d="M182 522q40 227 229.5 388t416.5 161q228 0 361 -161q27 -33 47 -68l-102 -35q-11 18 -25 36q-110 132 -298 132q-187 0 -343.5 -132.5t-189.5 -320.5q-8 -44 -7 -84q-1 -135 83 -237q110 -133 297 -133q188 0 345 133q20 17 38 35l89 -34q-33 -36 -71 -69 q-190 -161 -418 -161t-360 161q-102 124 -101 287q0 49 9 102z" />
<glyph unicode="d" horiz-adv-x="1360" d="M217 521q40 228 229.5 389t416.5 161q228 0 361 -161q25 -32 45 -67l133 757h90l-282 -1600h-90l35 200q-32 -35 -68 -67q-190 -161 -418 -161q-227 0 -359 161q-102 124 -102 286q0 49 9 102zM312 521q-8 -44 -7 -84q-1 -135 83 -237q110 -132 298 -132t345 133 q117 100 165 231l32 178q-2 132 -84 232q-110 133 -298 133t-344.5 -133t-189.5 -321z" />
<glyph unicode="e" horiz-adv-x="1177" d="M182 522q40 227 229.5 388t416.5 161q195 0 320 -117q21 -20 41 -44q7 -9 13 -18l-80 -68l-752 -640q106 -116 281 -116q188 0 345 133q20 17 38 35l89 -34q-33 -36 -71 -69q-190 -161 -418 -161t-360 161q-102 124 -101 287q0 49 9 102zM278 522q-8 -44 -7 -84 q0 -104 49 -188l747 635q-101 90 -256 90q-187 0 -343.5 -132.5t-189.5 -320.5z" />
<glyph unicode="f" horiz-adv-x="523" d="M190 0l157 892h-100l16 90h100l47 266q26 111 119 191q95 76 202 76q56 0 114 -21l-42 -80q-38 18 -77 18q-71 0 -145 -57q-65 -55 -82 -133l-46 -260h200l-16 -90h-200l-157 -892h-90z" />
<glyph unicode="g" horiz-adv-x="1364" d="M201 -90l101 34q12 -18 26 -35q110 -133 298 -133q187 0 343 133q142 121 183 286q-31 -32 -65 -62q-190 -161 -418 -161q-227 0 -359 161q-102 124 -102 286q0 49 9 102q40 228 229.5 388.5t416.5 160.5q228 0 361 -160q25 -32 45 -67l24 139h90l-134 -763 q-39 -221 -224 -378q-189 -161 -416 -161q-228 0 -361 161q-27 33 -47 69zM312 521q-8 -44 -8 -84q0 -135 84 -237q110 -133 298 -133t344 133q115 97 164 225l34 190q-4 129 -84 227q-110 133 -298 133t-344.5 -133t-189.5 -321z" />
<glyph unicode="h" horiz-adv-x="1059" d="M150 0l282 1600h90l-118 -669q134 110 294 110q174 0 264 -109q69 -84 69 -203q0 -34 -6 -72l-116 -657h-90l114 649q5 28 5 55q0 90 -58 158q-74 88 -198 89q-124 0 -230 -87q-47 -40 -74 -83l-138 -781h-90z" />
<glyph unicode="i" d="M170 0l173 982h90l-173 -982h-90zM344 1241q6 37 37.5 63t68.5 26q36 0 58 -26q17 -20 17 -47q0 -8 -1 -16q-7 -38 -38 -64t-68 -26t-59 26q-17 20 -17 46q0 9 2 18z" />
<glyph unicode="j" horiz-adv-x="455" d="M9 -228l16 90q123 14 145 136l173 984h90l-173 -982q-37 -211 -251 -228zM344 1241q7 37 38 63t68 26t59 -26q17 -20 17 -46q0 -8 -2 -17q-7 -38 -38 -64t-68 -26t-59 26q-17 20 -17 46q0 9 2 18z" />
<glyph unicode="k" horiz-adv-x="823" d="M150 0l247 1400h90l-133 -755l332 337h116l-295 -300l266 -682h-112l-225 610l-108 -109l-88 -501h-90z" />
<glyph unicode="l" horiz-adv-x="390" d="M150 0l282 1600h90l-282 -1600h-90z" />
<glyph unicode="m" horiz-adv-x="1375" d="M150 0l173 982h90l-4 -23q98 81 215 81q121 0 191 -85q19 -23 32 -50q21 26 49 50q100 85 221 85t191 -85q54 -66 55 -154q0 -21 -4 -43l-134 -758h-90l134 758h1q2 13 2 25q0 62 -38 108q-49 59 -132 59t-153 -59t-86 -147l-131 -744h-90l134 758h1q1 13 1 25 q0 62 -37 108q-49 59 -132 59t-153 -59q-61 -51 -81 -125l-135 -766h-90z" />
<glyph unicode="n" horiz-adv-x="1071" d="M150 0l173 982h90l-11 -63q145 122 308 122q174 0 264 -109q69 -84 69 -203q0 -34 -6 -72l-116 -657h-90l114 649q5 28 5 55q0 90 -58 158q-74 88 -198 89q-124 0 -230 -87q-57 -49 -89 -101l-135 -763h-90z" />
<glyph unicode="o" horiz-adv-x="1278" d="M182 521q40 228 229.5 389t416.5 161q228 0 360 -161q101 -124 102 -287q0 -49 -10 -102q-40 -227 -229 -388t-417 -161t-360 161q-102 124 -101 286q0 49 9 102zM277 521q-8 -44 -7 -84q0 -135 84 -237q110 -132 297 -132q188 0 344.5 132.5t189.5 320.5q8 44 8 84 q-1 135 -85 237q-110 133 -297 133q-188 0 -344.5 -133t-189.5 -321z" />
<glyph unicode="p" horiz-adv-x="1334" d="M84 -375l239 1357h90l-24 -138q31 34 69 66q189 160 416 160q228 0 360 -160q101 -124 101 -287q0 -49 -9 -102q-40 -227 -229 -388t-417 -161q-227 0 -359 161q-27 32 -46 66l-101 -574h-90zM315 427q4 -129 84 -227q110 -133 298 -133t344.5 133t189.5 321q8 44 8 84 q0 135 -85 237q-109 133 -297 133t-344 -133q-116 -98 -164 -227z" />
<glyph unicode="q" horiz-adv-x="1335" d="M192 521q40 228 229.5 388.5t416.5 160.5q228 0 361 -160q25 -32 45 -67l24 139h90l-239 -1357h-90l101 575q-32 -35 -68 -67q-190 -161 -418 -161q-227 0 -360 161q-101 124 -101 286q0 49 9 102zM287 521q-8 -44 -8 -84q0 -135 85 -237q109 -133 297 -133t344 133 q118 100 166 232l32 178q-2 132 -84 232q-110 133 -298 133t-344.5 -133t-189.5 -321z" />
<glyph unicode="r" horiz-adv-x="599" d="M150 0l173 982h90l-31 -179q35 40 78 77q140 119 266 125l-17 -98q-86 -4 -193 -95q-150 -127 -187 -305l-89 -507h-90z" />
<glyph unicode="s" horiz-adv-x="802" d="M159 249l93 23q-4 -21 -4 -40q0 -62 38 -107q49 -59 132 -59t153 59t85 144q3 19 3 36q0 60 -37 106q-27 32 -113 94q-104 62 -140 106q-44 53 -44 123q0 21 4 43q17 98 98.5 167.5t178.5 69.5q98 0 151 -64q39 -49 39 -109q0 -17 -3 -34l-1 -5l-83 -31v13q1 66 -27 101 q-30 38 -92 38q-60 0 -110.5 -42.5t-61.5 -103.5q-2 -13 -2 -26q0 -44 27 -77q21 -25 93 -76q115 -70 160 -124q53 -67 53 -153q0 -25 -4 -52q-22 -122 -122 -207.5t-221 -85.5t-191 86q-56 68 -56 146q0 20 4 41z" />
<glyph unicode="t" horiz-adv-x="670" d="M247 892l16 90h200l74 418h90l-74 -418h200l-16 -90h-200l-157 -892h-90l157 892h-200z" />
<glyph unicode="u" horiz-adv-x="1099" d="M215 370l109 614h90l-107 -606q-5 -28 -5 -55q0 -90 58 -158q74 -89 207 -89q124 0 230.5 88.5t128.5 213.5l107 606h90l-109 -614q-32 -166 -160 -275t-301 -109q-184 0 -274 109q-70 85 -70 203q0 35 6 72z" />
<glyph unicode="v" horiz-adv-x="1064" d="M223 982h104l234 -818l522 818h104l-660 -1009z" />
<glyph unicode="w" horiz-adv-x="1375" d="M197 268l126 714h90l-126 -714h-1q-1 -13 -1 -25q0 -62 38 -108q48 -59 131 -59t154 59q60 51 80 125l127 722h90l-123 -700q-4 -22 -4 -42q0 -61 37 -105q49 -59 132 -59t154 59q65 55 82 133h-1l126 714h90l-126 -714q-24 -115 -119 -196q-100 -86 -221 -86t-191 86 q-19 23 -32 48q-21 -25 -49 -48q-100 -86 -221 -86t-191 86q-54 65 -54 153q0 21 3 43z" />
<glyph unicode="x" horiz-adv-x="871" d="M75 0l403 534l4 5l-2 5l-176 438h104l140 -347l261 347h105l-330 -438l-4 -5l2 -5l214 -534h-104l-178 443l-334 -443h-105z" />
<glyph unicode="y" horiz-adv-x="1005" d="M127 -375l363 556l-242 801h102l202 -704l450 704h101l-585 -895l1 1l-304 -463h-88z" />
<glyph unicode="z" horiz-adv-x="1000" d="M150 0l68 90l594 788h-507l16 90h662l-68 -90l-595 -788h546l-16 -90h-700z" />
<glyph unicode="{" horiz-adv-x="866" d="M226 572l14 81q9 -3 20 -3q46 0 131 44q126 66 185 195q32 72 46 152q7 44 10 90q-2 72 9 135q12 67 39 126q49 112 163 170q71 38 142 38q19 0 38 -3l-13 -75q-18 3 -36 3q-52 0 -106 -27q-82 -43 -119 -126q-25 -55 -37 -125q-5 -30 -8 -64q2 -76 -11 -149 q-15 -85 -50 -165q-71 -158 -227 -239q-18 -9 -38 -17q17 -9 32 -18q127 -81 143 -239q7 -80 -8 -165q-13 -73 -42 -149q-9 -34 -15 -64q-12 -70 -7 -125q8 -83 75 -125q46 -28 99 -28q16 0 34 2l-13 -74q-20 -3 -39 -3q-71 0 -129 38q-93 58 -103 171q-6 59 6 126 q11 63 38 134q14 46 22 90q14 80 7 152q-13 129 -116 195q-69 44 -115 44q-11 0 -21 -3z" />
<glyph unicode="|" horiz-adv-x="390" d="M84 -375l348 1975h90l-348 -1975h-90z" />
<glyph unicode="}" horiz-adv-x="866" d="M59 -372l13 74q17 -2 33 -2q53 0 109 28q82 42 119 125q24 55 37 125q5 30 8 64q-3 76 10 149q15 85 50 165q72 158 228 239q18 9 38 18q-17 8 -32 17q-127 81 -143 239q-7 80 8 165q13 73 42 149q9 34 14 64q13 70 8 125q-8 83 -75 126q-45 27 -97 27q-18 0 -36 -3 l13 75q20 3 39 3q71 0 129 -38q93 -58 103 -170q6 -59 -6 -126q-11 -63 -38 -135q-14 -46 -22 -90q-14 -80 -8 -152q14 -129 117 -195q69 -44 115 -44q11 0 21 3l-15 -81q-8 3 -19 3q-46 0 -131 -44q-126 -66 -185 -195q-32 -72 -46 -152q-8 -44 -10 -90q2 -71 -9 -134 q-12 -67 -39 -126q-50 -113 -163 -171q-72 -38 -143 -38q-19 0 -37 3z" />
<glyph unicode="~" horiz-adv-x="1277" d="M125 707q2 48 22 97q46 111 157 148q25 8 55 8q106 0 279 -99q188 -109 273 -109q15 0 27 3q77 23 108 100q15 38 15 77l91 -14q-4 -48 -23 -97q-46 -111 -156 -148q-25 -8 -56 -8q-105 0 -278 99q-190 109 -274 109q-14 0 -26 -3q-77 -23 -108 -100q-15 -39 -16 -77z " />
<glyph unicode="&#xa1;" d="M173 4l233 1324h90l-233 -1324h-90zM395 1528q6 38 37.5 64t68.5 26t58.5 -26t15.5 -64q-7 -37 -38 -63t-68 -26t-59 26t-15 63z" />
<glyph unicode="&#xa2;" horiz-adv-x="1013" d="M287 1062q32 184 186 315q118 100 253 124l28 161h90l-27 -154q180 -2 286 -131q21 -27 41 -61l-92 -33q-12 18 -23 32q-85 102 -227 104l-126 -714q143 2 264 105q15 13 34 31l81 -32q-32 -35 -63 -62q-152 -129 -332 -131l-27 -154h-90l28 161q-127 23 -209 124 q-108 130 -75 315zM376 1062q-26 -148 60 -252q60 -74 151 -96l123 696q-99 -22 -185 -95q-123 -105 -149 -253z" />
<glyph unicode="&#xa3;" horiz-adv-x="1130" d="M104 20q143 110 182 149q131 128 160 292q4 22 6 44q2 25 2 50h-228l16 90h209q-9 95 -41 189q-80 180 -65 343q1 19 5 38q24 139 136 249q124 123 290 138q19 1 38 1q139 0 234 -92q105 -105 92 -267q-1 -23 -5 -44q-11 -63 -42 -114l-81 29q23 43 32 95l4 28 q9 123 -71 203q-72 70 -178 70q-14 0 -28 -1q-126 -11 -223 -106q-85 -84 -103 -189q-3 -15 -5 -30q-10 -113 33 -256q62 -138 72 -284h197l-16 -90h-180q0 -21 -2 -43t-6 -44q-36 -204 -241 -405q133 45 254 45q72 0 140 -16q95 -23 184 -23q80 0 154 18l1 -89 q-84 -20 -171 -20q-89 0 -180 22q-94 21 -169 21q-68 0 -120 -17q-111 -38 -217 -87z" />
<glyph unicode="&#xa4;" horiz-adv-x="1112" d="M233 753l164 139q-70 108 -45 253q26 145 134 253l-115 139l76 64l114 -139q124 89 269 89t237 -89l164 139l52 -64l-163 -139q70 -108 44 -253q-25 -145 -133 -253l114 -139l-75 -64l-115 139q-123 -89 -268 -89t-238 89l-163 -139zM442 1145q-19 -108 30 -189 q10 -18 24 -34q13 -17 29 -30q69 -63 177 -63t201 63q20 13 40 30q19 16 35 34q77 81 96 189t-30 189q-9 18 -22 35q-15 16 -30 29q-70 63 -178 63t-200 -63q-21 -13 -39 -29q-20 -17 -37 -35q-77 -81 -96 -189z" />
<glyph unicode="&#xa5;" horiz-adv-x="1291" d="M326 455l16 90h354l18 102l-7 18h-344l16 90h292l-339 845h103l338 -845h10l637 845h103l-638 -845h294l-16 -90h-346l-13 -18l-18 -102h356l-16 -90h-356l-80 -455h-90l80 455h-354z" />
<glyph unicode="&#xa6;" horiz-adv-x="390" d="M84 -375l150 849h90l-150 -849h-90zM283 751l149 849h90l-149 -849h-90z" />
<glyph unicode="&#xa7;" horiz-adv-x="1158" d="M272 80l87 32q9 -49 43 -90q60 -72 163 -72t189 72.5t104 176.5q18 103 -42 176q-56 67 -166 123q-181 62 -289 193q-115 138 -80 334q34 197 139 286q42 36 70 51q0 29 6 61q24 138 140.5 237.5t257.5 99.5q140 0 223 -99q45 -53 55 -119l-87 -32q-9 49 -43 90 q-60 72 -163 72t-189 -72.5t-104 -176.5q-18 -103 42 -176q56 -67 166 -123q181 -62 289 -193q115 -138 80 -334q-35 -197 -139 -286q-43 -36 -70 -51q0 -29 -6 -61q-24 -138 -141 -237.5t-258 -99.5q-140 0 -222 99q-46 53 -55 119zM369 1025q-28 -159 65 -272 q81 -99 215 -158q161 -57 242 -156q36 -43 51 -94q13 14 31 29q74 63 102 223q28 159 -65 272q-81 99 -215 158q-161 57 -243 156q-35 43 -50 94q-13 -14 -31 -29q-74 -63 -102 -223z" />
<glyph unicode="&#xa8;" horiz-adv-x="730" d="M344 1241q6 37 37 63t68 26t59 -26t16 -63q-7 -38 -38 -64t-68 -26t-59 26t-15 64zM644 1241q6 37 37 63t68 26t59 -26t16 -63q-7 -38 -38 -64t-68 -26t-59 26t-15 64z" />
<glyph unicode="&#xa9;" horiz-adv-x="1405" d="M99 603q0 249 176 425t425 176q248 0 424 -176t176 -425t-176 -425t-424 -176q-249 0 -425 176t-176 425zM170 603q0 -219 155 -374.5t375 -155.5q219 0 374 155.5t155 374.5q0 220 -155 375t-374 155q-220 0 -375 -155t-155 -375zM380 603q0 137 97 234t234 97t234 -97 q20 -20 40 -48l-68 -25q-11 14 -21 25q-77 76 -185 76t-185 -76.5t-77 -185.5q0 -108 77 -185t185 -77t185 77q10 10 21 24l68 -25q-20 -28 -40 -48q-97 -97 -234 -97t-234 97t-97 234z" />
<glyph unicode="&#xaa;" horiz-adv-x="878" d="M261 913l111 628h31l-106 -597h575l-5 -31h-606zM477 1329q20 112 113 191.5t206 79.5q112 0 178 -79q12 -16 14 -19l10 55h55l-86 -486h-55l15 85q-3 -3 -21 -19q-93 -79 -205 -79q-113 0 -178 79.5t-46 191.5zM534 1329q-15 -89 36.5 -151t140.5 -62q88 0 161 62 q56 47 78 108l15 85q0 62 -40 109q-51 62 -139 62q-89 0 -162.5 -62.5t-89.5 -150.5z" />
<glyph unicode="&#xab;" horiz-adv-x="980" d="M181 462l510 460l-18 -104l-394 -356l268 -356l-18 -105zM525 462l517 460l-18 -104l-394 -356l268 -356l-18 -105z" />
<glyph unicode="&#xad;" horiz-adv-x="840" d="M221 547l16 90h590l-16 -90h-590z" />
<glyph unicode="&#xae;" horiz-adv-x="1161" d="M100 1119q0 199 140.5 340t340.5 141q198 0 339 -141t141 -340t-141 -340q-49 -49 -137.5 -95t-201.5 -46q-200 0 -340.5 141t-140.5 340zM157 1119q0 -175 124 -300q59 -58 129 -89q28 -13 58 -21q53 -14 113 -14q78 0 149 26l-138 215h-125v-155h-55v644h198 q86 -12 146 -72q71 -71 71 -172q0 -102 -71 -174q-50 -49 -104 -62l130 -200q53 30 98 74q124 125 124 300q0 176 -124 300t-299 124q-176 0 -300 -124t-124 -300zM467 993h116q78 0 133.5 55.5t55.5 133.5t-55.5 133.5t-133.5 55.5h-116v-378z" />
<glyph unicode="&#xaf;" horiz-adv-x="840" d="M343 1237l16 90h590l-16 -90h-590z" />
<glyph unicode="&#xb0;" horiz-adv-x="762" d="M150 1369q0 96 67.5 163.5t163.5 67.5t163.5 -67.5t67.5 -163.5t-67.5 -163.5t-163.5 -67.5t-163.5 67.5t-67.5 163.5zM221 1369q0 -66 47 -113t113 -47t113 47t47 113t-47 113t-113 47t-113 -47t-47 -113z" />
<glyph unicode="&#xb1;" horiz-adv-x="1050" d="M125 0v90h800v-90h-800zM125 547v90h355v355h90v-355h355v-90h-355v-355h-90v355h-355z" />
<glyph unicode="&#xb2;" horiz-adv-x="899" d="M239 629q67 200 190 275.5t215 132t173.5 126.5t97.5 162q16 93 -41.5 156.5t-152.5 63.5q-94 0 -174 -63q-69 -55 -97 -148l-84 31q33 98 120 168q112 89 248 89q137 0 216 -87.5t58 -209.5q-21 -120 -128 -211q-73 -62 -166.5 -119t-211.5 -130q-109 -68 -148 -162h544 l-13 -74h-646z" />
<glyph unicode="&#xb3;" horiz-adv-x="899" d="M278 873l96 30q-6 -93 45 -148q57 -62 151 -62q95 0 175 63.5t96 155.5q17 93 -38.5 161t-185.5 92l-63 1l13 74q73 0 110.5 12.5t87 54.5t60.5 101q10 59 -25.5 98.5t-94.5 39.5q-58 0 -107 -38q-28 -23 -52 -65l-79 30q26 51 70 84q83 65 182 65q101 0 158 -64t42 -150 q-16 -88 -76.5 -139t-82.5 -59q67 -22 121 -86q75 -91 53 -212q-21 -121 -131 -208.5t-247 -87.5q-136 0 -216 89q-63 69 -62 168z" />
<glyph unicode="&#xb4;" horiz-adv-x="629" d="M326 1000l196 187h166l-278 -187h-84z" />
<glyph unicode="&#xb5;" horiz-adv-x="1046" d="M84 -375l239 1357h90l-129 -731q13 -43 46 -83q74 -87 198 -87t231 89q68 57 102 130l120 682h88l-173 -982h-88l20 111q-6 -5 -13 -11q-128 -109 -302 -109q-160 0 -255 110l-84 -476h-90z" />
<glyph unicode="&#xb6;" horiz-adv-x="1135" d="M257 1169q38 216 218 369q151 128 338 153h80v1h491l-15 -90h-88l-349 -1977h-90l349 1977h-93l-349 -1977h-90l180 1021h-152q-216 0 -342 153t-88 370z" />
<glyph unicode="&#xb7;" horiz-adv-x="403" d="M266 800q5 32 31.5 54t58.5 22q31 0 49.5 -22t13.5 -54q-6 -32 -32.5 -54t-57.5 -22q-32 0 -50.5 22t-12.5 54z" />
<glyph unicode="&#xb8;" horiz-adv-x="582" d="M122 -230l48 37q10 -4 32 -6h9q20 0 44 6q29 8 46 31q8 13 10 23q2 9 -1 16q-20 28 -51 32q-12 1 -29 1q-29 0 -75 -4l74 94h70l-19 -35q108 0 126 -42q7 -20 4 -41q-5 -25 -24 -53q-37 -53 -86 -69q-41 -13 -84 -13h-16q-52 3 -78 23z" />
<glyph unicode="&#xb9;" horiz-adv-x="899" d="M549 620l153 865h-72l117 115h65l-173 -980h-90z" />
<glyph unicode="&#xba;" horiz-adv-x="914" d="M261 913l111 628h31l-106 -597h575l-5 -31h-606zM477 1329q20 112 113 191.5t206 79.5h29q113 0 178 -79.5t45 -191.5q-19 -112 -112 -191.5t-206 -79.5h-29q-113 0 -178 79.5t-46 191.5zM534 1329q-15 -89 37 -151q47 -57 155 -62q109 5 177 62q73 62 88 151 q16 88 -35 151q-48 57 -155 62q-110 -5 -177 -62q-74 -63 -90 -151z" />
<glyph unicode="&#xbb;" horiz-adv-x="980" d="M100 1l19 105l393 356l-268 356l18 104l355 -460zM451 1l19 105l393 356l-268 356l18 104l348 -460z" />
<glyph unicode="&#xbf;" horiz-adv-x="956" d="M222 290q-10 57 0 113q13 74 61 146q83 127 244 237q136 103 218 229q54 82 69 166q11 64 0 129l88 29q14 -80 0 -158q-18 -104 -85 -204q-109 -167 -292 -289q-111 -92 -167 -178q-36 -53 -45 -108q-8 -41 -1 -82q18 -98 103 -143q49 -25 103 -25q41 0 85 15 q103 34 164 126q35 52 44 105l87 -4l-1 -8q-12 -65 -55 -129q-84 -127 -224 -173q-62 -20 -118 -20q-74 0 -140 34q-115 61 -138 192zM809 1528q7 38 38 64t68 26t59 -26t15 -64q-6 -37 -37 -63t-68 -26t-59 26t-16 63z" />
<glyph unicode="&#xc0;" horiz-adv-x="1291" d="M50 0l885 1637l306 -1637h-95l-115 613h-554l-331 -613h-96zM526 703h488l-126 671zM689 1886h166l130 -187h-84z" />
<glyph unicode="&#xc1;" horiz-adv-x="1291" d="M50 0l885 1637l306 -1637h-95l-115 613h-554l-331 -613h-96zM526 703h488l-126 671zM906 1699l196 187h166l-278 -187h-84z" />
<glyph unicode="&#xc2;" horiz-adv-x="1291" d="M50 0l885 1637l306 -1637h-95l-115 613h-554l-331 -613h-96zM526 703h488l-126 671zM645 1608l270 234h104l197 -234h-104l-161 143l-201 -143h-105z" />
<glyph unicode="&#xc3;" horiz-adv-x="1291" d="M50 0l885 1637l306 -1637h-95l-115 613h-554l-331 -613h-96zM526 703h488l-126 671zM676 1660q44 129 127 152q22 6 43 6q57 0 107 -45q64 -60 113 -60h5q51 3 85 84h69q-44 -129 -126 -152q-22 -6 -43 -6q-57 0 -107 46q-64 59 -113 59h-5q-51 -3 -85 -84h-70z" />
<glyph unicode="&#xc4;" horiz-adv-x="1291" d="M50 0l885 1637l306 -1637h-95l-115 613h-554l-331 -613h-96zM526 703h488l-126 671zM714 1749q7 37 38 63t68 26t59 -26t15 -63q-6 -38 -37 -64t-68 -26t-59 26t-16 64zM1014 1749q7 37 38 63t68 26t59 -26t15 -63q-6 -38 -37 -64t-68 -26t-59 26t-16 64z" />
<glyph unicode="&#xc5;" horiz-adv-x="1291" d="M50 0l837 1549q-29 8 -49 32q-30 36 -21 86q9 51 51.5 87t93.5 36q50 0 79.5 -36t20.5 -87q-9 -50 -51 -86q-28 -24 -60 -32l290 -1549h-95l-115 613h-554l-331 -613h-96zM526 703h488l-126 671zM882 1667q-4 -23 10 -40q11 -14 28 -16h20q18 3 33 16q20 17 24 40 q4 24 -10 41t-37 17q-24 0 -44 -17t-24 -41z" />
<glyph unicode="&#xc6;" horiz-adv-x="1758" d="M125 0l978 1600h812l-16 -90h-710l-117 -665h710l-16 -90h-710l-117 -665h710l-16 -90h-800l108 613h-339l-381 -613h-96zM651 703h306l126 712z" />
<glyph unicode="&#xc7;" horiz-adv-x="1595" d="M266 800q60 339 341.5 579t621.5 240q317 0 514 -213l-79 -62q-174 183 -451 183q-301 0 -551.5 -213t-303.5 -514q-53 -302 122.5 -515t476.5 -213q277 0 515 183l57 -61q-252 -198 -543 -212l-14 -27q108 0 126 -42q7 -20 3 -41q-4 -25 -23 -53q-37 -53 -86 -69 q-41 -13 -84 -13h-16q-52 3 -78 23l47 37q10 -4 33 -6h9q20 0 43 6q30 8 47 31q8 13 10 23q1 9 -2 16q-20 28 -51 32q-12 1 -29 1q-29 0 -74 -4l67 85q-322 10 -510 240q-198 239 -138 579z" />
<glyph unicode="&#xc8;" horiz-adv-x="1075" d="M150 0l282 1600h800l-16 -90h-710l-117 -665h710l-16 -90h-710l-117 -665h710l-16 -90h-800zM658 1855h166l130 -187h-84z" />
<glyph unicode="&#xc9;" horiz-adv-x="1075" d="M150 0l282 1600h800l-16 -90h-710l-117 -665h710l-16 -90h-710l-117 -665h710l-16 -90h-800zM734 1668l196 187h166l-278 -187h-84z" />
<glyph unicode="&#xca;" horiz-adv-x="1075" d="M150 0l282 1600h800l-16 -90h-710l-117 -665h710l-16 -90h-710l-117 -665h710l-16 -90h-800zM558 1658l271 234h104l196 -234h-104l-160 143l-202 -143h-105z" />
<glyph unicode="&#xcb;" horiz-adv-x="1075" d="M150 0l282 1600h800l-16 -90h-710l-117 -665h710l-16 -90h-710l-117 -665h710l-16 -90h-800zM620 1759q7 37 38 63t68 26t59 -26t15 -63q-7 -38 -38 -64t-68 -26t-59 26t-15 64zM920 1759q7 37 38 63t68 26t59 -26t15 -63q-7 -38 -38 -64t-68 -26t-59 26t-15 64z" />
<glyph unicode="&#xcc;" d="M170 0l282 1600h90l-282 -1600h-90zM253 1855h166l130 -187h-84z" />
<glyph unicode="&#xcd;" d="M170 0l282 1600h90l-282 -1600h-90zM469 1668l196 187h166l-278 -187h-84z" />
<glyph unicode="&#xce;" d="M170 0l282 1600h90l-282 -1600h-90zM214 1608l270 234h104l197 -234h-104l-161 143l-201 -143h-105z" />
<glyph unicode="&#xcf;" d="M170 0l282 1600h90l-282 -1600h-90zM285 1759q7 37 38 63t68 26t59 -26t15 -63q-7 -38 -38 -64t-68 -26t-59 26t-15 64zM585 1759q7 37 38 63t68 26t59 -26t15 -63q-7 -38 -38 -64t-68 -26t-59 26t-15 64z" />
<glyph unicode="&#xd0;" horiz-adv-x="1284" d="M183 755l16 90h160l133 755h90v-2h7q395 0 573 -218q198 -241 138 -580q-60 -340 -342 -580q-256 -218 -651 -218h-7v-2h-90l133 755h-160zM316 93h7q356 0 581 192q251 213 304 515q53 301 -122 515q-158 191 -514 191h-7l-116 -661h370l-16 -90h-370z" />
<glyph unicode="&#xd1;" horiz-adv-x="1311" d="M150 0l282 1600h99l571 -1423l251 1423h90l-282 -1600h-90l-578 1437l-253 -1437h-90zM686 1660q44 129 127 152q22 6 43 6q57 0 107 -45q64 -60 113 -60h5q51 3 85 84h69q-44 -129 -126 -152q-22 -6 -43 -6q-57 0 -107 46q-64 59 -113 59h-5q-51 -3 -85 -84h-70z" />
<glyph unicode="&#xd2;" horiz-adv-x="1892" d="M266 802q60 340 343 580.5t623 240.5t538 -240.5t138 -580.5t-343 -580.5t-623 -240.5t-538 240.5t-138 580.5zM358 802q-53 -302 122.5 -516t477.5 -214t553.5 214t304.5 516t-123 515.5t-478 213.5t-553 -213.5t-304 -515.5zM1054 1855h166l130 -187h-84z" />
<glyph unicode="&#xd3;" horiz-adv-x="1892" d="M266 802q60 340 343 580.5t623 240.5t538 -240.5t138 -580.5t-343 -580.5t-623 -240.5t-538 240.5t-138 580.5zM358 802q-53 -302 122.5 -516t477.5 -214t553.5 214t304.5 516t-123 515.5t-478 213.5t-553 -213.5t-304 -515.5zM1130 1668l196 187h166l-278 -187h-84z" />
<glyph unicode="&#xd4;" horiz-adv-x="1892" d="M266 802q60 340 343 580.5t623 240.5t538 -240.5t138 -580.5t-343 -580.5t-623 -240.5t-538 240.5t-138 580.5zM358 802q-53 -302 122.5 -516t477.5 -214t553.5 214t304.5 516t-123 515.5t-478 213.5t-553 -213.5t-304 -515.5zM954 1658l270 234h104l197 -234h-104 l-161 143l-201 -143h-105z" />
<glyph unicode="&#xd5;" horiz-adv-x="1892" d="M266 802q60 340 343 580.5t623 240.5t538 -240.5t138 -580.5t-343 -580.5t-623 -240.5t-538 240.5t-138 580.5zM358 802q-53 -302 122.5 -516t477.5 -214t553.5 214t304.5 516t-123 515.5t-478 213.5t-553 -213.5t-304 -515.5zM980 1680q45 129 127 152q22 6 43 6 q57 0 107 -45q64 -60 113 -60h5q51 3 85 84h69q-44 -129 -126 -152q-22 -6 -43 -6q-57 0 -107 46q-64 59 -113 59h-5q-51 -3 -85 -84h-70z" />
<glyph unicode="&#xd6;" horiz-adv-x="1892" d="M266 802q60 340 343 580.5t623 240.5t538 -240.5t138 -580.5t-343 -580.5t-623 -240.5t-538 240.5t-138 580.5zM358 802q-53 -302 122.5 -516t477.5 -214t553.5 214t304.5 516t-123 515.5t-478 213.5t-553 -213.5t-304 -515.5zM1016 1759q6 37 37 63t68 26t59 -26t16 -63 q-7 -38 -38 -64t-68 -26t-59 26t-15 64zM1316 1759q6 37 37 63t68 26t59 -26t16 -63q-7 -38 -38 -64t-68 -26t-59 26t-15 64z" />
<glyph unicode="&#xd7;" horiz-adv-x="1050" d="M210 341l251 251l-251 251l64 64l251 -251l251 251l63 -64l-251 -251l251 -251l-63 -64l-251 251l-251 -251z" />
<glyph unicode="&#xd8;" horiz-adv-x="1892" d="M266 802q60 340 343 580.5t623 240.5q165 0 296 -57l118 184l75 -38l-118 -184q93 -56 167 -145q198 -241 138 -581t-343 -580.5t-623 -240.5q-165 0 -296 57l-118 -184l-76 38l119 184q-93 56 -166 146q-199 240 -139 580zM358 802q-53 -302 123 -516q63 -77 144 -127 l849 1324q-115 48 -259 48q-302 0 -553 -213.5t-304 -515.5zM699 121q115 -49 259 -49q302 0 553.5 214t304.5 516t-122 516q-64 77 -145 126z" />
<glyph unicode="&#xd9;" horiz-adv-x="1345" d="M239 508l193 1092h91l-193 -1092q-31 -178 73 -304.5t283 -126.5t327.5 126.5t179.5 304.5l193 1092h91l-203 -1150q-57 -183 -208 -311q-180 -153 -396 -153q-217 0 -343 153t-88 369zM780 1855h166l130 -187h-84z" />
<glyph unicode="&#xda;" horiz-adv-x="1345" d="M239 508l193 1092h91l-193 -1092q-31 -178 73 -304.5t283 -126.5t327.5 126.5t179.5 304.5l193 1092h91l-203 -1150q-57 -183 -208 -311q-180 -153 -396 -153q-217 0 -343 153t-88 369zM857 1668l196 187h166l-278 -187h-84z" />
<glyph unicode="&#xdb;" horiz-adv-x="1345" d="M239 508l193 1092h91l-193 -1092q-31 -178 73 -304.5t283 -126.5t327.5 126.5t179.5 304.5l193 1092h91l-203 -1150q-57 -183 -208 -311q-180 -153 -396 -153q-217 0 -343 153t-88 369zM671 1608l270 234h104l197 -234h-104l-161 143l-201 -143h-105z" />
<glyph unicode="&#xdc;" horiz-adv-x="1345" d="M239 508l193 1092h91l-193 -1092q-31 -178 73 -304.5t283 -126.5t327.5 126.5t179.5 304.5l193 1092h91l-203 -1150q-57 -183 -208 -311q-180 -153 -396 -153q-217 0 -343 153t-88 369zM741 1749q6 37 37.5 63t68.5 26t58.5 -26t15.5 -63q-7 -38 -38 -64t-68 -26t-59 26 t-15 64zM1041 1749q6 37 37.5 63t68.5 26t58.5 -26t15.5 -63q-7 -38 -38 -64t-68 -26t-59 26t-15 64z" />
<glyph unicode="&#xdd;" horiz-adv-x="1291" d="M332 1600h103l342 -853l643 853h103l-719 -953l-114 -647h-90l114 647zM830 1668l196 187h166l-278 -187h-84z" />
<glyph unicode="&#xde;" horiz-adv-x="1124" d="M150 0l282 1600h90l-49 -277h330q179 -25 284 -153q126 -153 88 -369q-38 -217 -218 -370t-396 -153h-272l-49 -278h-90zM305 369h272q178 0 327 126.5t180 305.5q32 179 -72.5 305t-282.5 126h-272z" />
<glyph unicode="&#xdf;" horiz-adv-x="1084" d="M140 0l226 1281q38 162 127.5 242t221.5 85h16q121 0 193 -70q78 -75 59 -227l-3 -17q-25 -140 -168 -222q333 -143 279 -521q-40 -227 -229 -393q-176 -154 -384 -157v-1h-167l16 90h167v-1q169 11 312 137q157 137 190 325t-76.5 321t-331.5 133l17 96 q140 7 206.5 59.5t82.5 141.5q15 88 -30 152q-42 60 -140 60h-11q-107 -4 -169.5 -65.5t-90.5 -182.5l-223 -1266h-90z" />
<glyph unicode="&#xe0;" horiz-adv-x="1360" d="M217 521q40 228 229.5 389t416.5 161q228 0 361 -161q25 -32 45 -67l24 139h90l-173 -982h-90l35 200q-32 -35 -68 -67q-190 -161 -418 -161q-227 0 -359.5 161t-92.5 388zM312 521q-33 -188 76.5 -320.5t297.5 -132.5t345 133q117 100 165 231l32 178q-2 132 -84 232 q-110 133 -298 133t-344.5 -133t-189.5 -321zM675 1287h166l130 -187h-84z" />
<glyph unicode="&#xe1;" horiz-adv-x="1360" d="M217 521q40 228 229.5 389t416.5 161q228 0 361 -161q25 -32 45 -67l24 139h90l-173 -982h-90l35 200q-32 -35 -68 -67q-190 -161 -418 -161q-227 0 -359.5 161t-92.5 388zM312 521q-33 -188 76.5 -320.5t297.5 -132.5t345 133q117 100 165 231l32 178q-2 132 -84 232 q-110 133 -298 133t-344.5 -133t-189.5 -321zM752 1100l196 187h166l-278 -187h-84z" />
<glyph unicode="&#xe2;" horiz-adv-x="1360" d="M217 521q40 228 229.5 389t416.5 161q228 0 361 -161q25 -32 45 -67l24 139h90l-173 -982h-90l35 200q-32 -35 -68 -67q-190 -161 -418 -161q-227 0 -359.5 161t-92.5 388zM312 521q-33 -188 76.5 -320.5t297.5 -132.5t345 133q117 100 165 231l32 178q-2 132 -84 232 q-110 133 -298 133t-344.5 -133t-189.5 -321zM575 1090l271 234h104l196 -234h-104l-160 143l-202 -143h-105z" />
<glyph unicode="&#xe3;" horiz-adv-x="1360" d="M217 521q40 228 229.5 389t416.5 161q228 0 361 -161q25 -32 45 -67l24 139h90l-173 -982h-90l35 200q-32 -35 -68 -67q-190 -161 -418 -161q-227 0 -359.5 161t-92.5 388zM312 521q-33 -188 76.5 -320.5t297.5 -132.5t345 133q117 100 165 231l32 178q-2 132 -84 232 q-110 133 -298 133t-344.5 -133t-189.5 -321zM607 1142q44 129 126 152q22 6 43 6q57 0 107 -45q65 -60 114 -60h5q50 3 85 84h69q-44 -129 -126 -152q-22 -6 -43 -6q-57 0 -107 46q-65 59 -114 59h-5q-50 -3 -84 -84h-70z" />
<glyph unicode="&#xe4;" horiz-adv-x="1360" d="M217 521q40 228 229.5 389t416.5 161q228 0 361 -161q25 -32 45 -67l24 139h90l-173 -982h-90l35 200q-32 -35 -68 -67q-190 -161 -418 -161q-227 0 -359.5 161t-92.5 388zM312 521q-33 -188 76.5 -320.5t297.5 -132.5t345 133q117 100 165 231l32 178q-2 132 -84 232 q-110 133 -298 133t-344.5 -133t-189.5 -321zM647 1241q7 37 38 63t68 26t59 -26t15 -63q-7 -38 -38 -64t-68 -26t-59 26t-15 64zM947 1241q7 37 38 63t68 26t59 -26t15 -63q-7 -38 -38 -64t-68 -26t-59 26t-15 64z" />
<glyph unicode="&#xe5;" horiz-adv-x="1360" d="M217 521q40 228 230 389q164 140 357 158q-17 9 -30 25q-30 36 -21 86q9 51 51.5 87t93.5 36q50 0 79.5 -36t20.5 -87q-9 -50 -51 -86q-18 -15 -37 -24q195 -15 314 -159q25 -32 45 -67l24 139h90l-173 -982h-90l35 200q-32 -35 -68 -67q-190 -161 -418 -161 q-227 0 -359.5 161t-92.5 388zM312 521q-33 -188 76.5 -320.5t297.5 -132.5t345 133q117 100 165 231l32 178q-2 132 -84 232q-110 133 -298 133t-344.5 -133t-189.5 -321zM818 1179q-4 -23 10 -40t38 -17q23 0 43 17t24 40q4 24 -10 41t-37 17q-24 0 -44 -17t-24 -41z" />
<glyph unicode="&#xe6;" horiz-adv-x="2171" d="M182 521q40 228 229.5 389t416.5 161q228 0 361 -161q25 -32 45 -67l24 139h90l-9 -54q180 143 394 143q228 0 361 -161q116 -143 88 -338l-906 1l-56 -317q16 -29 39 -55q109 -133 297 -133t345 133q27 23 51 48l90 -34q-22 -28 -85 -82q-190 -161 -418 -161 q-214 0 -344 143l-20 -115h-90l35 200q-32 -35 -68 -67q-190 -161 -418 -161q-227 0 -359.5 161t-92.5 388zM277 521q-33 -188 76.5 -320.5t297.5 -132.5t345 133q56 48 96 102q44 60 69 129l32 178q-1 69 -25 129q-20 55 -59 103q-110 133 -298 133t-344.5 -133 t-189.5 -321zM1292 663h798q-14 103 -76 179q-110 133 -298 133t-344 -133q-32 -27 -58 -55z" />
<glyph unicode="&#xe7;" horiz-adv-x="1177" d="M182 522q40 227 229.5 388t416.5 161q228 0 361 -161q27 -33 47 -68l-102 -35q-11 18 -25 36q-110 132 -298 132q-187 0 -343.5 -132.5t-189.5 -320.5t76.5 -321t296.5 -133q188 0 345 133q20 17 38 35l89 -34q-33 -36 -71 -69q-171 -145 -372 -159l-9 -16q109 0 125 -42 q9 -20 5 -42q-4 -25 -24 -52q-38 -53 -86 -69q-42 -13 -84 -13h-16q-51 3 -79 23l49 37q9 -4 33 -6h9q20 0 43 6q29 8 45 31q10 13 12 24q1 8 -2 15q-21 28 -52 32q-12 1 -28 1q-29 0 -75 -4l57 74q-205 10 -328 160q-133 161 -93 389z" />
<glyph unicode="&#xe8;" horiz-adv-x="1266" d="M182 522q40 227 229.5 388t416.5 161q195 0 320 -117q21 -20 41 -44q7 -9 13 -18l-80 -68l-752 -640q106 -116 281 -116q188 0 345 133q20 17 38 35l89 -34q-33 -36 -71 -69q-190 -161 -418 -161q-227 0 -359.5 161t-92.5 389zM278 522q-27 -155 42 -272l747 635 q-101 90 -256 90q-187 0 -343.5 -132.5t-189.5 -320.5zM641 1287h166l130 -187h-84z" />
<glyph unicode="&#xe9;" horiz-adv-x="1266" d="M182 522q40 227 229.5 388t416.5 161q195 0 320 -117q21 -20 41 -44q7 -9 13 -18l-80 -68l-752 -640q106 -116 281 -116q188 0 345 133q20 17 38 35l89 -34q-33 -36 -71 -69q-190 -161 -418 -161q-227 0 -359.5 161t-92.5 389zM278 522q-27 -155 42 -272l747 635 q-101 90 -256 90q-187 0 -343.5 -132.5t-189.5 -320.5zM717 1100l196 187h166l-278 -187h-84z" />
<glyph unicode="&#xea;" horiz-adv-x="1266" d="M182 522q40 227 229.5 388t416.5 161q195 0 320 -117q21 -20 41 -44q7 -9 13 -18l-80 -68l-752 -640q106 -116 281 -116q188 0 345 133q20 17 38 35l89 -34q-33 -36 -71 -69q-190 -161 -418 -161q-227 0 -359.5 161t-92.5 389zM278 522q-27 -155 42 -272l747 635 q-101 90 -256 90q-187 0 -343.5 -132.5t-189.5 -320.5zM541 1090l271 234h104l196 -234h-104l-160 143l-202 -143h-105z" />
<glyph unicode="&#xeb;" horiz-adv-x="1266" d="M182 522q40 227 229.5 388t416.5 161q195 0 320 -117q21 -20 41 -44q7 -9 13 -18l-80 -68l-752 -640q106 -116 281 -116q188 0 345 133q20 17 38 35l89 -34q-33 -36 -71 -69q-190 -161 -418 -161q-227 0 -359.5 161t-92.5 389zM278 522q-27 -155 42 -272l747 635 q-101 90 -256 90q-187 0 -343.5 -132.5t-189.5 -320.5zM612 1241q7 37 38 63t68 26t59 -26t15 -63q-7 -38 -38 -64t-68 -26t-59 26t-15 64zM912 1241q7 37 38 63t68 26t59 -26t15 -63q-7 -38 -38 -64t-68 -26t-59 26t-15 64z" />
<glyph unicode="&#xec;" d="M153 1287h166l130 -187h-84zM170 0l173 982h90l-173 -982h-90z" />
<glyph unicode="&#xed;" d="M170 0l173 982h90l-173 -982h-90zM369 1100l196 187h166l-278 -187h-84z" />
<glyph unicode="&#xee;" d="M122 1090l270 234h104l197 -234h-104l-161 143l-201 -143h-105zM170 0l173 982h90l-173 -982h-90z" />
<glyph unicode="&#xef;" d="M170 0l173 982h90l-173 -982h-90zM194 1241q6 37 37.5 63t68.5 26t58.5 -26t15.5 -63q-7 -38 -38 -64t-68 -26t-59 26t-15 64zM494 1241q6 37 37.5 63t68.5 26t58.5 -26t15.5 -63q-7 -38 -38 -64t-68 -26t-59 26t-15 64z" />
<glyph unicode="&#xf0;" horiz-adv-x="1278" d="M182 521q40 228 229.5 389t416.5 161q33 0 64 -3l-43 60h-168l16 90h87l-84 115h128l95 -115h164l-16 -90h-73l130 -157q33 -27 61 -61q131 -161 91 -389q-40 -227 -229 -388t-417 -161q-227 0 -359.5 161t-92.5 388zM277 521q-33 -188 76.5 -320.5t297.5 -132.5 t344.5 132.5t189.5 320.5t-76.5 321t-297.5 133t-344.5 -133t-189.5 -321z" />
<glyph unicode="&#xf1;" horiz-adv-x="1071" d="M150 0l173 982h90l-11 -63q145 122 308 122q174 0 263.5 -109t63.5 -275l-116 -657h-90l114 649q22 125 -52.5 213.5t-198.5 88.5t-230 -87q-57 -49 -89 -101l-135 -763h-90zM474 1142q45 129 127 152q22 6 43 6q57 0 107 -45q65 -60 114 -60h5q50 3 85 84h69 q-44 -129 -126 -152q-22 -6 -43 -6q-57 0 -107 46q-65 59 -114 59h-5q-50 -3 -85 -84h-70z" />
<glyph unicode="&#xf2;" horiz-adv-x="1278" d="M182 521q40 228 229.5 389t416.5 161q228 0 360 -161t92 -389q-40 -227 -229 -388t-417 -161q-227 0 -359.5 161t-92.5 388zM277 521q-33 -188 76.5 -320.5t297.5 -132.5t344.5 132.5t189.5 320.5t-76.5 321t-297.5 133t-344.5 -133t-189.5 -321zM647 1287h166l130 -187 h-84z" />
<glyph unicode="&#xf3;" horiz-adv-x="1278" d="M182 521q40 228 229.5 389t416.5 161q228 0 360 -161t92 -389q-40 -227 -229 -388t-417 -161q-227 0 -359.5 161t-92.5 388zM277 521q-33 -188 76.5 -320.5t297.5 -132.5t344.5 132.5t189.5 320.5t-76.5 321t-297.5 133t-344.5 -133t-189.5 -321zM723 1100l196 187h166 l-278 -187h-84z" />
<glyph unicode="&#xf4;" horiz-adv-x="1278" d="M182 521q40 228 229.5 389t416.5 161q228 0 360 -161t92 -389q-40 -227 -229 -388t-417 -161q-227 0 -359.5 161t-92.5 388zM277 521q-33 -188 76.5 -320.5t297.5 -132.5t344.5 132.5t189.5 320.5t-76.5 321t-297.5 133t-344.5 -133t-189.5 -321zM547 1090l271 234h104 l196 -234h-104l-160 143l-202 -143h-105z" />
<glyph unicode="&#xf5;" horiz-adv-x="1278" d="M182 521q40 228 229.5 389t416.5 161q228 0 360 -161t92 -389q-40 -227 -229 -388t-417 -161q-227 0 -359.5 161t-92.5 388zM277 521q-33 -188 76.5 -320.5t297.5 -132.5t344.5 132.5t189.5 320.5t-76.5 321t-297.5 133t-344.5 -133t-189.5 -321zM579 1142 q44 129 126 152q22 6 43 6q57 0 107 -45q65 -60 114 -60h5q50 3 85 84h69q-44 -129 -126 -152q-22 -6 -43 -6q-57 0 -107 46q-65 59 -114 59h-5q-50 -3 -84 -84h-70z" />
<glyph unicode="&#xf6;" horiz-adv-x="1278" d="M182 521q40 228 229.5 389t416.5 161q228 0 360 -161t92 -389q-40 -227 -229 -388t-417 -161q-227 0 -359.5 161t-92.5 388zM277 521q-33 -188 76.5 -320.5t297.5 -132.5t344.5 132.5t189.5 320.5t-76.5 321t-297.5 133t-344.5 -133t-189.5 -321zM618 1241q7 37 38 63 t68 26t59 -26t15 -63q-7 -38 -38 -64t-68 -26t-59 26t-15 64zM918 1241q7 37 38 63t68 26t59 -26t15 -63q-7 -38 -38 -64t-68 -26t-59 26t-15 64z" />
<glyph unicode="&#xf7;" horiz-adv-x="1050" d="M125 569v90h800v-90h-800zM435 414q0 37 26.5 63t63.5 26t63.5 -26t26.5 -63q0 -38 -26.5 -64t-63.5 -26t-63.5 26t-26.5 64zM435 814q0 37 26.5 63t63.5 26t63.5 -26t26.5 -63q0 -38 -26.5 -64t-63.5 -26t-63.5 26t-26.5 64z" />
<glyph unicode="&#xf8;" horiz-adv-x="1278" d="M175 -150l164 220q-35 28 -64 64q-133 161 -93 388q40 228 229.5 389t416.5 161q129 0 228 -52l159 212l72 -41l-163 -216q35 -28 65 -64q131 -161 91 -389q-40 -227 -229 -388t-417 -161q-129 0 -227 52l-160 -213zM277 522q-33 -188 77 -320q22 -28 48 -49l590 784 q-79 39 -181 39q-188 0 -344.5 -133t-189.5 -321zM470 108q79 -39 181 -39q188 0 344.5 132.5t189.5 320.5t-76 321q-23 27 -48 48z" />
<glyph unicode="&#xf9;" horiz-adv-x="1099" d="M215 370l109 614h90l-107 -606q-22 -125 53 -213q74 -89 207 -89q124 0 230.5 88.5t128.5 213.5l107 606h90l-109 -614q-32 -166 -160 -275t-301 -109q-184 0 -274 109t-64 275zM557 1287h166l130 -187h-84z" />
<glyph unicode="&#xfa;" horiz-adv-x="1099" d="M215 370l109 614h90l-107 -606q-22 -125 53 -213q74 -89 207 -89q124 0 230.5 88.5t128.5 213.5l107 606h90l-109 -614q-32 -166 -160 -275t-301 -109q-184 0 -274 109t-64 275zM634 1100l196 187h166l-278 -187h-84z" />
<glyph unicode="&#xfb;" horiz-adv-x="1099" d="M215 370l109 614h90l-107 -606q-22 -125 53 -213q74 -89 207 -89q124 0 230.5 88.5t128.5 213.5l107 606h90l-109 -614q-32 -166 -160 -275t-301 -109q-184 0 -274 109t-64 275zM457 1090l270 234h104l197 -234h-104l-161 143l-201 -143h-105z" />
<glyph unicode="&#xfc;" horiz-adv-x="1099" d="M215 370l109 614h90l-107 -606q-22 -125 53 -213q74 -89 207 -89q124 0 230.5 88.5t128.5 213.5l107 606h90l-109 -614q-32 -166 -160 -275t-301 -109q-184 0 -274 109t-64 275zM529 1241q6 37 37.5 63t68.5 26t58.5 -26t15.5 -63q-7 -38 -38 -64t-68 -26t-59 26t-15 64z M829 1241q6 37 37.5 63t68.5 26t58.5 -26t15.5 -63q-7 -38 -38 -64t-68 -26t-59 26t-15 64z" />
<glyph unicode="&#xfd;" horiz-adv-x="1005" d="M127 -375l363 556l-242 801h102l202 -704l450 704h101l-585 -895l1 1l-304 -463h-88zM587 1100l196 187h166l-278 -187h-84z" />
<glyph unicode="&#xfe;" horiz-adv-x="1334" d="M66 -358l310 1758h90l-97 -551q29 32 64 61q189 160 416 160q228 0 360 -160.5t92 -388.5q-40 -227 -229 -388t-417 -161q-227 0 -359 161q-24 29 -43 61l-97 -552h-90zM291 409q8 -118 83 -209q110 -133 298 -133t344.5 133t189.5 321t-76.5 321t-297.5 133t-344 -133 q-107 -91 -157 -209z" />
<glyph unicode="&#xff;" horiz-adv-x="1005" d="M127 -375l363 556l-242 801h102l202 -704l450 704h101l-585 -895l1 1l-304 -463h-88zM482 1241q6 37 37.5 63t68.5 26t58.5 -26t15.5 -63q-7 -38 -38 -64t-68 -26t-59 26t-15 64zM782 1241q6 37 37.5 63t68.5 26t58.5 -26t15.5 -63q-7 -38 -38 -64t-68 -26t-59 26t-15 64 z" />
<glyph unicode="&#x152;" horiz-adv-x="2295" d="M231 802q60 340 343 580.5t623 240.5q138 0 255 -23h1000l-16 -90h-840q77 -52 139 -127q186 -226 145 -538h439l-16 -90h-439q-71 -310 -333 -533q-93 -79 -192 -132h846l-15 -90h-1000q-125 -19 -263 -19q-340 0 -538 240.5t-138 580.5zM323 802q-53 -302 122.5 -516 t477.5 -214q139 0 267 45q49 18 98 42q97 49 189 127q231 197 295 469q5 23 9 47q4 22 7 43q34 274 -129 473q-64 77 -145 126q-40 24 -82 42q-113 45 -252 45q-302 0 -553 -213.5t-304 -515.5z" />
<glyph unicode="&#x153;" horiz-adv-x="2127" d="M182 521q40 228 229.5 389t416.5 161q228 0 361 -161q18 -23 33 -47q24 24 51 47q189 161 416 161q228 0 361 -161q116 -143 88 -338l-851 1q-2 -26 -7 -52q-25 -142 -108 -258q18 -32 43 -62q109 -133 297 -133t345 133q27 23 51 48l90 -34q-22 -28 -85 -82 q-190 -161 -418 -161q-227 0 -359 161q-19 23 -34 47q-24 -24 -50 -47q-190 -161 -418 -161q-227 0 -359.5 161t-92.5 388zM277 521q-33 -188 76.5 -320.5t297.5 -132.5t344.5 132.5t189.5 320.5t-76.5 321t-297.5 133t-344.5 -133t-189.5 -321zM1264 779q19 -55 24 -116 h758q-14 103 -76 179q-110 133 -298 133t-344 -133q-36 -30 -64 -63z" />
<glyph unicode="&#x178;" horiz-adv-x="1291" d="M332 1600h103l342 -853l643 853h103l-719 -953l-114 -647h-90l114 647zM716 1759q7 37 38 63t68 26t59 -26t15 -63q-7 -38 -38 -64t-68 -26t-59 26t-15 64zM1016 1759q7 37 38 63t68 26t59 -26t15 -63q-7 -38 -38 -64t-68 -26t-59 26t-15 64z" />
<glyph unicode="&#x2c6;" horiz-adv-x="811" d="M296 990l270 234h104l197 -234h-104l-161 143l-201 -143h-105z" />
<glyph unicode="&#x2dc;" horiz-adv-x="825" d="M334 1042q45 129 127 152q22 6 43 6q57 0 107 -45q64 -60 113 -60h5q51 3 85 84h69q-44 -129 -126 -152q-22 -6 -43 -6q-57 0 -107 46q-64 59 -113 59h-5q-51 -3 -85 -84h-70z" />
<glyph unicode="&#x2000;" horiz-adv-x="946" />
<glyph unicode="&#x2001;" horiz-adv-x="1892" />
<glyph unicode="&#x2002;" horiz-adv-x="946" />
<glyph unicode="&#x2003;" horiz-adv-x="1892" />
<glyph unicode="&#x2004;" horiz-adv-x="630" />
<glyph unicode="&#x2005;" horiz-adv-x="473" />
<glyph unicode="&#x2006;" horiz-adv-x="315" />
<glyph unicode="&#x2007;" horiz-adv-x="315" />
<glyph unicode="&#x2008;" horiz-adv-x="236" />
<glyph unicode="&#x2009;" horiz-adv-x="378" />
<glyph unicode="&#x200a;" horiz-adv-x="105" />
<glyph unicode="&#x2010;" horiz-adv-x="840" d="M221 547l16 90h590l-16 -90h-590z" />
<glyph unicode="&#x2011;" horiz-adv-x="840" d="M221 547l16 90h590l-16 -90h-590z" />
<glyph unicode="&#x2012;" horiz-adv-x="840" d="M221 547l16 90h590l-16 -90h-590z" />
<glyph unicode="&#x2013;" horiz-adv-x="871" d="M146 547l16 90h771l-16 -90h-771z" />
<glyph unicode="&#x2014;" horiz-adv-x="1507" d="M146 547l16 90h1407l-16 -90h-1407z" />
<glyph unicode="&#x2018;" horiz-adv-x="280" d="M293 1374q3 21 13 39l133 198h65l-83 -150q22 -5 37 -23q21 -26 15 -64q-7 -37 -38 -63t-68 -26t-59 26t-15 63z" />
<glyph unicode="&#x2019;" horiz-adv-x="280" d="M287 1285l83 150q-22 5 -35 23q-23 26 -16 64q6 37 37 63t68 26t59 -26t16 -63q-4 -21 -14 -39l-133 -198h-65z" />
<glyph unicode="&#x201a;" horiz-adv-x="280" d="M31 -163l83 150q-22 5 -35 23q-23 26 -16 64q6 37 37 63t68 26t59 -26t16 -63q-4 -21 -14 -39l-133 -198h-65z" />
<glyph unicode="&#x201c;" horiz-adv-x="532" d="M293 1374q3 21 13 39l133 198h65l-83 -150q22 -5 37 -23q21 -26 15 -64q-7 -37 -38 -63t-68 -26t-59 26t-15 63zM545 1374q3 21 13 39l133 198h65l-83 -150q22 -5 37 -23q21 -26 15 -64q-7 -37 -38 -63t-68 -26t-59 26t-15 63z" />
<glyph unicode="&#x201d;" horiz-adv-x="532" d="M287 1285l83 150q-22 5 -35 23q-23 26 -16 64q6 37 37 63t68 26t59 -26t16 -63q-4 -21 -14 -39l-133 -198h-65zM539 1285l83 150q-22 5 -35 23q-23 26 -16 64q6 37 37 63t68 26t59 -26t16 -63q-4 -21 -14 -39l-133 -198h-65z" />
<glyph unicode="&#x201e;" horiz-adv-x="532" d="M31 -163l83 150q-22 5 -35 23q-23 26 -16 64q6 37 37 63t68 26t59 -26t16 -63q-4 -21 -14 -39l-133 -198h-65zM283 -163l83 150q-22 5 -35 23q-23 26 -16 64q6 37 37 63t68 26t59 -26t16 -63q-4 -21 -14 -39l-133 -198h-65z" />
<glyph unicode="&#x2022;" horiz-adv-x="758" d="M357 743q11 64 64 108t117 44q61 0 98.5 -44t26.5 -108q-11 -63 -64.5 -107t-114.5 -44q-63 0 -100.5 44t-26.5 107z" />
<glyph unicode="&#x2026;" horiz-adv-x="2148" d="M114 76q6 37 37 63t68 26t59 -26t16 -63q-7 -38 -38 -64t-68 -26t-59 26t-15 64zM797 76q6 37 37 63t68 26t59 -26t16 -63q-7 -38 -38 -64t-68 -26t-59 26t-15 64zM1480 76q6 37 37 63t68 26t59 -26t16 -63q-7 -38 -38 -64t-68 -26t-59 26t-15 64z" />
<glyph unicode="&#x202f;" horiz-adv-x="378" />
<glyph unicode="&#x2039;" horiz-adv-x="629" d="M181 462l510 460l-18 -104l-394 -356l268 -356l-18 -105z" />
<glyph unicode="&#x203a;" horiz-adv-x="629" d="M100 1l19 105l393 356l-268 356l18 104l348 -460z" />
<glyph unicode="&#x205f;" horiz-adv-x="473" />
<glyph unicode="&#x20ac;" horiz-adv-x="1450" d="M203 585l34 90h150l21 120h-126l34 90h108l29 166q40 227 229.5 388t416.5 161q228 0 360 -161l-79 -67q-110 132 -298 132t-344.5 -132.5t-189.5 -320.5l-29 -166h657l-34 -90h-639l-21 -120h615l-34 -90h-597l-11 -64q-33 -188 76.5 -320.5t297.5 -132.5t344 133 q97 82 147 185h98q-59 -142 -190 -253q-188 -161 -416 -161q-227 0 -359.5 161t-92.5 388l11 64h-168z" />
<glyph unicode="&#x2122;" horiz-adv-x="1251" d="M100 1556v52h453l267 -409l266 409h65l-9 -13v-643h-56v556l-266 -410l-267 410v-556h-56v604h-158v-604h-57v604h-182z" />
<glyph unicode="&#xe000;" horiz-adv-x="980" d="M0 0v980h980v-980h-980z" />
<glyph unicode="&#xfb01;" horiz-adv-x="953" d="M190 0l157 892h-100l16 90h100l47 266q26 111 119 191q95 76 202 76q56 0 114 -21l-42 -80q-38 18 -77 18q-71 0 -145 -57q-65 -55 -82 -133l-46 -260h503l-173 -982h-90l157 892h-413l-157 -892h-90zM867 1241q6 37 37.5 63t68.5 26t58.5 -26t15.5 -63q-7 -38 -38 -64 t-68 -26t-59 26t-15 64z" />
<glyph unicode="&#xfb02;" horiz-adv-x="913" d="M190 0l157 892h-100l16 90h100l47 266q26 111 119 191q95 76 252 76q146 0 239 -55l-257 -1460h-90l249 1410q-66 22 -146 22q-121 0 -195 -57q-65 -55 -82 -133l-46 -260h200l-16 -90h-200l-157 -892h-90z" />
<glyph unicode="&#xfb03;" horiz-adv-x="1476" d="M190 0l157 892h-100l16 90h100l47 266q26 111 119 191q95 76 202 76q56 0 114 -21l-42 -80q-38 18 -77 18q-71 0 -145 -57q-65 -55 -82 -133l-46 -260h433l47 266q26 111 119 191q95 76 202 76q56 0 114 -21l-42 -80q-38 18 -77 18q-71 0 -145 -57q-65 -55 -82 -133 l-46 -260h503l-173 -982h-90l157 892h-413l-157 -892h-90l157 892h-433l-157 -892h-90zM1390 1241q6 37 37.5 63t68.5 26t58.5 -26t15.5 -63q-7 -38 -38 -64t-68 -26t-59 26t-15 64z" />
<glyph unicode="&#xfb04;" horiz-adv-x="1436" d="M190 0l157 892h-100l16 90h100l47 266q26 111 119 191q95 76 202 76q56 0 114 -21l-42 -80q-38 18 -77 18q-71 0 -145 -57q-65 -55 -82 -133l-46 -260h433l47 266q26 111 119 191q95 76 252 76q146 0 239 -55l-257 -1460h-90l249 1410q-66 22 -146 22q-121 0 -195 -57 q-65 -55 -82 -133l-46 -260h200l-16 -90h-200l-157 -892h-90l157 892h-433l-157 -892h-90z" />
</font>
</defs>
</svg>
