<?xml version="1.0" standalone="no"?>
<!DOCTYPE svg PUBLIC "-//W3C//DTD SVG 1.1//EN" "http://www.w3.org/Graphics/SVG/1.1/DTD/svg11.dtd" >
<svg xmlns="http://www.w3.org/2000/svg">
<metadata></metadata>
<defs>
<font id="caviar_dreamsbold" horiz-adv-x="1376" >
<font-face units-per-em="2048" ascent="1638" descent="-410" />
<missing-glyph horiz-adv-x="708" />
<glyph horiz-adv-x="2048" />
<glyph horiz-adv-x="2048" />
<glyph unicode="&#xd;" horiz-adv-x="708" />
<glyph unicode=" "  horiz-adv-x="708" />
<glyph unicode="&#x09;" horiz-adv-x="708" />
<glyph unicode="&#xa0;" horiz-adv-x="708" />
<glyph unicode="!" horiz-adv-x="541" d="M125 133q0 60 43 102t102 42q60 0 102.5 -42t42.5 -102q0 -62 -42.5 -104t-102.5 -42q-59 0 -102 42t-43 104zM165 455v1145h207v-1145h-207z" />
<glyph unicode="&#x22;" horiz-adv-x="574" d="M25 920v677h207v-677h-207zM342 920v677h207v-677h-207z" />
<glyph unicode="#" horiz-adv-x="1705" d="M125 531l53 207h410l22 88h-411l53 207h410l102 410h211l-102 -410h84l102 410h211l-102 -410h411l-53 -207h-410l-22 -88h411l-53 -207h-410l-102 -411h-211l102 411h-84l-102 -411h-212l103 411h-411zM799 738h84l22 88h-84z" />
<glyph unicode="$" horiz-adv-x="958" d="M50 475l212 68q17 -146 69 -192q26 -23 56 -37v414q-115 43 -209 126q-124 109 -124 263t125 265q90 80 208 102v116h184v-116q119 -22 210 -103q99 -88 127 -255l-212 -68q-17 146 -69 192q-26 23 -56 37v-414q115 -43 209 -126q124 -109 124 -263t-124 -264 q-91 -81 -209 -103v-117h-184v117q-119 22 -210 103q-99 88 -127 255zM271 1117q0 -78 60 -132q23 -20 56 -39v341q-29 -13 -54 -35q-62 -55 -62 -135zM571 314q29 13 55 36q61 54 61 134q0 78 -60 132q-23 20 -56 39v-341z" />
<glyph unicode="%" horiz-adv-x="1263" d="M80 970q0 114 80.5 194.5t194.5 80.5t194.5 -80.5t80.5 -194.5t-80.5 -194.5t-194.5 -80.5t-194.5 80.5t-80.5 194.5zM88 97l917 1310l171 -117l-918 -1311zM285 970q0 -30 20.5 -50.5t49.5 -20.5t50 20.5t21 50.5q0 29 -21 49.5t-50 20.5t-49.5 -20.5t-20.5 -49.5z M633 417q0 114 80.5 194.5t194.5 80.5q115 0 195.5 -80.5t80.5 -194.5q0 -115 -80.5 -195.5t-195.5 -80.5q-114 0 -194.5 80.5t-80.5 195.5zM838 417q0 -30 20.5 -50.5t49.5 -20.5t50 20.5t21 50.5q0 29 -21 49.5t-50 20.5t-49.5 -20.5t-20.5 -49.5z" />
<glyph unicode="&#x26;" horiz-adv-x="1340" d="M75 483q0 205 143 358q86 84 158 93q-155 156 -155 311q0 153 109.5 263t264.5 110t265 -109q62 -60 104 -191l-188 -74q-34 92 -62 120q-49 48 -119 48q-69 0 -118 -48.5t-49 -118.5q0 -71 51.5 -126t95 -72t177.5 -18v-199l-122 -1q-177 -35 -263.5 -129.5 t-86.5 -216.5t86 -208t208 -86q121 0 260 142q-28 23 -99 97q-26 24 -41 34q-14 9 -23 9h-1q-10 -1 -14 -11q-2 -4 -2 -8q0 -7 4 -15l-170 -115q-21 31 -32 70q-8 31 -8 61q0 57 30 110q47 81 136 105q31 9 62 9q57 0 109 -30q44 -25 100.5 -93.5t105.5 -74.5q7 -1 13 -1 q38 0 54 35q4 9 4 19q0 32 -46 70l102 177q93 -54 122 -158q10 -36 10 -70q0 -67 -35 -127q-54 -95 -176 -131q-22 -73 -112 -163q-146 -147 -353 -147q-206 0 -352.5 146.5t-146.5 353.5z" />
<glyph unicode="'" horiz-adv-x="458" d="M125 920v677h207v-677h-207z" />
<glyph unicode="(" horiz-adv-x="788" d="M100 800q0 427 202 679q132 166 386 254v-209q-147 -68 -238 -182q-154 -194 -154 -542q0 -349 154 -542q91 -115 238 -186v-205q-254 88 -386 254q-202 252 -202 679z" />
<glyph unicode=")" horiz-adv-x="788" d="M100 72q147 71 238 186q154 193 154 542q0 348 -154 542q-91 114 -238 182v209q254 -88 386 -254q202 -252 202 -679t-202 -679q-132 -166 -386 -254v205z" />
<glyph unicode="*" horiz-adv-x="932" d="M98 1089l186 139l-186 140l119 170l145 -111v170h207v-169l144 110l119 -170l-186 -140l186 -139l-119 -170l-144 110v-169h-207v170l-145 -111z" />
<glyph unicode="+" horiz-adv-x="1112" d="M125 505v207h327v327h208v-327h327v-207h-327v-328h-208v328h-327z" />
<glyph unicode="," horiz-adv-x="537" d="M10 -202l128 480h300l-231 -480h-197z" />
<glyph unicode="-" horiz-adv-x="919" d="M125 505v207h668v-207h-668z" />
<glyph unicode="." horiz-adv-x="490" d="M100 133q0 60 43 102t102 42q60 0 102.5 -42t42.5 -102q0 -62 -42.5 -104t-102.5 -42q-59 0 -102 42t-43 104z" />
<glyph unicode="/" horiz-adv-x="855" d="M-50 0l724 1600h231l-725 -1600h-230z" />
<glyph unicode="0" horiz-adv-x="1289" d="M76 543v489q0 235 166.5 401.5t401.5 166.5q236 0 402.5 -166.5t166.5 -401.5v-489q0 -235 -166.5 -401.5t-402.5 -166.5q-235 0 -401.5 166.5t-166.5 401.5zM288 543q0 -148 104.5 -252t251.5 -104q148 0 252.5 104t104.5 252v489q0 147 -104.5 251t-252.5 104 q-147 0 -251.5 -104t-104.5 -251v-489z" />
<glyph unicode="1" horiz-adv-x="1427" d="M533 1330l210 270h150v-1600h-207v1330h-153z" />
<glyph unicode="2" horiz-adv-x="1308" d="M151 1146q32 208 149 326q147 148 354 148q209 0 355.5 -147t146.5 -356q0 -206 -142 -359q-90 -97 -209.5 -186.5t-265.5 -199.5q-128 -95 -143 -164h760v-208h-1003q56 383 219 504.5t278 207.5t205.5 185t90.5 220t-85.5 206t-206.5 85q-119 0 -205 -85 q-73 -73 -91 -252z" />
<glyph unicode="3" horiz-adv-x="1308" d="M151 455l207 75q18 -180 91 -253q86 -85 205 -85q121 0 206.5 85t85.5 206q0 122 -85.5 215t-261.5 126l-125 3v205q136 2 179 18.5t94 70.5t51 124q0 69 -48 116.5t-117 47.5q-68 0 -116 -47q-27 -28 -62 -122l-193 76q43 135 105 194q111 110 266 110q158 0 268 -111 t110 -264q0 -156 -185 -301q89 -6 187 -101q143 -154 143 -360q0 -208 -146.5 -355.5t-355.5 -147.5q-207 0 -354 148q-117 118 -149 327z" />
<glyph unicode="4" horiz-adv-x="1350" d="M173 432l681 1168h181v-961h141v-207h-141v-432h-207v432h-655zM533 639h295v494z" />
<glyph unicode="5" horiz-adv-x="1314" d="M117 260l146 162q111 -164 238 -202q58 -18 113 -18q88 0 172 44q137 73 182 222q18 57 18 113q0 87 -45 172q-74 138 -224 190q-65 23 -144 23q-107 0 -274 -53l-125 109l180 497v81h586v-207h-411l-79 -225q56 12 117 12q112 0 215 -36q231 -79 344 -292 q71 -132 71 -272q0 -87 -27 -174q-71 -232 -284 -347q-130 -69 -269 -69q-88 0 -178 28q-186 57 -322 242z" />
<glyph unicode="6" horiz-adv-x="1291" d="M86 588v3q0 283 153 498q154 216 416 511h272q-363 -376 -515 -613q89 96 295 96q207 0 344 -137q166 -167 166 -403q0 -235 -166 -401.5t-402 -166.5q-235 0 -402 166q-160 161 -161 447zM292 543q0 -148 104.5 -252t252.5 -104q147 0 251.5 104t104.5 252t-104.5 252 t-251.5 104q-148 0 -252.5 -104t-104.5 -252z" />
<glyph unicode="7" horiz-adv-x="1304" d="M153 0q12 409 166 624.5t367 454t229 314.5h-760v207h995q-7 -326 -255.5 -604.5t-384.5 -471.5t-146 -524h-211z" />
<glyph unicode="8" horiz-adv-x="1294" d="M107 483q0 256 281 461q-135 145 -135 301q0 153 109.5 264t267.5 111h33q158 0 268 -111t110 -264q0 -156 -146 -298q292 -208 292 -464q0 -208 -147 -355.5t-393 -147.5t-393 147.5t-147 355.5zM318 483q0 -121 85 -206t244 -85q158 0 243.5 85t85.5 206q0 122 -85 213 q-84 92 -244 125q-161 -33 -245 -125q-84 -91 -84 -213zM466 1245q0 -70 50.5 -124t91.5 -70q22 -8 39 -11q17 3 39 11q40 16 91 70t51 124q0 69 -48 116.5t-117 47.5q-4 0 -11 -1h-10q-7 1 -12 1q-68 0 -116 -47.5t-48 -116.5z" />
<glyph unicode="9" horiz-adv-x="1291" d="M87 1057q0 235 166 401.5t402 166.5q235 0 402 -166q160 -161 161 -447v-3q0 -283 -153 -498q-154 -216 -416 -511h-272q363 376 515 613q-89 -96 -295 -96q-207 0 -344 137q-166 167 -166 403zM299 1057q0 -148 104.5 -252t251.5 -104q148 0 252.5 104t104.5 252 t-104.5 252t-252.5 104q-147 0 -251.5 -104t-104.5 -252z" />
<glyph unicode=":" horiz-adv-x="541" d="M125 133q0 60 43 102t102 42q60 0 102.5 -42t42.5 -102q0 -62 -42.5 -104t-102.5 -42q-59 0 -102 42t-43 104zM125 702q0 60 43 102t102 42q60 0 102.5 -42t42.5 -102q0 -62 -42.5 -104t-102.5 -42q-59 0 -102 42t-43 104z" />
<glyph unicode=";" horiz-adv-x="635" d="M83 -202l128 480h300l-231 -480h-197zM141 702q0 60 42.5 102t102.5 42q59 0 102 -42t43 -102q0 -62 -43 -104t-102 -42q-60 0 -102.5 42t-42.5 104z" />
<glyph unicode="&#x3c;" horiz-adv-x="1504" d="M100 582l1303 474v-221l-697 -253l697 -254v-221z" />
<glyph unicode="=" horiz-adv-x="1112" d="M125 357v207h862v-207h-862zM125 652v208h862v-208h-862z" />
<glyph unicode="&#x3e;" horiz-adv-x="1504" d="M100 107v221l697 254l-697 253v221l1303 -474z" />
<glyph unicode="?" horiz-adv-x="1028" d="M127 1119v67q0 74 36 146q68 140 214 191q64 22 126 22q82 0 161 -38q140 -67 191 -212q21 -63 21 -125q0 -83 -38 -162q-63 -130 -204 -239q-96 -85 -146 -190q-30 -62 -31 -123h-206q1 108 52 212q80 167 238 286q76 75 110 144q17 37 17 73q0 27 -9 55q-24 66 -86 96 q-36 17 -72 17q-27 0 -56 -10q-66 -23 -96 -85q-9 -19 -13 -57zM228 133q0 60 42.5 102t102.5 42q59 0 102 -42t43 -102q0 -62 -43 -104t-102 -42q-60 0 -102.5 42t-42.5 104z" />
<glyph unicode="@" horiz-adv-x="1643" d="M125 568q0 287 205 491.5t492 204.5q289 0 492.5 -205t203.5 -416t-109 -342q-90 -107 -199 -107q-24 0 -49 6q-139 29 -150 94q-53 -82 -189 -82q-164 0 -280.5 97t-116.5 261q0 163 116.5 265t280.5 102q146 0 189 -74v52h199l-2 -498v-3q0 -52 16 -52q14 0 40 36 q57 81 57 248t-126.5 293t-372.5 126q-245 0 -370.5 -126t-125.5 -352t145.5 -371.5t350.5 -145.5q141 0 242 63l142 -149q-193 -113 -384 -113q-287 0 -492 204.5t-205 492.5zM629 569q0 -82 57 -139t138 -57q82 0 139 57q40 40 50 85v108q-10 45 -50 85q-58 58 -139 58 t-138 -58t-57 -139z" />
<glyph unicode="A" d="M50 0l582 1600h112l582 -1600h-220l-206 566h-424l-205 -566h-221zM552 773h273l-137 375z" />
<glyph unicode="B" horiz-adv-x="1126" d="M150 0v1600h324q139 0 238 -98.5t99 -237.5q0 -143 -144 -177q104 -15 236.5 -148t132.5 -368t-165 -406q-155 -161 -311 -163v-2h-410zM357 208h203v3q64 4 159 103q105 108 105 257q0 147 -104.5 251.5t-251.5 104.5h-111v-719zM357 1140h135q46 4 79 35q36 33 36 89 t-37.5 92.5t-95.5 36.5h-117v-253z" />
<glyph unicode="C" horiz-adv-x="1642" d="M125 800q0 338 239 578t578 240q317 0 601 -259l-155 -141q-214 190 -446 190q-251 0 -429.5 -178t-178.5 -430q0 -253 178.5 -431t429.5 -178q232 0 446 190l155 -139q-284 -259 -601 -259q-339 0 -578 239t-239 578z" />
<glyph unicode="D" horiz-adv-x="1250" d="M150 0v1600h152q390 -2 608 -221q239 -241 239 -579q0 -339 -239 -579q-218 -219 -608 -221h-152zM357 210q247 0 405 159q178 178 178 431q0 252 -178 431q-158 158 -405 158v-1179z" />
<glyph unicode="E" horiz-adv-x="1137" d="M150 0v1600h862v-207h-655v-489h655v-207h-655v-489h655v-208h-862z" />
<glyph unicode="F" horiz-adv-x="1045" d="M150 0v1600h770v-207h-563v-489h563v-207h-563v-697h-207z" />
<glyph unicode="G" horiz-adv-x="1668" d="M125 800q0 338 239 578t578 240q317 0 601 -259l-155 -141q-214 190 -446 190q-251 0 -429.5 -178t-178.5 -430q0 -253 178.5 -431t429.5 -178q216 0 358 114v483h207v-569q-247 -236 -565 -236q-339 0 -578 239t-239 578z" />
<glyph unicode="H" horiz-adv-x="1208" d="M150 0v1600h207v-731h494v731h207v-1600h-207v662h-494v-662h-207z" />
<glyph unicode="I" horiz-adv-x="548" d="M170 0v1600h207v-1600h-207z" />
<glyph unicode="J" horiz-adv-x="937" d="M125 344l164 64q28 -152 71 -187q32 -27 86 -27h4q57 1 94 37q30 31 30 121v1248h207v-1257q0 -166 -91 -258q-97 -98 -235 -98q-137 0 -233.5 97.5t-96.5 259.5z" />
<glyph unicode="K" horiz-adv-x="1206" d="M150 0v1600h207v-504l378 504h262l-491 -658l611 -942h-251l-495 772l-14 -17v-755h-207z" />
<glyph unicode="L" horiz-adv-x="1019" d="M150 0v1600h207v-1392h572v-208h-779z" />
<glyph unicode="M" horiz-adv-x="1812" d="M199 0v1600h189l519 -897l517 897h189v-1600h-207v1156l-499 -864l-501 864v-1156h-207z" />
<glyph unicode="N" horiz-adv-x="1357" d="M150 0v1600h189l660 -1142v1142h208v-1600h-181l-669 1156v-1156h-207z" />
<glyph unicode="O" horiz-adv-x="1889" d="M125 802q0 339 240 579t579 240t579 -240t240 -579t-240 -579t-579 -240t-579 240t-240 579zM334 802q0 -253 179 -432t431 -179q253 0 431.5 179t178.5 432t-178.5 431.5t-431.5 178.5t-431.5 -178.5t-178.5 -431.5z" />
<glyph unicode="P" horiz-adv-x="1145" d="M150 0v1600h454q193 -26 326 -159q159 -160 159 -384q0 -226 -159 -385.5t-384 -159.5h-189v-512h-207zM357 720h189q138 0 236.5 98.5t98.5 238.5q0 139 -98.5 237t-236.5 98h-189v-672z" />
<glyph unicode="Q" horiz-adv-x="1889" d="M125 802q0 339 240 579t579 240t579 -240t240 -579t-240 -579q-108 -108 -237 -168q23 -14 48 -32q70 -37 95 -45q11 -3 21 -3q17 0 34 10q26 15 34 44q3 9 7 74h209q-7 -98 -16 -130q-32 -111 -133 -167q-64 -37 -134 -37q-39 0 -78 11q-64 17 -171 86q-86 45 -119 55 q-19 5 -36 5q-30 0 -58 -16q-46 -26 -60 -78q-2 -5 -7 -66h-209q8 95 16 124q17 61 52 108q-236 45 -416 225q-240 240 -240 579zM334 802q0 -253 179 -432t431 -179q253 0 431.5 179t178.5 432t-178.5 431.5t-431.5 178.5t-431.5 -178.5t-178.5 -431.5z" />
<glyph unicode="R" horiz-adv-x="1171" d="M150 0v1600h454q193 -26 326 -159q159 -160 159 -384q0 -226 -159 -386q-110 -110 -168 -124l355 -547h-251l-320 512h-189v-512h-207zM357 720h189q138 0 236.5 98.5t98.5 238.5q0 139 -98.5 237t-236.5 98h-189v-672z" />
<glyph unicode="S" horiz-adv-x="1101" d="M50 453l201 73q19 -177 93 -251q86 -86 207 -86t207 86t86 208q0 121 -86 207q-82 82 -201 131q-170 57 -275.5 162.5t-105.5 261.5q0 153 109.5 263t265.5 110q154 0 264 -109q62 -60 104 -191l-188 -74q-34 92 -62 120q-49 48 -118 48q-70 0 -119 -48.5t-49 -118.5 t49 -119q55 -54 152 -99q188 -61 319 -192q147 -145 147 -352t-146.5 -353.5t-352.5 -146.5q-207 0 -353 147q-117 117 -148 323z" />
<glyph unicode="T" horiz-adv-x="1054" d="M50 1393v207h954v-207h-373v-1393h-208v1393h-373z" />
<glyph unicode="U" horiz-adv-x="1388" d="M150 531v1069h208v-1069q0 -138 98.5 -236.5t237.5 -98.5q140 0 238 98t98 237v1069h208v-1127q-27 -193 -159 -326q-160 -160 -385 -160t-384.5 159.5t-159.5 384.5z" />
<glyph unicode="V" d="M50 1600h220l417 -1147l418 1147h221l-583 -1600h-112z" />
<glyph unicode="W" horiz-adv-x="1686" d="M125 403v1197h207v-1189q0 -89 65 -152.5t154 -63.5q90 0 154 62q25 25 34 42v1301h207v-1301q10 -17 34 -42q65 -62 154 -62t154 63.5t65 152.5v1189h208v-1197q-4 -169 -125 -290q-125 -126 -302 -126q-176 0 -291 124q-116 -124 -292 -124q-177 0 -301 126 q-122 120 -125 290z" />
<glyph unicode="X" horiz-adv-x="1347" d="M50 0l503 873l-419 727h238l300 -521l302 521h238l-421 -727l505 -873h-238l-386 667l-384 -667h-238z" />
<glyph unicode="Y" horiz-adv-x="1414" d="M50 1600h238l418 -724l419 724h239l-554 -958v-642h-207v642z" />
<glyph unicode="Z" horiz-adv-x="1463" d="M150 0l804 1393h-758v207h1116l-805 -1392h760v-208h-1117z" />
<glyph unicode="[" horiz-adv-x="659" d="M125 -345v1941h409v-207h-202v-1527h202v-207h-409z" />
<glyph unicode="\" horiz-adv-x="853" d="M-50 1596h231l722 -1596h-230z" />
<glyph unicode="]" horiz-adv-x="659" d="M125 -138h202v1527h-202v207h409v-1941h-409v207z" />
<glyph unicode="^" horiz-adv-x="1078" d="M100 981l356 615h167l355 -615h-239l-199 345l-200 -345h-240z" />
<glyph unicode="_" horiz-adv-x="1094" d="M25 96h1044v-206h-1044v206z" />
<glyph unicode="`" horiz-adv-x="669" d="M100 1407h252l217 -279h-197z" />
<glyph unicode="a" horiz-adv-x="1401" d="M125 542q0 236 166.5 402.5t402.5 166.5q198 0 348 -154v72h208v-1030h-208v129q-150 -155 -348 -155q-236 0 -402.5 166.5t-166.5 402.5zM337 542q0 -147 104.5 -251.5t252.5 -104.5q147 0 252 104q78 79 96 176v152q-18 97 -96 176q-105 104 -252 104 q-148 0 -252.5 -104t-104.5 -252z" />
<glyph unicode="b" horiz-adv-x="1400" d="M150 0v1600h207v-642q150 155 349 155q236 0 402.5 -167t166.5 -403t-166.5 -403t-402.5 -167q-199 0 -349 155v-128h-207zM357 462q19 -94 96 -171q105 -104 253 -104t252.5 104t104.5 252q0 147 -104.5 252t-252.5 105t-253 -105q-77 -77 -96 -172v-161z" />
<glyph unicode="c" horiz-adv-x="1262" d="M90 543q0 236 167 403t402 167q236 0 403 -167q34 -34 110 -137l-207 -76q-40 49 -54 63q-104 104 -252 104q-147 0 -251.5 -104.5t-104.5 -252.5q0 -147 104.5 -251.5t251.5 -104.5q148 0 253 104q13 14 53 62l207 -74q-76 -105 -110 -139q-167 -167 -403 -167 q-235 0 -402 167t-167 403z" />
<glyph unicode="d" horiz-adv-x="1401" d="M125 543q0 236 166.5 403t402.5 167q199 0 349 -155v642h208v-1600h-208v128q-150 -155 -349 -155q-236 0 -402.5 167t-166.5 403zM337 543q0 -148 104.5 -252t252.5 -104t252 104q79 79 97 175v153q-18 97 -97 176q-104 105 -252 105t-252.5 -105t-104.5 -252z" />
<glyph unicode="e" horiz-adv-x="1262" d="M90 543q0 236 167 403t402 167q202 0 354 -122q25 -21 49 -45q10 -10 57 -63l-104 -105l-545 -545q52 -46 189 -46q148 0 253 104q13 14 53 62l207 -74q-76 -105 -110 -139q-167 -167 -403 -167q-235 0 -402 167t-167 403zM303 543q0 -121 27 -157l486 487 q-35 27 -157 27q-147 0 -251.5 -104.5t-104.5 -252.5z" />
<glyph unicode="f" horiz-adv-x="626" d="M90 823v207h92v185q7 128 98 220q94 88 218 88q62 0 188 -43l-69 -196q-88 37 -111 37q-42 0 -81 -35q-33 -33 -35 -79v-177h185v-207h-185v-824h-208v824h-92z" />
<glyph unicode="g" horiz-adv-x="1405" d="M125 543q0 236 166.5 402.5t402.5 166.5q199 0 349 -154v71h208v-765q0 -300 -163 -463q-167 -147 -403 -147t-403 147q-34 34 -109 138l206 74q40 -48 54 -62q105 -104 252 -104q247 0 342 324q-97 -188 -333 -188t-402.5 162t-166.5 398zM337 543q0 -148 104.5 -252.5 t252.5 -104.5t252 104q77 77 96 170v163q-19 95 -96 172q-104 105 -252 105t-252.5 -105t-104.5 -252z" />
<glyph unicode="h" horiz-adv-x="1125" d="M150 0v1600h208v-682q87 167 252 167t263.5 -118.5t101.5 -297.5v-669h-207v661q0 89 -50.5 152.5t-159.5 63.5q-129 0 -200 -138v-739h-208z" />
<glyph unicode="i" horiz-adv-x="541" d="M125 1307q0 61 43 103t102 42q60 0 103 -42t43 -103t-43 -103t-103 -42q-59 0 -102 42t-43 103zM167 0v1029h207v-1029h-207z" />
<glyph unicode="j" horiz-adv-x="561" d="M49 -10q112 12 112 70v969h207v-967q0 -253 -319 -278v206zM119 1307q0 61 43 103t102 42q60 0 103 -42t43 -103t-43 -103t-103 -42q-59 0 -102 42t-43 103z" />
<glyph unicode="k" horiz-adv-x="944" d="M150 0v1415h208v-582l160 196h267l-279 -344l388 -685h-247l-280 513l-9 -11v-502h-208z" />
<glyph unicode="l" horiz-adv-x="508" d="M150 0v1601h208v-1601h-208z" />
<glyph unicode="m" horiz-adv-x="1418" d="M150 0v1029h207v-96q60 151 231 151q170 0 191 -172q49 172 270 172q218 0 218 -265v-819h-208v724q0 152 -123 152q-51 0 -88 -36t-37 -242v-598h-207l1 724q0 152 -124 152q-51 0 -88 -36q-32 -31 -36 -164v-676h-207z" />
<glyph unicode="n" horiz-adv-x="1139" d="M150 0v1029h208v-120q65 176 261 176q167 0 265.5 -118.5t101.5 -297.5v-669h-207v661q0 89 -65 152.5t-155 63.5q-89 0 -154 -62q-36 -37 -47 -62v-753h-208z" />
<glyph unicode="o" horiz-adv-x="1318" d="M90 543q0 236 167 403t402 167q236 0 402.5 -167t166.5 -403t-166.5 -403t-402.5 -167q-235 0 -402 167t-167 403zM302 543q0 -148 104.5 -252t252.5 -104t252.5 104t104.5 252q0 147 -104.5 252t-252.5 105t-252.5 -105t-104.5 -252z" />
<glyph unicode="p" horiz-adv-x="1375" d="M150 -346v1375h207v-93q150 176 349 176q236 0 402.5 -166.5t166.5 -402.5t-166.5 -403t-402.5 -167q-199 0 -349 155v-474h-207zM357 462q19 -95 97 -172q104 -104 252 -104t252.5 104.5t104.5 252.5q0 147 -104.5 252t-252.5 105t-252 -105q-78 -77 -97 -172v-161z" />
<glyph unicode="q" d="M100 543q0 236 166.5 402.5t402.5 166.5q199 0 349 -154v71h208v-1375h-208v474q-150 -155 -349 -155q-236 0 -402.5 167t-166.5 403zM312 543q0 -148 104.5 -252.5t252.5 -104.5t252 104q79 79 97 176v153q-18 97 -97 176q-104 105 -252 105t-252.5 -105t-104.5 -252z " />
<glyph unicode="r" horiz-adv-x="693" d="M150 0v1029h207v-139q116 157 285 165v-215q-113 -6 -180 -73q-101 -100 -105 -238v-529h-207z" />
<glyph unicode="s" horiz-adv-x="882" d="M124 242l206 44q9 -46 28 -65q37 -36 88 -36t87.5 36t36.5 89q0 51 -36 87q-25 25 -107 77q-112 61 -159 108q-82 82 -82 197q0 116 82 198.5t198 82.5t193 -78q55 -55 70 -123l-201 -58q-7 25 -14 33q-18 18 -48 18t-51.5 -21.5t-21.5 -51.5t21 -51q19 -18 86 -61 q124 -68 180 -124q97 -98 97 -233q0 -138 -96.5 -235.5t-234.5 -97.5q-137 0 -234 98q-67 67 -88 167z" />
<glyph unicode="t" horiz-adv-x="758" d="M90 822v207h185v386h207v-386h185v-207h-185v-822h-207v822h-185z" />
<glyph unicode="u" horiz-adv-x="1162" d="M150 403v626h208v-618q0 -89 65 -153t162 -64q89 0 154.5 63.5t65.5 153.5v618h207v-626q-3 -179 -121 -298q-119 -119 -305 -119q-195 0 -314 119t-122 298z" />
<glyph unicode="v" horiz-adv-x="1188" d="M50 1029h234l309 -668l310 668h234l-492 -1029h-104z" />
<glyph unicode="w" horiz-adv-x="1418" d="M150 308v721h207v-682q0 -153 124 -153q51 0 88 36q31 31 35 75v724h207v-707q0 -55 37 -91.5t88 -36.5q123 0 123 153v682h208v-721q-5 -132 -97 -224q-97 -98 -234 -98q-138 0 -227 96q-91 -96 -228 -96q-138 0 -235 98q-92 92 -96 224z" />
<glyph unicode="x" horiz-adv-x="1031" d="M75 0l323 559l-271 470h239l150 -257l149 257h241l-272 -470l322 -559h-239l-201 346l-200 -346h-241z" />
<glyph unicode="y" horiz-adv-x="1139" d="M75 1029h233l261 -563l261 563h232l-659 -1375h-219l274 575z" />
<glyph unicode="z" horiz-adv-x="1125" d="M150 0l468 822h-423v207h780l-469 -821h459v-208h-815z" />
<glyph unicode="{" horiz-adv-x="941" d="M125 502v247h163q83 53 110 147q15 58 15 124q0 36 -5 73q-13 70 -13 134q0 70 16 132q35 128 152 194q74 43 156 43q22 0 97 -12v-195q-84 14 -95 14q-32 0 -63 -17q-46 -26 -60 -78q-11 -43 -11 -99q0 -25 2 -49q15 -73 15 -147q0 -86 -21 -168q-48 -170 -117 -222 q69 -47 117 -217q21 -82 21 -168q0 -74 -15 -147q-2 -24 -2 -49q0 -56 11 -99q14 -51 60 -77q33 -18 65 -18q11 0 93 10v-191q-75 -12 -97 -12q-82 0 -156 43q-117 66 -152 195q-16 62 -16 132q0 64 13 133q5 37 5 73q0 66 -15 124q-27 94 -110 147h-163z" />
<glyph unicode="|" horiz-adv-x="507" d="M150 -345v1941h207v-1941h-207z" />
<glyph unicode="}" horiz-adv-x="941" d="M125 -142q81 -10 92 -10q33 0 66 18q46 26 59 77q12 43 12 99q0 25 -2 49q-15 73 -15 147q0 86 21 168q47 170 117 217q-70 52 -117 222q-21 82 -21 168q0 74 15 147q2 24 2 49q0 56 -12 99q-13 52 -59 78q-31 17 -63 17q-11 0 -95 -14v195q75 12 97 12q82 0 156 -43 q117 -66 151 -194q17 -62 17 -132q0 -64 -13 -134q-5 -37 -5 -73q0 -66 15 -124q26 -94 110 -147h163v-247h-163q-84 -53 -110 -147q-15 -58 -15 -124q0 -36 4 -73q14 -69 14 -133q0 -70 -17 -132q-34 -129 -151 -195q-74 -43 -156 -43q-22 0 -97 12v191z" />
<glyph unicode="~" horiz-adv-x="1326" d="M125 660q5 110 27 165q53 129 183 172q32 10 70 10q114 0 287 -99q159 -92 220 -92h9q41 13 58 56q9 23 9 120l213 -33q-10 -111 -31 -165q-53 -129 -181 -172q-33 -10 -71 -10q-113 0 -287 99q-160 92 -221 92h-7q-41 -13 -59 -55q-9 -26 -12 -121z" />
<glyph unicode="&#xa1;" horiz-adv-x="541" d="M125 883q0 62 42.5 104t102.5 42q59 0 102 -42t43 -104q0 -60 -43 -102t-102 -42q-60 0 -102.5 42t-42.5 102zM168 561h207v-1145h-207v1145z" />
<glyph unicode="&#xa2;" horiz-adv-x="1110" d="M99 1039q0 195 139 334q105 105 194 122v158h207v-142q129 -2 266 -139q27 -28 104 -128l-199 -75q-41 49 -51 60q-76 75 -120 76v-532q43 1 120 78q10 10 50 58l199 -73q-76 -102 -103 -130q-137 -137 -266 -139v-142h-207v158q-89 16 -194 122q-139 138 -139 334z M305 1039q0 -140 127 -242l1 481q-128 -88 -128 -239z" />
<glyph unicode="&#xa3;" horiz-adv-x="1214" d="M100 87q156 138 182 170q85 101 87 254h-219v206h173q-1 3 -41 82q-109 176 -123 340q-2 20 -2 41q0 150 99 269q111 132 288 149q20 1 39 1q150 0 270 -99q133 -114 149 -287q4 -24 4 -47q0 -71 -48 -182l-193 65q31 89 31 126q0 11 -1 21q-8 87 -76 144q-60 50 -135 50 q-11 0 -21 -1q-88 -7 -145 -75q-50 -60 -50 -134q0 -12 1 -23q8 -92 64 -211q83 -132 107 -229h194v-206l-159 -2q0 -227 -122 -352q81 52 178 52q26 0 54 -4q128 -18 202 -18q66 0 188 31l39 -204q-139 -34 -227 -34q-89 0 -181 21q-84 18 -146 18q-52 0 -87 -12 q-92 -33 -222 -99z" />
<glyph unicode="&#xa4;" horiz-adv-x="1214" d="M100 755l132 132q-60 73 -60 228q0 156 60 229l-132 132l147 147l131 -132q74 60 229 60q156 0 229 -60l132 132l146 -147l-132 -132q61 -73 61 -229q0 -155 -61 -228l132 -132l-146 -147l-132 132q-73 -60 -229 -60q-155 0 -229 60l-131 -132zM378 1115q0 -78 46 -136 q9 -13 22 -25q12 -13 25 -22q58 -45 136 -45t137 45q13 10 25 22q12 11 21 25q46 58 46 136t-46 137q-10 14 -21 26q-11 10 -25 21q-59 45 -137 45t-136 -45q-14 -10 -25 -21q-12 -12 -22 -26q-46 -59 -46 -137z" />
<glyph unicode="&#xa5;" horiz-adv-x="1414" d="M50 1600h238l418 -724l419 724h239l-486 -840h260v-208h-328v-88h328v-207h-328v-257h-207v257h-327v207h327v88h-327v208h259z" />
<glyph unicode="&#xa6;" horiz-adv-x="507" d="M150 -345v905h207v-905h-207zM150 691v905h207v-905h-207z" />
<glyph unicode="&#xa7;" horiz-adv-x="1205" d="M100 1005q0 207 133 366q0 153 109.5 262.5t264.5 109.5t264 -109q62 -59 104 -190l-188 -74q-34 92 -61 120q-49 48 -119 48q-69 0 -118 -48.5t-49 -118.5q0 -69 49 -118q55 -54 152 -99q187 -61 318 -192q146 -145 146 -351q0 -207 -133 -366q0 -152 -109 -262 t-265 -110q-154 0 -264 109q-62 59 -103 190l187 74q34 -92 62 -120q49 -48 118 -48t118 48.5t49 118.5q0 69 -49 118q-54 54 -152 99q-187 61 -318 192q-146 145 -146 351zM305 1005q0 -121 86 -206q82 -83 201 -131q169 -57 271 -158l31 -13h1q5 0 5 114q0 121 -85 207 q-83 82 -202 131q-169 56 -270 158l-31 13h-1q-6 0 -6 -115z" />
<glyph unicode="&#xa8;" horiz-adv-x="716" d="M25 1294q0 60 42.5 102t102.5 42q59 0 102 -42t43 -102q0 -61 -43 -103t-102 -42q-60 0 -102.5 42t-42.5 103zM401 1294q0 60 42.5 102t102.5 42q59 0 102 -42t43 -102q0 -61 -43 -103t-102 -42q-60 0 -102.5 42t-42.5 103z" />
<glyph unicode="&#xa9;" horiz-adv-x="1433" d="M99 617q0 255 180 435t435 180q254 0 434 -180t180 -435t-180 -435t-434 -180q-255 0 -435 180t-180 435zM288 617q0 -176 124.5 -301t301.5 -125q176 0 300.5 125t124.5 301t-124.5 300.5t-300.5 124.5q-177 0 -301.5 -124.5t-124.5 -300.5zM358 617q0 151 107 258.5 t259 107.5t259 -107q22 -22 91 -118l-181 -67q-37 47 -44 54q-51 51 -125 51t-126.5 -52.5t-52.5 -126.5t52.5 -126.5t126.5 -52.5t126 52q7 7 43 52l181 -66q-69 -96 -91 -118q-107 -108 -259 -108t-259 107.5t-107 259.5z" />
<glyph unicode="&#xaa;" horiz-adv-x="1019" d="M125 1259q0 141 110 241t266 100q130 0 229 -92v43h138v-618h-138v77q-99 -93 -229 -93q-156 0 -266 100t-110 242zM265 1259q0 -89 69 -151.5t167 -62.5q97 0 166 62q51 48 63 106v91q-12 58 -63 106q-69 62 -166 62q-98 0 -167 -62.5t-69 -150.5zM334 640v157h622v550 h157v-707h-779z" />
<glyph unicode="&#xab;" horiz-adv-x="1222" d="M100 489l543 581v-278l-283 -303l283 -304v-280zM578 489l543 581v-278l-283 -303l283 -304v-280z" />
<glyph unicode="&#xad;" horiz-adv-x="919" d="M125 505v207h668v-207h-668z" />
<glyph unicode="&#xae;" horiz-adv-x="1208" d="M100 1091q0 209 147.5 357t357.5 148q207 0 355 -148t148 -357q0 -208 -148 -356q-52 -52 -144 -100t-211 -48q-210 0 -357.5 148t-147.5 356zM276 1091q0 -135 96 -232q7 -7 15 -14v493q-8 -7 -15 -14q-96 -96 -96 -233zM562 765q21 -2 43 -2q29 0 40 -1l-64 99h-19v-96 zM562 1038h44q46 0 79 32.5t33 78.5q0 47 -33 79.5t-79 32.5h-44v-223zM765 893q0 -1 3 -1h2l39 -61q4 6 27 28q96 97 96 232q0 137 -96 233l-14 14q71 -80 71 -189q0 -120 -84 -204q-44 -44 -44 -52z" />
<glyph unicode="&#xaf;" horiz-adv-x="717" d="M75 1230v207h567v-207h-567z" />
<glyph unicode="&#xb0;" horiz-adv-x="849" d="M150 1321q0 114 80.5 194.5t194.5 80.5t194 -80.5t80 -194.5t-80 -194t-194 -80t-194.5 80t-80.5 194zM339 1321q0 -35 25 -60t61 -25q35 0 60 25t25 60q0 36 -25 61t-60 25q-36 0 -61 -25t-25 -61z" />
<glyph unicode="&#xb1;" horiz-adv-x="1110" d="M125 0v207h327v296h-327v207h327v327h206v-327h327v-207h-327v-296h327v-207h-860z" />
<glyph unicode="&#xb2;" horiz-adv-x="979" d="M125 578q0 222 134.5 329t207.5 158t125.5 104t52.5 112q0 58 -44.5 99t-107.5 41t-108 -41q-38 -35 -54 -173l-205 69q27 163 111 241q106 99 256 99t256 -98t106 -237q0 -137 -103 -238q-60 -61 -219 -135t-163 -137h485v-193h-730z" />
<glyph unicode="&#xb3;" horiz-adv-x="979" d="M125 907l206 69q16 -139 54 -174q45 -41 107 -41q64 0 108 41t44 99q0 60 -46 131.5t-146 89.5l-113 2v90l118 1q42 15 67 39.5t25 102.5q0 28 -20.5 46.5t-50.5 18.5q-79 0 -95 -112l-190 70q40 119 87 161q83 75 198 75q118 0 200 -76.5t82 -182.5q0 -136 -136 -166 q97 -21 163.5 -87t66.5 -203q0 -138 -106 -236.5t-256 -98.5q-149 0 -256 99q-84 78 -111 242z" />
<glyph unicode="&#xb4;" horiz-adv-x="669" d="M100 1128l217 279h252l-272 -279h-197z" />
<glyph unicode="&#xb5;" horiz-adv-x="1110" d="M150 -343v1372h207v-720q8 -18 36 -46q65 -62 154 -62t154 64q42 41 54 84v680h205v-1027h-205v79q-90 -87 -208 -87q-172 0 -190 67v-404h-207z" />
<glyph unicode="&#xb6;" horiz-adv-x="1222" d="M51 1137q0 225 159 384q132 132 326 159h15v1h646v-207h-41v-1799h-207v1799h-71v-1799h-207v919h-78q-224 0 -383 159t-159 384z" />
<glyph unicode="&#xb7;" horiz-adv-x="708" d="M98 698q0 51 36.5 86.5t86.5 35.5q51 0 87 -35.5t36 -86.5q0 -53 -36 -88.5t-87 -35.5q-50 0 -86.5 35.5t-36.5 88.5z" />
<glyph unicode="&#xb8;" horiz-adv-x="418" d="M25 -328l35 126q57 -26 93 -26q6 0 11 1q31 4 40 35q3 7 3 15q0 4 -1 8q-6 28 -92 56l48 130h149l-23 -61q74 -38 95 -89q4 -14 7 -27t3 -26q0 -43 -31 -81q-49 -59 -144 -73q-19 -3 -44 -3q-58 0 -149 15z" />
<glyph unicode="&#xb9;" horiz-adv-x="1081" d="M368 1366l194 230h151v-1026h-208v796h-137z" />
<glyph unicode="&#xba;" horiz-adv-x="931" d="M90 1258q0 142 110 242t266 100q155 0 265 -100t110 -242t-110 -242t-265 -100q-156 0 -266 100t-110 242zM230 1258q0 -89 69 -151.5t167 -62.5q97 0 166 62.5t69 151.5q0 88 -69 151t-166 63q-98 0 -167 -63t-69 -151zM334 640v157h622v550h157v-707h-779z" />
<glyph unicode="&#xbb;" horiz-adv-x="1222" d="M100 -95v280l283 304l-283 303v278l543 -581zM578 -95v280l283 304l-283 303v278l543 -581z" />
<glyph unicode="&#xbf;" horiz-adv-x="1028" d="M127 -154q0 83 38 162q63 130 204 239q96 85 146 190q30 62 31 123h206q-1 -108 -52 -212q-80 -167 -238 -286q-76 -75 -110 -144q-17 -37 -17 -73q0 -27 9 -55q24 -66 86 -96q36 -17 72 -17q27 0 56 10q66 23 96 85q9 19 13 57l209 68v-67q0 -74 -36 -146 q-68 -140 -214 -191q-64 -22 -126 -22q-82 0 -161 38q-140 67 -191 212q-21 63 -21 125zM485 883q0 62 43 104t102 42q60 0 102.5 -42t42.5 -104q0 -60 -42.5 -102t-102.5 -42q-59 0 -102 42t-43 102z" />
<glyph unicode="&#xc0;" d="M50 0l582 1600h112l582 -1600h-220l-206 566h-424l-205 -566h-221zM375 1978h252l217 -279h-197zM552 773h273l-137 375z" />
<glyph unicode="&#xc1;" d="M50 0l582 1600h112l582 -1600h-220l-206 566h-424l-205 -566h-221zM532 1699l217 279h252l-272 -279h-197zM552 773h273l-137 375z" />
<glyph unicode="&#xc2;" d="M50 0l582 1600h112l582 -1600h-220l-206 566h-424l-205 -566h-221zM378 1749l233 238h147l241 -238h-221l-92 82l-89 -82h-219zM552 773h273l-137 375z" />
<glyph unicode="&#xc3;" d="M50 0l582 1600h112l582 -1600h-220l-206 566h-424l-205 -566h-221zM373 1744q39 220 149 252q28 8 56 8q73 0 135 -58t88 -58v-1q30 0 30 39q0 26 -13 69h186q-38 -220 -147 -252q-28 -8 -56 -8q-74 0 -133.5 57t-87.5 57h-4q-30 -2 -30 -39q0 -25 14 -66h-187zM552 773 h273l-137 375z" />
<glyph unicode="&#xc4;" d="M50 0l582 1600h112l582 -1600h-220l-206 566h-424l-205 -566h-221zM355 1865q0 60 42.5 102t102.5 42q59 0 102 -42t43 -102q0 -61 -43 -103t-102 -42q-60 0 -102.5 42t-42.5 103zM552 773h273l-137 375zM731 1865q0 60 42.5 102t102.5 42q59 0 102 -42t43 -102 q0 -61 -43 -103t-102 -42q-60 0 -102.5 42t-42.5 103z" />
<glyph unicode="&#xc5;" d="M50 0l579 1592q-50 14 -89 54q-62 62 -62 148q0 87 61.5 149t149.5 62q87 0 148.5 -62t61.5 -149q0 -86 -61 -148q-40 -40 -91 -54l579 -1592h-220l-206 566h-424l-205 -566h-221zM552 773h273l-137 375zM632 1792q0 -23 15.5 -38.5t43.5 -15.5q22 0 38 15.5t16 38.5 q0 28 -16 43.5t-38 15.5q-28 0 -43.5 -15.5t-15.5 -43.5z" />
<glyph unicode="&#xc6;" horiz-adv-x="1715" d="M40 0l689 1548v52h862v-207h-655v-489h655v-207h-655v-489h655v-208h-862v566h-194l-242 -566h-253zM619 773h110v255z" />
<glyph unicode="&#xc7;" horiz-adv-x="1642" d="M125 800q0 338 239 578t578 240q317 0 601 -259l-155 -141q-214 190 -446 190q-251 0 -429.5 -178t-178.5 -430q0 -253 178.5 -431t429.5 -178q232 0 446 190l155 -139q-284 -259 -601 -259h-19l-10 -27q74 -38 95 -89q4 -14 7 -27t3 -26q0 -43 -31 -81q-49 -59 -144 -73 q-19 -3 -44 -3q-58 0 -149 15l35 126q57 -26 93 -26q6 0 11 1q31 4 40 35q3 7 3 15q0 4 -1 8q-6 28 -92 56l41 111q-236 44 -416 224q-239 239 -239 578z" />
<glyph unicode="&#xc8;" horiz-adv-x="1137" d="M150 0v1600h862v-207h-655v-489h655v-207h-655v-489h655v-208h-862zM268 1978h252l217 -279h-197z" />
<glyph unicode="&#xc9;" horiz-adv-x="1137" d="M150 0v1600h862v-207h-655v-489h655v-207h-655v-489h655v-208h-862zM425 1699l217 279h252l-272 -279h-197z" />
<glyph unicode="&#xca;" horiz-adv-x="1137" d="M150 0v1600h862v-207h-655v-489h655v-207h-655v-489h655v-208h-862zM271 1749l233 238h147l241 -238h-221l-92 82l-89 -82h-219z" />
<glyph unicode="&#xcb;" horiz-adv-x="1137" d="M150 0v1600h862v-207h-655v-489h655v-207h-655v-489h655v-208h-862zM248 1865q0 60 42.5 102t102.5 42q59 0 102 -42t43 -102q0 -61 -43 -103t-102 -42q-60 0 -102.5 42t-42.5 103zM624 1865q0 60 42.5 102t102.5 42q59 0 102 -42t43 -102q0 -61 -43 -103t-102 -42 q-60 0 -102.5 42t-42.5 103z" />
<glyph unicode="&#xcc;" horiz-adv-x="548" d="M-39 1978h252l217 -279h-197zM170 0v1600h207v-1600h-207z" />
<glyph unicode="&#xcd;" horiz-adv-x="548" d="M117 1699l217 279h252l-272 -279h-197zM170 0v1600h207v-1600h-207z" />
<glyph unicode="&#xce;" horiz-adv-x="548" d="M-37 1749l233 238h147l241 -238h-221l-92 82l-89 -82h-219zM170 0v1600h207v-1600h-207z" />
<glyph unicode="&#xcf;" horiz-adv-x="548" d="M-59 1865q0 60 42.5 102t102.5 42q59 0 102 -42t43 -102q0 -61 -43 -103t-102 -42q-60 0 -102.5 42t-42.5 103zM171 0v1600h207v-1600h-207zM317 1865q0 60 42.5 102t102.5 42q59 0 102 -42t43 -102q0 -61 -43 -103t-102 -42q-60 0 -102.5 42t-42.5 103z" />
<glyph unicode="&#xd0;" horiz-adv-x="1250" d="M-40 697v206h190v697h152q390 -2 608 -221q239 -241 239 -579q0 -339 -239 -579q-218 -219 -608 -221h-152v697h-190zM357 210q247 0 405 159q178 178 178 431q0 252 -178 431q-158 158 -405 158v-486h347v-206h-347v-487z" />
<glyph unicode="&#xd1;" horiz-adv-x="1357" d="M150 0v1600h189l660 -1142v1142h208v-1600h-181l-669 1156v-1156h-207zM363 1744q39 220 149 252q28 8 56 8q73 0 135 -58t88 -58v-1q30 0 30 39q0 26 -13 69h186q-38 -220 -147 -252q-28 -8 -56 -8q-74 0 -133.5 57t-87.5 57h-4q-30 -2 -30 -39q0 -25 14 -66h-187z" />
<glyph unicode="&#xd2;" horiz-adv-x="1889" d="M125 802q0 339 240 579t579 240t579 -240t240 -579t-240 -579t-579 -240t-579 240t-240 579zM334 802q0 -253 179 -432t431 -179q253 0 431.5 179t178.5 432t-178.5 431.5t-431.5 178.5t-431.5 -178.5t-178.5 -431.5zM631 1978h252l217 -279h-197z" />
<glyph unicode="&#xd3;" horiz-adv-x="1889" d="M125 802q0 339 240 579t579 240t579 -240t240 -579t-240 -579t-579 -240t-579 240t-240 579zM334 802q0 -253 179 -432t431 -179q253 0 431.5 179t178.5 432t-178.5 431.5t-431.5 178.5t-431.5 -178.5t-178.5 -431.5zM788 1699l217 279h252l-272 -279h-197z" />
<glyph unicode="&#xd4;" horiz-adv-x="1889" d="M125 802q0 339 240 579t579 240t579 -240t240 -579t-240 -579t-579 -240t-579 240t-240 579zM334 802q0 -253 179 -432t431 -179q253 0 431.5 179t178.5 432t-178.5 431.5t-431.5 178.5t-431.5 -178.5t-178.5 -431.5zM634 1749l233 238h147l241 -238h-221l-92 82l-89 -82 h-219z" />
<glyph unicode="&#xd5;" horiz-adv-x="1889" d="M125 802q0 339 240 579t579 240t579 -240t240 -579t-240 -579t-579 -240t-579 240t-240 579zM334 802q0 -253 179 -432t431 -179q253 0 431.5 179t178.5 432t-178.5 431.5t-431.5 178.5t-431.5 -178.5t-178.5 -431.5zM629 1744q39 220 149 252q28 8 56 8q73 0 135 -58 t88 -58v-1q30 0 30 39q0 26 -13 69h186q-38 -220 -147 -252q-28 -8 -56 -8q-74 0 -133.5 57t-87.5 57h-4q-30 -2 -30 -39q0 -25 14 -66h-187z" />
<glyph unicode="&#xd6;" horiz-adv-x="1889" d="M125 802q0 339 240 579t579 240t579 -240t240 -579t-240 -579t-579 -240t-579 240t-240 579zM334 802q0 -253 179 -432t431 -179q253 0 431.5 179t178.5 432t-178.5 431.5t-431.5 178.5t-431.5 -178.5t-178.5 -431.5zM611 1865q0 60 42.5 102t102.5 42q59 0 102 -42 t43 -102q0 -61 -43 -103t-102 -42q-60 0 -102.5 42t-42.5 103zM987 1865q0 60 42.5 102t102.5 42q59 0 102 -42t43 -102q0 -61 -43 -103t-102 -42q-60 0 -102.5 42t-42.5 103z" />
<glyph unicode="&#xd7;" horiz-adv-x="1177" d="M210 377l231 231l-231 232l147 147l231 -232l232 232l145 -148l-231 -231l231 -231l-145 -147l-232 231l-231 -231z" />
<glyph unicode="&#xd8;" horiz-adv-x="1889" d="M125 802q0 339 240 579t579 240q164 0 251 -35l81 173l188 -88l-81 -173q51 -28 141 -116q239 -241 239 -580t-240 -579t-579 -240q-164 0 -251 35l-80 -173l-189 88l81 173q-51 28 -140 117q-240 240 -240 579zM334 802q0 -253 179 -432q65 -65 81 -74l512 1100 q-41 16 -162 16q-253 0 -431.5 -178.5t-178.5 -431.5zM781 208q42 -17 163 -17q253 0 431.5 179t178.5 432t-178 432q-65 65 -82 74z" />
<glyph unicode="&#xd9;" horiz-adv-x="1388" d="M150 531v1069h208v-1069q0 -138 98.5 -236.5t237.5 -98.5q140 0 238 98t98 237v1069h208v-1127q-27 -193 -159 -326q-160 -160 -385 -160t-384.5 159.5t-159.5 384.5zM381 1978h252l217 -279h-197z" />
<glyph unicode="&#xda;" horiz-adv-x="1388" d="M150 531v1069h208v-1069q0 -138 98.5 -236.5t237.5 -98.5q140 0 238 98t98 237v1069h208v-1127q-27 -193 -159 -326q-160 -160 -385 -160t-384.5 159.5t-159.5 384.5zM538 1699l217 279h252l-272 -279h-197z" />
<glyph unicode="&#xdb;" horiz-adv-x="1388" d="M150 531v1069h208v-1069q0 -138 98.5 -236.5t237.5 -98.5q140 0 238 98t98 237v1069h208v-1127q-27 -193 -159 -326q-160 -160 -385 -160t-384.5 159.5t-159.5 384.5zM384 1749l233 238h147l241 -238h-221l-92 82l-89 -82h-219z" />
<glyph unicode="&#xdc;" horiz-adv-x="1388" d="M150 531v1069h208v-1069q0 -138 98.5 -236.5t237.5 -98.5q140 0 238 98t98 237v1069h208v-1127q-27 -193 -159 -326q-160 -160 -385 -160t-384.5 159.5t-159.5 384.5zM361 1865q0 60 42.5 102t102.5 42q59 0 102 -42t43 -102q0 -61 -43 -103t-102 -42q-60 0 -102.5 42 t-42.5 103zM737 1865q0 60 42.5 102t102.5 42q59 0 102 -42t43 -102q0 -61 -43 -103t-102 -42q-60 0 -102.5 42t-42.5 103z" />
<glyph unicode="&#xdd;" horiz-adv-x="1414" d="M50 1600h238l418 -724l419 724h239l-554 -958v-642h-207v642zM551 1699l217 279h252l-272 -279h-197z" />
<glyph unicode="&#xde;" horiz-adv-x="1180" d="M150 0v1600h207v-255h247q193 -27 326 -160q159 -159 159 -384q0 -226 -159 -385t-384 -159h-189v-257h-207zM357 465h189q138 0 236.5 98.5t98.5 237.5t-98.5 237t-236.5 98h-189v-671z" />
<glyph unicode="&#xdf;" horiz-adv-x="1142" d="M140 0v1246q11 173 96.5 264.5t232.5 96.5h16q134 0 230 -78q105 -87 114 -256v-17q0 -164 -46 -192q255 -102 269 -492q0 -236 -165 -407q-156 -161 -311 -163v-2h-78v208h78v3q64 4 159 103q105 108 105 257q0 147 -104.5 251.5t-245.5 104.5v210q65 8 99 39.5t34 86.5 q0 58 -36 99q-30 34 -93 34h-9q-69 -2 -101 -40.5t-37 -127.5v-1228h-207z" />
<glyph unicode="&#xe0;" horiz-adv-x="1401" d="M125 542q0 236 166.5 402.5t402.5 166.5q198 0 348 -154v72h208v-1030h-208v129q-150 -155 -348 -155q-236 0 -402.5 166.5t-166.5 402.5zM337 542q0 -147 104.5 -251.5t252.5 -104.5q147 0 252 104q78 79 96 176v152q-18 97 -96 176q-105 104 -252 104 q-148 0 -252.5 -104t-104.5 -252zM375 1407h252l217 -279h-197z" />
<glyph unicode="&#xe1;" horiz-adv-x="1401" d="M125 542q0 236 166.5 402.5t402.5 166.5q198 0 348 -154v72h208v-1030h-208v129q-150 -155 -348 -155q-236 0 -402.5 166.5t-166.5 402.5zM337 542q0 -147 104.5 -251.5t252.5 -104.5q147 0 252 104q78 79 96 176v152q-18 97 -96 176q-105 104 -252 104 q-148 0 -252.5 -104t-104.5 -252zM531 1128l217 279h252l-272 -279h-197z" />
<glyph unicode="&#xe2;" horiz-adv-x="1401" d="M125 542q0 236 166.5 402.5t402.5 166.5q198 0 348 -154v72h208v-1030h-208v129q-150 -155 -348 -155q-236 0 -402.5 166.5t-166.5 402.5zM337 542q0 -147 104.5 -251.5t252.5 -104.5q147 0 252 104q78 79 96 176v152q-18 97 -96 176q-105 104 -252 104 q-148 0 -252.5 -104t-104.5 -252zM377 1178l233 238h147l241 -238h-221l-92 82l-89 -82h-219z" />
<glyph unicode="&#xe3;" horiz-adv-x="1401" d="M125 542q0 236 166.5 402.5t402.5 166.5q198 0 348 -154v72h208v-1030h-208v129q-150 -155 -348 -155q-236 0 -402.5 166.5t-166.5 402.5zM337 542q0 -147 104.5 -251.5t252.5 -104.5q147 0 252 104q78 79 96 176v152q-18 97 -96 176q-105 104 -252 104 q-148 0 -252.5 -104t-104.5 -252zM372 1173q39 220 149 252q28 8 56 8q73 0 135 -58t88 -58v-1q30 0 30 39q0 26 -13 69h186q-38 -220 -147 -252q-28 -8 -56 -8q-74 0 -133.5 57t-87.5 57h-4q-30 -2 -30 -39q0 -25 14 -66h-187z" />
<glyph unicode="&#xe4;" horiz-adv-x="1401" d="M125 542q0 236 166.5 402.5t402.5 166.5q198 0 348 -154v72h208v-1030h-208v129q-150 -155 -348 -155q-236 0 -402.5 166.5t-166.5 402.5zM337 542q0 -147 104.5 -251.5t252.5 -104.5q147 0 252 104q78 79 96 176v152q-18 97 -96 176q-105 104 -252 104 q-148 0 -252.5 -104t-104.5 -252zM355 1294q0 60 42.5 102t102.5 42q59 0 102 -42t43 -102q0 -61 -43 -103t-102 -42q-60 0 -102.5 42t-42.5 103zM731 1294q0 60 42.5 102t102.5 42q59 0 102 -42t43 -102q0 -61 -43 -103t-102 -42q-60 0 -102.5 42t-42.5 103z" />
<glyph unicode="&#xe5;" horiz-adv-x="1401" d="M125 542q0 236 167 403q113 113 260 149q-7 6 -13 13q-62 62 -62 148q0 87 61.5 149t149.5 62q87 0 148.5 -62t61.5 -149q0 -86 -61 -148q-8 -7 -15 -13q121 -35 220 -137v72h208v-1030h-208v129q-150 -155 -348 -155q-236 0 -402.5 166.5t-166.5 402.5zM337 542 q0 -147 104.5 -251.5t252.5 -104.5q147 0 252 104q78 79 96 176v152q-18 97 -96 176q-105 104 -252 104q-148 0 -252.5 -104t-104.5 -252zM631 1253q0 -23 15.5 -38.5t43.5 -15.5q22 0 38 15.5t16 38.5q0 28 -16 43.5t-38 15.5q-28 0 -43.5 -15.5t-15.5 -43.5z" />
<glyph unicode="&#xe6;" horiz-adv-x="2142" d="M90 543q0 236 166.5 402.5t401.5 166.5q200 0 350 -120v38h207q56 82 278 82q236 0 403 -167q148 -149 156 -417l-837 1v-210q4 -6 25 -27q105 -105 253 -105t252 105q19 19 63 73l202 -71q-59 -98 -114 -153q-167 -166 -403 -166q-222 0 -278 52v-27h-207v95 q-150 -120 -350 -120q-235 0 -401.5 166.5t-166.5 401.5zM302 543q0 -148 104.5 -252t251.5 -104q148 0 252 105q39 38 62 80q27 47 36 95v152q-9 48 -36 95q-24 43 -62 81q-104 104 -252 104q-147 0 -251.5 -104t-104.5 -252zM1215 736h589l-59 59q-104 104 -252 104 t-252 -104q-22 -22 -26 -28v-31z" />
<glyph unicode="&#xe7;" horiz-adv-x="1262" d="M90 543q0 236 167 403t402 167q236 0 403 -167q34 -34 110 -137l-207 -76q-40 49 -54 63q-104 104 -252 104q-147 0 -251.5 -104.5t-104.5 -252.5q0 -147 104.5 -251.5t251.5 -104.5q148 0 253 104q13 14 53 62l207 -74q-76 -105 -110 -139q-146 -146 -345 -164l-7 -20 q74 -38 95 -89q4 -14 7 -27t3 -26q0 -43 -31 -81q-49 -59 -144 -73q-19 -3 -44 -3q-58 0 -149 15l35 126q57 -26 93 -26q6 0 11 1q31 4 40 35q3 7 3 15q0 4 -1 8q-6 28 -92 56l34 92q-179 27 -313 161q-167 167 -167 403z" />
<glyph unicode="&#xe8;" horiz-adv-x="1262" d="M90 543q0 236 167 403t402 167q202 0 354 -122q25 -21 49 -45q10 -10 57 -63l-104 -105l-545 -545q52 -46 189 -46q148 0 253 104q13 14 53 62l207 -74q-76 -105 -110 -139q-167 -167 -403 -167q-235 0 -402 167t-167 403zM303 543q0 -121 27 -157l486 487 q-35 27 -157 27q-147 0 -251.5 -104.5t-104.5 -252.5zM318 1407h252l217 -279h-197z" />
<glyph unicode="&#xe9;" horiz-adv-x="1262" d="M90 543q0 236 167 403t402 167q202 0 354 -122q25 -21 49 -45q10 -10 57 -63l-104 -105l-545 -545q52 -46 189 -46q148 0 253 104q13 14 53 62l207 -74q-76 -105 -110 -139q-167 -167 -403 -167q-235 0 -402 167t-167 403zM303 543q0 -121 27 -157l486 487 q-35 27 -157 27q-147 0 -251.5 -104.5t-104.5 -252.5zM475 1128l217 279h252l-272 -279h-197z" />
<glyph unicode="&#xea;" horiz-adv-x="1262" d="M90 543q0 236 167 403t402 167q202 0 354 -122q25 -21 49 -45q10 -10 57 -63l-104 -105l-545 -545q52 -46 189 -46q148 0 253 104q13 14 53 62l207 -74q-76 -105 -110 -139q-167 -167 -403 -167q-235 0 -402 167t-167 403zM303 543q0 -121 27 -157l486 487 q-35 27 -157 27q-147 0 -251.5 -104.5t-104.5 -252.5zM321 1178l233 238h147l241 -238h-221l-92 82l-89 -82h-219z" />
<glyph unicode="&#xeb;" horiz-adv-x="1262" d="M90 543q0 236 167 403t402 167q202 0 354 -122q25 -21 49 -45q10 -10 57 -63l-104 -105l-545 -545q52 -46 189 -46q148 0 253 104q13 14 53 62l207 -74q-76 -105 -110 -139q-167 -167 -403 -167q-235 0 -402 167t-167 403zM298 1294q0 60 42.5 102t102.5 42q59 0 102 -42 t43 -102q0 -61 -43 -103t-102 -42q-60 0 -102.5 42t-42.5 103zM303 543q0 -121 27 -157l486 487q-35 27 -157 27q-147 0 -251.5 -104.5t-104.5 -252.5zM674 1294q0 60 42.5 102t102.5 42q59 0 102 -42t43 -102q0 -61 -43 -103t-102 -42q-60 0 -102.5 42t-42.5 103z" />
<glyph unicode="&#xec;" horiz-adv-x="548" d="M-39 1407h252l217 -279h-197zM170 0v1030h207v-1030h-207z" />
<glyph unicode="&#xed;" horiz-adv-x="548" d="M117 1128l217 279h252l-272 -279h-197zM170 0v1030h207v-1030h-207z" />
<glyph unicode="&#xee;" horiz-adv-x="548" d="M-37 1178l233 238h147l241 -238h-221l-92 82l-89 -82h-219zM170 0v1030h207v-1030h-207z" />
<glyph unicode="&#xef;" horiz-adv-x="548" d="M-59 1294q0 60 42.5 102t102.5 42q59 0 102 -42t43 -102q0 -61 -43 -103t-102 -42q-60 0 -102.5 42t-42.5 103zM171 0v1030h207v-1030h-207zM317 1294q0 60 42.5 102t102.5 42q59 0 102 -42t43 -102q0 -61 -43 -103t-102 -42q-60 0 -102.5 42t-42.5 103z" />
<glyph unicode="&#xf0;" horiz-adv-x="1318" d="M90 543q0 236 167 403t402 167q17 0 34 -1l-166 184l-124 -88h-257l282 198l-182 194h252l80 -88l135 88h252l-293 -201l341 -409q25 -21 49 -44q63 -63 102 -137l1 -1q63 -119 63 -265q0 -236 -166.5 -403t-402.5 -167q-235 0 -402 167t-167 403zM302 543 q0 -148 104.5 -252t252.5 -104t252.5 104t104.5 252q0 147 -104.5 252t-252.5 105t-252.5 -105t-104.5 -252z" />
<glyph unicode="&#xf1;" horiz-adv-x="1139" d="M150 0v1029h208v-120q65 176 261 176q167 0 265.5 -118.5t101.5 -297.5v-669h-207v661q0 89 -65 152.5t-155 63.5q-89 0 -154 -62q-36 -37 -47 -62v-753h-208zM253 1173q39 220 149 252q28 8 56 8q73 0 135 -58t88 -58v-1q30 0 30 39q0 26 -13 69h186q-38 -220 -147 -252 q-28 -8 -56 -8q-74 0 -133.5 57t-87.5 57h-4q-30 -2 -30 -39q0 -25 14 -66h-187z" />
<glyph unicode="&#xf2;" horiz-adv-x="1318" d="M90 543q0 236 167 403t402 167q236 0 402.5 -167t166.5 -403t-166.5 -403t-402.5 -167q-235 0 -402 167t-167 403zM302 543q0 -148 104.5 -252t252.5 -104t252.5 104t104.5 252q0 147 -104.5 252t-252.5 105t-252.5 -105t-104.5 -252zM346 1407h252l217 -279h-197z" />
<glyph unicode="&#xf3;" horiz-adv-x="1318" d="M90 543q0 236 167 403t402 167q236 0 402.5 -167t166.5 -403t-166.5 -403t-402.5 -167q-235 0 -402 167t-167 403zM302 543q0 -148 104.5 -252t252.5 -104t252.5 104t104.5 252q0 147 -104.5 252t-252.5 105t-252.5 -105t-104.5 -252zM503 1128l217 279h252l-272 -279 h-197z" />
<glyph unicode="&#xf4;" horiz-adv-x="1318" d="M90 543q0 236 167 403t402 167q236 0 402.5 -167t166.5 -403t-166.5 -403t-402.5 -167q-235 0 -402 167t-167 403zM302 543q0 -148 104.5 -252t252.5 -104t252.5 104t104.5 252q0 147 -104.5 252t-252.5 105t-252.5 -105t-104.5 -252zM349 1178l233 238h147l241 -238 h-221l-92 82l-89 -82h-219z" />
<glyph unicode="&#xf5;" horiz-adv-x="1318" d="M90 543q0 236 167 403t402 167q236 0 402.5 -167t166.5 -403t-166.5 -403t-402.5 -167q-235 0 -402 167t-167 403zM302 543q0 -148 104.5 -252t252.5 -104t252.5 104t104.5 252q0 147 -104.5 252t-252.5 105t-252.5 -105t-104.5 -252zM344 1173q39 220 149 252q28 8 56 8 q73 0 135 -58t88 -58v-1q30 0 30 39q0 26 -13 69h186q-38 -220 -147 -252q-28 -8 -56 -8q-74 0 -133.5 57t-87.5 57h-4q-30 -2 -30 -39q0 -25 14 -66h-187z" />
<glyph unicode="&#xf6;" horiz-adv-x="1318" d="M90 543q0 236 167 403t402 167q236 0 402.5 -167t166.5 -403t-166.5 -403t-402.5 -167q-235 0 -402 167t-167 403zM302 543q0 -148 104.5 -252t252.5 -104t252.5 104t104.5 252q0 147 -104.5 252t-252.5 105t-252.5 -105t-104.5 -252zM326 1294q0 60 42.5 102t102.5 42 q59 0 102 -42t43 -102q0 -61 -43 -103t-102 -42q-60 0 -102.5 42t-42.5 103zM702 1294q0 60 42.5 102t102.5 42q59 0 102 -42t43 -102q0 -61 -43 -103t-102 -42q-60 0 -102.5 42t-42.5 103z" />
<glyph unicode="&#xf7;" horiz-adv-x="1112" d="M125 525v207h862v-207h-862zM411 344q0 60 42.5 102t102.5 42t102.5 -42t42.5 -102q0 -61 -42.5 -103t-102.5 -42t-102.5 42t-42.5 103zM411 913q0 60 42.5 102t102.5 42t102.5 -42t42.5 -102q0 -61 -42.5 -103t-102.5 -42t-102.5 42t-42.5 103z" />
<glyph unicode="&#xf8;" horiz-adv-x="1317" d="M90 544q0 236 166.5 402.5t401.5 166.5q134 0 194 -29l113 197l184 -95l-125 -202l37 -38q166 -166 166 -402q0 -235 -166.5 -402t-402.5 -167q-133 0 -192 29l-114 -196l-185 89l127 208l-37 37q-167 167 -167 402zM302 544q0 -148 93 -251l349 605q-5 2 -86 2 q-147 0 -251.5 -104.5t-104.5 -251.5zM573 190q5 -2 85 -2q148 0 252.5 104t104.5 252q0 147 -105 252z" />
<glyph unicode="&#xf9;" horiz-adv-x="1162" d="M150 403v626h208v-618q0 -89 65 -153t162 -64q89 0 154.5 63.5t65.5 153.5v618h207v-626q-3 -179 -121 -298q-119 -119 -305 -119q-195 0 -314 119t-122 298zM268 1407h252l217 -279h-197z" />
<glyph unicode="&#xfa;" horiz-adv-x="1162" d="M150 403v626h208v-618q0 -89 65 -153t162 -64q89 0 154.5 63.5t65.5 153.5v618h207v-626q-3 -179 -121 -298q-119 -119 -305 -119q-195 0 -314 119t-122 298zM425 1128l217 279h252l-272 -279h-197z" />
<glyph unicode="&#xfb;" horiz-adv-x="1162" d="M150 403v626h208v-618q0 -89 65 -153t162 -64q89 0 154.5 63.5t65.5 153.5v618h207v-626q-3 -179 -121 -298q-119 -119 -305 -119q-195 0 -314 119t-122 298zM271 1178l233 238h147l241 -238h-221l-92 82l-89 -82h-219z" />
<glyph unicode="&#xfc;" horiz-adv-x="1162" d="M150 403v626h208v-618q0 -89 65 -153t162 -64q89 0 154.5 63.5t65.5 153.5v618h207v-626q-3 -179 -121 -298q-119 -119 -305 -119q-195 0 -314 119t-122 298zM248 1294q0 60 42.5 102t102.5 42q59 0 102 -42t43 -102q0 -61 -43 -103t-102 -42q-60 0 -102.5 42t-42.5 103z M624 1294q0 60 42.5 102t102.5 42q59 0 102 -42t43 -102q0 -61 -43 -103t-102 -42q-60 0 -102.5 42t-42.5 103z" />
<glyph unicode="&#xfd;" horiz-adv-x="1139" d="M75 1029h233l261 -563l261 563h232l-659 -1375h-219l274 575zM412 1128l217 279h252l-272 -279h-197z" />
<glyph unicode="&#xfe;" horiz-adv-x="1374" d="M150 -345v1945h207v-679q150 190 348 190q236 0 402.5 -166t166.5 -402q0 -235 -166 -401.5t-403 -166.5q-199 0 -348 183v-503h-207zM357 462q19 -94 96 -171q105 -105 252 -105q148 0 252.5 104.5t104.5 252.5t-104.5 252t-252.5 104q-147 0 -252 -104 q-77 -77 -96 -172v-161z" />
<glyph unicode="&#xff;" horiz-adv-x="1139" d="M75 1029h233l261 -563l261 563h232l-659 -1375h-219l274 575zM236 1294q0 60 42.5 102t102.5 42q59 0 102 -42t43 -102q0 -61 -43 -103t-102 -42q-60 0 -102.5 42t-42.5 103zM612 1294q0 60 42.5 102t102.5 42q59 0 102 -42t43 -102q0 -61 -43 -103t-102 -42 q-60 0 -102.5 42t-42.5 103z" />
<glyph unicode="&#x152;" horiz-adv-x="2258" d="M90 802q0 339 240 579t579 240q133 0 245 -21h978v-207h-644q225 -237 237 -489h407v-207h-408q-13 -251 -238 -489h646v-208h-979q-112 -17 -244 -17q-339 0 -579 240t-240 579zM299 802q0 -253 179 -432t431 -179q117 0 217 37q38 15 75 36q74 40 140 106 q164 165 177 392q1 19 1 40q0 19 -1 37q-11 228 -177 395q-65 65 -140 106q-37 20 -75 35q-100 37 -217 37q-253 0 -431.5 -178.5t-178.5 -431.5z" />
<glyph unicode="&#x153;" horiz-adv-x="2184" d="M90 543q0 236 167 403t402 167q236 0 403 -167q32 -33 58 -68q26 35 59 68q167 167 402 167q202 0 354 -122q25 -21 49 -45q10 -10 57 -63l-104 -105l-545 -545q52 -46 189 -46q148 0 253 104q13 14 53 62l207 -74q-76 -105 -110 -139q-167 -167 -403 -167 q-235 0 -402 167q-33 33 -59 68q-26 -35 -58 -68q-167 -167 -403 -167q-235 0 -402 167t-167 403zM302 543q0 -148 104.5 -252t252.5 -104t253 104q88 88 102 207q-2 22 -2 45q0 22 2 44q-14 119 -102 208q-105 105 -253 105t-252.5 -105t-104.5 -252zM1226 495 q5 -81 26 -109l486 487q-35 27 -157 27q-147 0 -251 -104q-91 -91 -103 -214q1 -19 1 -39q0 -24 -2 -48z" />
<glyph unicode="&#x178;" horiz-adv-x="1414" d="M50 1600h238l418 -724l419 724h239l-554 -958v-642h-207v642zM374 1865q0 60 42.5 102t102.5 42q59 0 102 -42t43 -102q0 -61 -43 -103t-102 -42q-60 0 -102.5 42t-42.5 103zM750 1865q0 60 42.5 102t102.5 42q59 0 102 -42t43 -102q0 -61 -43 -103t-102 -42 q-60 0 -102.5 42t-42.5 103z" />
<glyph unicode="&#x2c6;" horiz-adv-x="1066" d="M221 1178l233 238h147l241 -238h-221l-92 82l-89 -82h-219z" />
<glyph unicode="&#x2dc;" horiz-adv-x="931" d="M150 1173q39 220 149 252q28 8 56 8q73 0 135 -58t88 -58v-1q30 0 30 39q0 26 -13 69h186q-38 -220 -147 -252q-28 -8 -56 -8q-74 0 -133.5 57t-87.5 57h-4q-30 -2 -30 -39q0 -25 14 -66h-187z" />
<glyph unicode="&#x2000;" horiz-adv-x="1004" />
<glyph unicode="&#x2001;" horiz-adv-x="2009" />
<glyph unicode="&#x2002;" horiz-adv-x="1004" />
<glyph unicode="&#x2003;" horiz-adv-x="2009" />
<glyph unicode="&#x2004;" horiz-adv-x="669" />
<glyph unicode="&#x2005;" horiz-adv-x="502" />
<glyph unicode="&#x2006;" horiz-adv-x="334" />
<glyph unicode="&#x2007;" horiz-adv-x="334" />
<glyph unicode="&#x2008;" horiz-adv-x="251" />
<glyph unicode="&#x2009;" horiz-adv-x="401" />
<glyph unicode="&#x200a;" horiz-adv-x="111" />
<glyph unicode="&#x2010;" horiz-adv-x="919" d="M125 505v207h668v-207h-668z" />
<glyph unicode="&#x2011;" horiz-adv-x="919" d="M125 505v207h668v-207h-668z" />
<glyph unicode="&#x2012;" horiz-adv-x="919" d="M125 505v207h668v-207h-668z" />
<glyph unicode="&#x2013;" horiz-adv-x="935" d="M50 505v207h835v-207h-835z" />
<glyph unicode="&#x2014;" horiz-adv-x="1522" d="M50 505v207h1422v-207h-1422z" />
<glyph unicode="&#x2018;" horiz-adv-x="410" d="M50 1329q0 32 12 62l108 219h189l-61 -178q42 -42 42 -103q0 -60 -42.5 -102t-102.5 -42q-59 0 -102 42t-43 102z" />
<glyph unicode="&#x2019;" horiz-adv-x="410" d="M50 1185l61 178q-42 42 -42 103q0 60 42.5 102t102.5 42q59 0 102 -42t43 -102q0 -32 -12 -62l-108 -219h-189z" />
<glyph unicode="&#x201a;" horiz-adv-x="410" d="M50 -155l61 178q-42 42 -42 103q0 60 42.5 102t102.5 42q59 0 102 -42t43 -102q0 -32 -12 -62l-108 -219h-189z" />
<glyph unicode="&#x201c;" horiz-adv-x="744" d="M51 1329q0 32 12 62l108 219h189l-61 -178q42 -42 42 -103q0 -60 -42.5 -102t-102.5 -42q-59 0 -102 42t-43 102zM384 1329q0 32 12 62l108 219h189l-61 -178q42 -42 42 -103q0 -60 -42.5 -102t-102.5 -42q-59 0 -102 42t-43 102z" />
<glyph unicode="&#x201d;" horiz-adv-x="744" d="M51 1185l61 178q-42 42 -42 103q0 60 42.5 102t102.5 42q59 0 102 -42t43 -102q0 -32 -12 -62l-108 -219h-189zM384 1185l61 178q-42 42 -42 103q0 60 42.5 102t102.5 42q59 0 102 -42t43 -102q0 -32 -12 -62l-108 -219h-189z" />
<glyph unicode="&#x201e;" horiz-adv-x="743" d="M50 -212l61 178q-42 42 -42 103q0 60 42.5 102t102.5 42q59 0 102 -42t43 -102q0 -32 -12 -62l-108 -219h-189zM383 -212l61 178q-42 42 -42 103q0 60 42.5 102t102.5 42q59 0 102 -42t43 -102q0 -32 -12 -62l-108 -219h-189z" />
<glyph unicode="&#x2022;" horiz-adv-x="860" d="M227 748q0 84 60 143t144 59q82 0 142 -59t60 -143q0 -85 -60 -143.5t-142 -58.5q-84 0 -144 58.5t-60 143.5z" />
<glyph unicode="&#x2026;" horiz-adv-x="2048" d="M100 133q0 60 43 102t102 42q60 0 102.5 -42t42.5 -102q0 -62 -42.5 -104t-102.5 -42q-59 0 -102 42t-43 104zM783 133q0 60 43 102t102 42q60 0 102.5 -42t42.5 -102q0 -62 -42.5 -104t-102.5 -42q-59 0 -102 42t-43 104zM1466 133q0 60 43 102t102 42q60 0 102.5 -42 t42.5 -102q0 -62 -42.5 -104t-102.5 -42q-59 0 -102 42t-43 104z" />
<glyph unicode="&#x202f;" horiz-adv-x="401" />
<glyph unicode="&#x2039;" horiz-adv-x="744" d="M100 489l543 581v-278l-283 -303l283 -304v-280z" />
<glyph unicode="&#x203a;" horiz-adv-x="744" d="M100 -95v280l283 304l-283 303v278l543 -581z" />
<glyph unicode="&#x205f;" horiz-adv-x="502" />
<glyph unicode="&#x20ac;" horiz-adv-x="1507" d="M100 540l41 187h128v56h-130l41 188h89v61q0 235 166.5 401.5t401.5 166.5q236 0 445 -211l-149 -149q-148 147 -296 147t-252.5 -104t-104.5 -251v-61h620l-42 -188h-578v-56h581l-41 -187l-540 3q0 -148 104.5 -252t252.5 -104t252 105q65 65 103 189h215 q-54 -225 -168 -340q-166 -166 -402 -166q-235 0 -401.5 166.5t-166.5 401.5v-3h-169z" />
<glyph unicode="&#x2122;" horiz-adv-x="1255" d="M50 1428v172h584l212 -325l212 325h147v-729h-176v365l-183 -282l-184 283v-366h-176v557h-91v-557h-177v557h-168z" />
<glyph unicode="&#xe000;" horiz-adv-x="1030" d="M0 0v1030h1030v-1030h-1030z" />
<glyph unicode="&#xfb01;" horiz-adv-x="1020" d="M90 823v207h92v185q7 128 97 219q95 88 218 88q62 0 188 -43l-68 -196q-88 38 -112 38q-41 0 -81 -36q-33 -32 -35 -78v-177h464v-1030h-207v823h-257v-823h-207v823h-92zM605 1207q0 60 42.5 102t102.5 42q59 0 102 -42t43 -102q0 -61 -43 -103t-102 -42 q-60 0 -102.5 42t-42.5 103z" />
<glyph unicode="&#xfb02;" horiz-adv-x="985" d="M90 823v207h92v185q7 128 97 219q95 88 264 88q150 0 292 -76v-1446h-207v1317q-12 4 -77 4q-87 0 -127 -36q-33 -32 -35 -78v-177h185v-207h-185v-823h-207v823h-92z" />
<glyph unicode="&#xfb03;" horiz-adv-x="1502" d="M90 823v207h92v185q7 128 97 219q95 88 218 88q62 0 188 -43l-68 -196q-88 38 -112 38q-41 0 -81 -36q-33 -32 -35 -78v-177h275v185q7 128 98 219q94 88 217 88q62 0 188 -43l-68 -196q-88 38 -111 38q-42 0 -81 -36q-33 -32 -35 -78v-177h464v-1030h-208v823h-256v-823 h-208v823h-275v-823h-207v823h-92zM1087 1207q0 60 42.5 102t102.5 42q59 0 102 -42t43 -102q0 -61 -43 -103t-102 -42q-60 0 -102.5 42t-42.5 103z" />
<glyph unicode="&#xfb04;" horiz-adv-x="1467" d="M90 823v207h92v185q7 128 97 219q95 88 218 88q62 0 188 -43l-68 -196q-88 38 -112 38q-41 0 -81 -36q-33 -32 -35 -78v-177h275v185q7 128 98 219q94 88 263 88q151 0 292 -76v-1446h-207v1317q-12 4 -76 4q-88 0 -127 -36q-33 -32 -35 -78v-177h184v-207h-184v-823 h-208v823h-275v-823h-207v823h-92z" />
</font>
</defs>
</svg>
