<?xml version="1.0" standalone="no"?>
<!DOCTYPE svg PUBLIC "-//W3C//DTD SVG 1.1//EN" "http://www.w3.org/Graphics/SVG/1.1/DTD/svg11.dtd" >
<svg xmlns="http://www.w3.org/2000/svg">
<metadata>
This is a custom SVG font generated by IcoMoon.
<iconset grid="16"></iconset>
</metadata>
<defs>
<font id="broccolidry" horiz-adv-x="512" >
<font-face units-per-em="512" ascent="480" descent="-32" />
<missing-glyph horiz-adv-x="512" />
<glyph class="hidden" unicode="&#xf000;" d="M0,480L 512 -32L0 -32 z" horiz-adv-x="0" />
<glyph unicode="&#xe1c3;" d="M 505.216,60.624l-191.984,384C 302.4,466.304, 280.256,480, 256,480s-46.4-13.696-57.232-35.376
			l-191.984-384c-9.92-19.84-8.864-43.408, 2.8-62.288C 21.248-20.512, 41.84-32, 64.016-32l 383.952,0 c 22.192,0, 42.784,11.488, 54.432,30.336
			C 514.064,17.216, 515.12,40.784, 505.216,60.624z M 287.968,48c0-8.848-7.152-16-16-16l-32,0 c-8.848,0-16,7.152-16,16l0,32 c0,8.848, 7.152,16, 16,16l 32,0 
			c 8.848,0, 16-7.152, 16-16L 287.968,48 z M 287.968,176c0-8.848-7.152-16-16-16l-32,0 c-8.848,0-16,7.152-16,16L 223.968,336 c0,8.832, 7.152,16, 16,16l 32,0 c 8.848,0, 16-7.168, 16-16
			L 287.968,176 z"  />
<glyph unicode="&#xe1c4;" d="M 512,144c0-61.856-50.144-112-112-112L 112,32 l0,0.4 c-62.528,4.128-112,56.032-112,119.6
	c0,39.568, 19.232,74.544, 48.768,96.4C 48.528,250.944, 48,253.408, 48,256c0,44.192, 35.824,80, 80,80c 15.376,0, 29.616-4.56, 41.808-12.080
	C 190.656,377.76, 242.816,416, 304,416c 79.536,0, 144-64.464, 144-144c0-8.816-0.912-17.376-2.432-25.744C 484.688,228.784, 512,189.616, 512,144z"  />
<glyph unicode="&#xe1c5;" d="M 464-32L 48-32 c-8.832,0-16,7.152-16,16L 32,240 c0,8.848, 7.168,16, 16,16l 48,0 l0,64 C 96,408.368, 167.632,480, 256,480
	s 160-71.632, 160-160l0-64 l 48,0 c 8.848,0, 16-7.152, 16-16l0-256 C 480-24.848, 472.848-32, 464-32z M 352,328C 352,376.608, 309.008,416, 256,416s-96-39.392-96-88L 160,256 l 192,0 L 352,328 z"  />
<glyph unicode="&#xe1c6;" d="M 416,464c0,8.832-7.152,16-16,16l-16,0 l-16,0 L 144,480 L 128,480 L 112,480 C 103.168,480, 96,472.832, 96,464L0,224l0-224 
	c0-17.664, 14.336-32, 32-32l 448,0 c 17.664,0, 32,14.336, 32,32L 512,224 L 416,464z M 368,224l-48-80c0-8.848-7.152-16-16-16l-96,0 c-8.848,0-16,7.152-16,16l-48,80L 64,224 L 146.288,416
	l 219.44,0 L 448,224L 368,224 z"  />
<glyph unicode="&#xe1c7;" d="M 256,32.496c-10.384,0-25.584,11.68-35.664,12.752c-28.752-24.112-58.704-53.136-99.424-68.224
	c-17.776-7.536-33.040-11.904-37.008-7.152c-5.328,6.192-13.376,14.784-14.8,17.088c 0.080,3.424, 4.224,0.72, 8.736,5.584
	c 24.576,10.336, 40.448,37.008, 51.12,69.616C 51.984,100.736,0,173.104,0,256.208C0,379.744, 114.624,479.904, 256,479.904s 256-100.144, 256-223.696
	S 397.376,32.496, 256,32.496z"  />
<glyph unicode="&#xe1c8;" d="M 448,240l-0.784,0 C 439.344,155.6, 371.072,64, 288,64l0-64 l 96,0 c 8.848,0, 16-7.152, 16-16
	s-7.152-16-16-16L 128-32 c-8.848,0-16,7.152-16,16s 7.152,16, 16,16l 96,0 l0,64 c-83.072,0-151.328,91.6-159.216,176L 64,240 l0,16 l0,0l0,0l0,16 l0,0L 64,336 c0,17.664, 14.336,32, 32,32
	s 32-14.336, 32-32l0-32 l0-32 l0-16 c0-70.688, 57.312-128, 128-128s 128,57.312, 128,128l0,16 l0,32 L 384,336 c0,17.664, 14.336,32, 32,32s 32-14.336, 32-32l0-32 l0,0L 448,240 z M 256,192
	c-44.192,0-64,35.808-64,80L 192,400 c0,44.176, 19.808,80, 64,80s 64-35.824, 64-80l0-128 C 320,227.808, 300.192,192, 256,192z M 280,256c 4.416,0, 8,3.584, 8,8
	c0,4.4-3.584,8-8,8S 272,268.4, 272,264C 272,259.584, 275.584,256, 280,256z M 232,352C 227.584,352, 224,348.4, 224,344
	C 224,339.584, 227.584,336, 232,336S 240,339.584, 240,344C 240,348.4, 236.416,352, 232,352z M 240,376C 240,380.416, 236.416,384, 232,384S 224,380.416, 224,376
	C 224,371.584, 227.584,368, 232,368S 240,371.584, 240,376z M 248,304c-4.416,0-8-3.6-8-8c0-4.416, 3.584-8, 8-8s 8,3.584, 8,8
	C 256,300.4, 252.416,304, 248,304z M 264,304c 4.416,0, 8,3.584, 8,8c0,4.4-3.584,8-8,8S 256,316.4, 256,312
	C 256,307.584, 259.584,304, 264,304z M 248,320c 4.416,0, 8,3.584, 8,8C 256,332.4, 252.416,336, 248,336S 240,332.4, 240,328
	C 240,323.584, 243.584,320, 248,320z M 232,320c-4.416,0-8-3.6-8-8c0-4.416, 3.584-8, 8-8s 8,3.584, 8,8
	C 240,316.4, 236.416,320, 232,320z M 248,352C 252.416,352, 256,355.584, 256,360C 256,364.416, 252.416,368, 248,368S 240,364.416, 240,360
	C 240,355.584, 243.584,352, 248,352z M 264,368C 268.416,368, 272,371.584, 272,376C 272,380.416, 268.416,384, 264,384S 256,380.416, 256,376C 256,371.584, 259.584,368, 264,368z
	 M 264,352C 259.584,352, 256,348.4, 256,344C 256,339.584, 259.584,336, 264,336S 272,339.584, 272,344C 272,348.4, 268.416,352, 264,352z M 280,352
	C 284.416,352, 288,355.584, 288,360C 288,364.416, 284.416,368, 280,368S 272,364.416, 272,360C 272,355.584, 275.584,352, 280,352z M 280,336C 275.584,336, 272,332.4, 272,328
	c0-4.416, 3.584-8, 8-8S 288,323.584, 288,328C 288,332.4, 284.416,336, 280,336z M 280,304c-4.416,0-8-3.6-8-8
	c0-4.416, 3.584-8, 8-8s 8,3.584, 8,8C 288,300.4, 284.416,304, 280,304z M 264,272c 4.416,0, 8,3.584, 8,8
	c0,4.4-3.584,8-8,8S 256,284.4, 256,280C 256,275.584, 259.584,272, 264,272z M 248,256c 4.416,0, 8,3.584, 8,8
	c0,4.4-3.584,8-8,8S 240,268.4, 240,264C 240,259.584, 243.584,256, 248,256z M 232,272c 4.416,0, 8,3.584, 8,8
	c0,4.4-3.584,8-8,8S 224,284.4, 224,280C 224,275.584, 227.584,272, 232,272z M 232,416C 227.584,416, 224,412.416, 224,408
	C 224,403.584, 227.584,400, 232,400S 240,403.584, 240,408C 240,412.416, 236.416,416, 232,416z M 248,400C 243.584,400, 240,396.416, 240,392C 240,387.584, 243.584,384, 248,384
	S 256,387.584, 256,392C 256,396.416, 252.416,400, 248,400z M 264,416C 259.584,416, 256,412.416, 256,408C 256,403.584, 259.584,400, 264,400S 272,403.584, 272,408
	C 272,412.416, 268.416,416, 264,416z M 280,400C 275.584,400, 272,396.416, 272,392C 272,387.584, 275.584,384, 280,384S 288,387.584, 288,392C 288,396.416, 284.416,400, 280,400z"  />
<glyph unicode="&#xe1c9;" d="M 464,416L 48,416 C 21.488,416,0,394.512,0,368l0-288 c0-26.496, 21.488-48, 48-48l 416,0 c 26.512,0, 48,21.504, 48,48L 512,368 C 512,394.512, 490.512,416, 464,416z M 43.856,64.16
	L 32.16,75.872l 131.984,131.968l 11.696-11.712L 43.856,64.16z M 468.144,64.16l-131.984,131.968l 11.696,11.712l 131.984-131.968L 468.144,64.16z M 272,170.8
	L 272,160 l-32,0 l0,10.8 L 32.048,363.6l 20.352,20.352L 256,195.184L 459.6,383.952l 20.352-20.352L 272,170.8z"  />
<glyph unicode="&#xe1ca;" d="M 464-32l-16,0 L 448,128 l 64,0 l0-112 C 512-10.496, 490.512-32, 464-32z M 448,320l 16,0 c 26.512,0, 48-21.504, 48-48l0-128 l-64,0 
	L 448,320 z M 96,128l 32.432,0 L 176,128 l 16,0 l 32,0 l0-16 l0-16 c0-8.848, 7.168-16, 16-16l 16,0 l0,0l 16,0 c 8.848,0, 16,7.152, 16,16l0,16 l0,16 l 96,0 l 32,0 l0-160 L 96-32 L 96,128 z M 288,144l0,32 l0,16 c0,8.848-7.152,16-16,16
	l-16,0 l0,0l-16,0 c-8.832,0-16-7.152-16-16l0-16 l0-32 l-32,0 l-16,0 L 128,144 L 96,144 L 96,320 l 32,0 L 128,360 C 128,426.272, 185.312,480, 256,480s 128-53.728, 128-120L 384,320 l 32,0 l0-176 l-32,0 L 288,144 z M 320,352
	c0,35.344-28.656,64-64,64s-64-28.656-64-64l0-32 l 128,0 L 320,352 z M0,16l0,112 l 64,0 l0-160 L 48-32 C 21.488-32,0-10.496,0,16z M0,272c0,26.496, 21.488,48, 48,48l 16,0 l0-176 L0,144 L0,272 z"  />
<glyph unicode="&#xe1cb;" d="M 510.624,393.6L 464,208c0-2.224-0.448-4.32-1.248-6.224
	c-1.632-3.84-4.688-6.912-8.512-8.528C 452.32,192.432, 450.208,192, 448,192L 144,192 l 12.8-64L 432,128 c 8.848,0, 16-7.152, 16-16s-7.152-16-16-16L 144,96 
	c-8.848,0-16,7.152-16,16L 67.2,416L 16,416 C 7.168,416,0,423.168,0,432s 7.168,16, 16,16l 64,0 c 8.848,0, 16-7.168, 16-16l 3.2-16L 496,416 c 8.848,0, 16-7.168, 16-16
	C 512,397.712, 511.488,395.568, 510.624,393.6z M 137.6,224L 192,224 L 192,384 L 105.6,384 L 137.6,224z M 288,384l-80,0 l0-160 l 80,0 L 288,384 z M 384,384l-80,0 l0-160 l 80,0 L 384,384 z M 400,384l0-160 l 36.048,0 l 40.528,160L 400,384 z
	 M 176,64c 26.512,0, 48-21.504, 48-48s-21.488-48-48-48s-48,21.504-48,48S 149.488,64, 176,64z M 176,0c 8.848,0, 16,7.152, 16,16s-7.152,16-16,16s-16-7.152-16-16
	S 167.152,0, 176,0z M 400,64c 26.512,0, 48-21.504, 48-48s-21.488-48-48-48s-48,21.504-48,48S 373.488,64, 400,64z M 400,0c 8.848,0, 16,7.152, 16,16s-7.152,16-16,16
	s-16-7.152-16-16S 391.152,0, 400,0z"  />
<glyph unicode="&#xe1cc;" d="M 74.992,42.992c-99.984,99.968-99.984,262.064,0,362.032
	c 99.968,99.984, 262.064,99.984, 362.032,0c 99.984-99.968, 99.984-262.064,0-362.032C 337.040-56.992, 174.96-56.992, 74.992,42.992z M 391.76,359.76
	L 120.24,88.24c 74.992-74.992, 196.544-74.992, 271.536,0S 466.752,284.784, 391.76,359.76z"  />
<glyph unicode="&#xe1cd;" d="M 256,480C 114.608,480,0,365.376,0,224c0-141.376, 114.608-256, 256-256s 256,114.624, 256,256
			C 512,365.376, 397.392,480, 256,480z M 256,32C 149.968,32, 64,117.968, 64,224S 149.968,416, 256,416s 192-85.968, 192-192S 362.032,32, 256,32zM 368,256l-80,0 L 288,368 c0,8.832-7.152,16-16,16l-32,0 c-8.848,0-16-7.168-16-16l0-160 c0-8.848, 7.152-16, 16-16
	l 128,0 c 8.848,0, 16,7.152, 16,16l0,32 C 384,248.848, 376.848,256, 368,256z"  />
<glyph unicode="&#xe1ce;" d="M0-32l0,48 c0,71.744, 90.384,98.864, 209.584,109.792c-26.176,16.224-46.72,61.824-57.424,98.24
	C 152.112,224.032, 152.064,224, 152,224C 150.912,224, 128,252.656, 128,288c0,31.008-2.208,56.864, 16.112,62.72C 144.096,351.152, 144,351.568, 144,352
	c0,39.312, 20.336,73.76, 50.992,93.744C 202.912,465.504, 227.056,480, 256,480s 53.088-14.496, 61.008-34.256C 347.664,425.76, 368,391.312, 368,352
	c0-0.432-0.096-0.848-0.112-1.28C 386.208,344.864, 384,319.008, 384,288c0-35.344-25.408-64-24-64c-0.064,0-0.112,0.032-0.16,0.032
	c-10.704-36.4-31.248-82.016-57.424-98.24C 421.616,114.864, 512,88.752, 512,16l0-48 L0-32 z"  />
<glyph unicode="&#xe1cf;" d="M 431.84,182.16c 34.496-25.712, 64.064-49.248, 64.064-49.248l-42.096-73.824l-76.080,33.584
	l-70.496-41.232C 302.464,7.968, 298.096-32, 298.096-32l-84.192,0 l-9.344,83.696l-69.472,41.328l-76.912-33.952l-42.080,73.824
	c0,0, 29.072,23.424, 63.488,49.056l0,84.144 l-63.488,48.96l 42.080,73.84l 75.072-33.408l 74.528,40.432L 213.904,480l 84.192,0 l 6.096-83.728l 73.504-41.248
	l 76.128,33.888l 42.096-73.84l-64.064-49.136L 431.856,182.16 z M 256,288c-35.344,0-64-28.656-64-64s 28.656-64, 64-64s 64,28.656, 64,64S 291.344,288, 256,288z"  />
<glyph unicode="&#xe1d0;" d="M 416,32c-53.008,0-96,35.808-96,80s 42.992,80, 96,80c 11.28,0, 21.936-1.92, 32-4.912L 448,336 l-256-64l0-240 
	l-1.936,0 C 181.168-4.512, 142.432-32, 96-32c-53.008,0-96,35.808-96,80s 42.992,80, 96,80c 11.28,0, 21.936-1.92, 32-4.912L 128,400 l 64,16l 256,64l 64,0 l0-368 
	C 512,67.808, 469.008,32, 416,32z"  />
<glyph unicode="&#xe1d1;" d="M 384,224L 192,224 l0-64 c0-35.344, 28.656-64, 64-64l 32,0 l 48,0 l 48,0 c 35.344,0, 64-28.656, 64-64s-28.656-64-64-64l-48,0 l-48,0 l-32,0 
	C 149.968-32, 64,53.968, 64,160L 64,352 L 64,384 L 64,416 c0,35.344, 28.656,64, 64,64s 64-28.656, 64-64l0-32 l0-32 l 192,0 c 35.344,0, 64-28.656, 64-64S 419.344,224, 384,224z"  />
<glyph unicode="&#xe1d2;" d="M 482.768,359.328l-5.024-5.024l-91.616,91.664l 5.008,5.008c0,0, 21.936,29.008, 53.136,29.008
	c 13.744,0, 29.312-5.648, 45.584-21.92C 543.52,404.4, 482.768,359.328, 482.768,359.328z M 447.664,324.208L 135.744,12.144l0-0.016 l-0.032-0.016L 135.68,12.112 L0-32
	l 44.096,135.744l0,0 l0,0.016l0,0.048l 0.032,0 L 356.064,415.888l 4.032-4.048 M 44.16,12.176l 67.792,19.504l-46.304,49.312L 44.16,12.176z"  />
<glyph unicode="&#xe1d3;" d="M 512,128c0-17.664-14.336-32-32-32l0-34.944 c 18.592-6.624, 32-24.192, 32-45.056
	c0-26.496-21.504-48-48-48c-20.88,0-38.448,13.408-45.056,32L 384,0 c0-17.664-14.336-32-32-32s-32,14.336-32,32l-32,0 c0-17.664-14.336-32-32-32s-32,14.336-32,32l-32,0 
	c0-17.664-14.336-32-32-32s-32,14.336-32,32L 93.056,0 C 86.448-18.592, 68.864-32, 48-32c-26.512,0-48,21.504-48,48c0,20.88, 13.392,38.432, 32,45.056L 32,96 
	c-17.664,0-32,14.336-32,32s 14.336,32, 32,32l0,32 c-17.664,0-32,14.336-32,32s 14.336,32, 32,32l0,32 c-17.664,0-32,14.336-32,32s 14.336,32, 32,32L 32,386.944 
	C 13.392,393.552,0,411.136,0,432c0,26.512, 21.488,48, 48,48c 20.864,0, 38.448-13.392, 45.056-32L 128,448 c0,17.664, 14.336,32, 32,32s 32-14.336, 32-32l 32,0 
	c0,17.664, 14.336,32, 32,32s 32-14.336, 32-32l 32,0 c0,17.664, 14.336,32, 32,32s 32-14.336, 32-32l 34.944,0 C 425.552,466.608, 443.12,480, 464,480c 26.496,0, 48-21.488, 48-48
	c0-20.864-13.408-38.448-32-45.056L 480,352 c 17.664,0, 32-14.336, 32-32s-14.336-32-32-32l0-32 c 17.664,0, 32-14.336, 32-32s-14.336-32-32-32l0-32 C 497.664,160, 512,145.664, 512,128z
	 M 416,368c0,8.832-7.152,16-16,16L 112,384 C 103.168,384, 96,376.832, 96,368l0-288 c0-8.848, 7.168-16, 16-16l 288,0 c 8.848,0, 16,7.152, 16,16L 416,368 z"  />
<glyph unicode="&#xe1d4;" d="M 480,224c0-123.712-100.288-224-224-224S 32,100.288, 32,224c0,54.528, 19.616,104.368, 52,143.2
	c 2.464,4.544, 5.888,8.496, 10.16,11.36c 0.72,0.752, 1.36,1.6, 2.096,2.336c 0.016-0.368, 0.176-0.72, 0.208-1.088C 101.088,382.4, 106.336,384, 112,384
	c 17.664,0, 32-14.336, 32-32c0-11.136-5.68-20.928-14.32-26.656C 130.24,324.928, 130.64,324.416, 131.216,324C 109.216,296.608, 96,261.872, 96,224
	c0-88.368, 71.632-160, 160-160s 160,71.632, 160,160c0,37.872-13.216,72.608-35.216,100c 0.576,0.416, 0.992,0.928, 1.536,1.344
	C 373.68,331.072, 368,340.864, 368,352c0,17.664, 14.336,32, 32,32c 5.664,0, 10.912-1.6, 15.536-4.192c 0.032,0.368, 0.192,0.72, 0.224,1.088
	c 0.72-0.736, 1.36-1.584, 2.096-2.336c 4.272-2.864, 7.68-6.816, 10.16-11.36C 460.368,328.368, 480,278.528, 480,224z M 272,192l-32,0 
	c-8.848,0-16,7.152-16,16L 224,432 c0,8.832, 7.152,16, 16,16l 32,0 c 8.848,0, 16-7.168, 16-16l0-224 C 288,199.152, 280.848,192, 272,192z"  />
<glyph unicode="&#xe1d5;" d="M 362.016,160.944l-0.16,0.096l-1.056-0.848l 1.504-0.224
	c0,0, 64.832-163.264, 51.248-186.928c-26.704-20.24-141.472,89.52-156.384,104.016l 0.096-0.56c0,0-128.944-128.768-158.8-105.744
	c-17.888,12.992, 47.152,192.48, 47.152,192.48l 0.304,0.048c-23.888,13.648-155.088,106.336-145.392,139.696C 0.816,323.056, 183.152,321.664, 188.96,320.88
	C 189.664,324.96, 220.912,480, 256.016,480c 35.28,0, 65.6-158.688, 65.968-160.896l 0.096,0 l 0.032-0.16l 0.4,0.848c0,0, 188.688,2.896, 188.976-16.816
	C 522.176,266.288, 362.016,160.944, 362.016,160.944z"  />
<glyph unicode="&#xe1d6;" d="M 224,160l-48,0 l0,0.976 C 170.72,160.432, 165.424,160, 160,160C 71.648,160,0,231.632,0,320
	C0,408.368, 71.648,480, 160,480s 160-71.632, 160-160l0-64 l 16,0 l0-16 l 16,0 l0-16 l 16,0 l0-16 l 16,0 l0-16 l 16,0 l0-16 l 16,0 l0-16 l 16,0 l0-16 l 16,0 l0-16 l 16,0 l0-16 l 16,0 l0-16 l 16,0 l0-16 l 16,0 l0-32 l0-64 c0-8.848-7.152-16-16-16l-64,0 
	c-8.848,0-16,7.152-16,16l0,64 l-16,0 l-16,0 l-48,0 c-8.832,0-16,7.152-16,16l0,64 l-64,0 l-16,0  M 128,416C 92.656,416, 64,387.344, 64,352s 28.656-64, 64-64s 64,28.656, 64,64S 163.344,416, 128,416z"  />
<glyph unicode="&#xe1d7;" d="M 288,256L 288,480 c 132.544,0, 224-91.456, 224-224L 288,256 z M 240-32C 107.456-32,0,75.456,0,208
	C0,352.544, 105.456,448, 256,448l0-224 l 224,0 C 480,91.456, 372.544-32, 240-32z"  />
<glyph unicode="&#xe1d8;" d="M 406.16,207.936c 0.752-77.456, 72.944-103.184, 73.776-103.568
	c-0.656-1.744-11.568-36.72-38.096-72.832c-22.944-31.184-46.688-62.24-84.16-62.864c-36.848-0.656-48.688,20.336-90.816,20.336
	c-42.112,0-55.264-19.712-90.112-20.992c-36.144-1.28-63.696,33.664-86.832,64.768c-47.264,63.584-83.36,179.664-34.848,258
	c 24.048,38.912, 67.072,63.552, 113.792,64.208c 35.52,0.592, 69.072-22.304, 90.752-22.304c 21.744,0, 62.496,27.504, 105.312,23.472
	c 17.936-0.688, 68.288-6.72, 100.592-50.704C 462.976,303.904, 405.44,272.8, 406.16,207.936z M 255.296,362c-4.176,29.424, 11.392,60.016, 29.184,79.232
	C 304.336,462.88, 337.84,478.976, 365.504,480c 3.536-29.984-9.44-60.080-28.624-81.744C 317.664,376.624, 286.16,359.776, 255.296,362z"  />
<glyph unicode="&#xe1d9;" d="M 432-32L 80-32 c-8.848,0-16,7.152-16,16L 64,320 l 16,0 l0,0l 128,0 c 8.848,0, 16,7.168, 16,16L 224,416 L 224,464 L 224,480 l 208,0 
	c 8.848,0, 16-7.168, 16-16l0-480 C 448-24.848, 440.848-32, 432-32z M 192,480l0-64 l0-64 L 64,352 L 192,480z"  />
<glyph unicode="&#xe1da;" d="M 496,288L 320,288 L 320,464 c0,8.832-7.152,16-16,16l-96,0 c-8.848,0-16-7.168-16-16l0-176 L 16,288 
		c-8.848,0-16-7.168-16-16l0-96 c0-8.848, 7.152-16, 16-16l 176,0 l0-176 c0-8.848, 7.152-16, 16-16l 96,0 c 8.848,0, 16,7.152, 16,16L 320,160 l 176,0 c 8.848,0, 16,7.152, 16,16l0,96 
		C 512,280.832, 504.848,288, 496,288z"  />
<glyph unicode="&#xe1db;" d="M 16,288l 480,0 c 8.848,0, 16-7.168, 16-16l0-96 c0-8.848-7.152-16-16-16L 16,160 c-8.832,0-16,7.152-16,16l0,96 
	C0,280.832, 7.168,288, 16,288z"  />
<glyph unicode="&#xe1dc;" d="M 320,288l-96-160l-63.52,46.336L 160,176l-3.776,1.456l 2.944-2.16L 64,96l0-32 l 384,0 l0,32 l-48,144L 320,288z M 144,272c 26.496,0, 48,21.488, 48,48
		s-21.504,48-48,48s-48-21.488-48-48S 117.504,272, 144,272z M 496,448L 16,448 C 7.168,448,0,440.832,0,432l0-416 c0-8.848, 7.168-16, 16-16l 480,0 c 8.848,0, 16,7.152, 16,16L 512,432 
		C 512,440.832, 504.848,448, 496,448z M 480,48c0-8.848-7.152-16-16-16L 48,32 c-8.832,0-16,7.152-16,16L 32,400 c0,8.832, 7.168,16, 16,16l 416,0 c 8.848,0, 16-7.168, 16-16L 480,48 z"  />
<glyph unicode="&#xe1dd;" d="M 496,288L 16,288 c-8.832,0-16-7.168-16-16l 16-256c0-8.848, 7.168-16, 16-16l 448,0 c 8.848,0, 16,7.152, 16,16l 16,256C 512,280.832, 504.848,288, 496,288z M 496,384L 320,384 
		l-32,48c0,8.832-7.152,16-16,16L 80,448 C 71.168,448, 64,440.832, 64,432l0-48 L 16,384 C 7.168,384,0,376.832,0,368l0-32 c0-8.832, 7.168-16, 16-16l 480,0 c 8.848,0, 16,7.168, 16,16L 512,368 
		C 512,376.832, 504.848,384, 496,384z"  />
<glyph unicode="&#xe1de;" d="M 496,384l-88,0 L 384,432c0,8.832-7.152,16-16,16L 144,448 C 135.152,448, 128,440.832, 128,432L 104,384L 16,384 
		C 7.168,384,0,376.832,0,368l0-352 c0-8.848, 7.168-16, 16-16l 480,0 c 8.848,0, 16,7.152, 16,16L 512,368 C 512,376.832, 504.848,384, 496,384z M 256,64c-70.688,0-128,57.312-128,128
		c0,70.688, 57.312,128, 128,128s 128-57.312, 128-128C 384,121.312, 326.688,64, 256,64z M 256,256c-35.344,0-64-28.656-64-64s 28.656-64, 64-64s 64,28.656, 64,64
		S 291.344,256, 256,256z"  />
<glyph unicode="&#xe1df;" d="M 507.44,16.752c 6.096-6.096, 6.096-15.984,0-22.096l-22.096-22.096
	c-6.112-6.096-16-6.096-22.096,0l-154.688,154.688c-1.68,1.68-2.8,3.664-3.552,5.776C 273.28,109.84, 234.32,96, 192,96
	C 85.968,96,0,181.968,0,288C0,394.032, 85.968,480, 192,480c 106.032,0, 192-85.968, 192-192c0-42.32-13.84-81.28-37.024-113.008
	c 2.112-0.752, 4.096-1.856, 5.776-3.552L 507.44,16.752z M 192,416c-70.688,0-128-57.312-128-128c0-70.688, 57.312-128, 128-128s 128,57.312, 128,128
	C 320,358.688, 262.688,416, 192,416z"  />
<glyph unicode="&#xe1e0;" d="M 506.816,275.536c-3.376,16.432-8.4,32.64-14.944,48.112
	c-6.4,15.184-14.352,29.808-23.616,43.488c-9.152,13.552-19.664,26.288-31.232,37.856c-11.6,11.6-24.336,22.112-37.872,31.248
	c-13.68,9.264-28.336,17.2-43.504,23.616c-15.472,6.512-31.664,11.584-48.112,14.928C 290.688,478.24, 273.344,480, 256,480s-34.688-1.76-51.568-5.216
	c-16.432-3.344-32.624-8.4-48.096-14.928C 141.168,453.44, 126.528,445.504, 112.848,436.24C 99.296,427.104, 86.544,416.592, 74.976,404.992
	c-11.584-11.568-22.080-24.304-31.232-37.856C 34.48,353.472, 26.544,338.848, 20.128,323.664c-6.544-15.472-11.568-31.68-14.944-48.112
	C 1.744,258.704,0,241.344,0,224.032c0-17.392, 1.744-34.752, 5.184-51.6c 3.376-16.416, 8.384-32.624, 14.944-48.080
	c 6.416-15.168, 14.352-29.84, 23.616-43.52c 9.152-13.552, 19.664-26.272, 31.232-37.856c 11.584-11.568, 24.336-22.064, 37.872-31.216
	c 13.68-9.248, 28.336-17.2, 43.504-23.616c 15.472-6.56, 31.664-11.552, 48.096-14.944C 221.312-30.256, 238.656-32, 256-32s 34.688,1.744, 51.552,5.216
	c 16.448,3.392, 32.64,8.368, 48.112,14.944c 15.168,6.4, 29.808,14.352, 43.504,23.616c 13.552,9.152, 26.288,19.664, 37.872,31.216
	c 11.568,11.6, 22.080,24.32, 31.232,37.856c 9.248,13.664, 17.2,28.336, 23.616,43.52c 6.528,15.456, 11.568,31.664, 14.944,48.080
	C 510.256,189.28, 512,206.64, 512,224.032C 512,241.344, 510.256,258.704, 506.816,275.536z M 474.56,226.192c-3.152,0.688-77.152,16.592-152.288,7.152
	c-1.536,3.744-3.088,7.504-4.72,11.28c-4.528,10.72-9.44,21.312-14.528,31.728c 86.336,35.232, 121.408,85.92, 121.808,86.528
	C 455.52,325.632, 474.064,278.064, 474.56,226.192z M 400.4,388.064c-0.528-0.864-31.68-48.24-114.208-79.152c-37.376,68.672-78.432,123.2-81.728,127.536
	C 220.992,440.464, 238.256,442.624, 256,442.624C 311.36,442.624, 361.872,422, 400.4,388.064z M 203.648,436.272c-0.016-0.032-0.048-0.048-0.048-0.048
	s-0.256-0.064-0.656-0.144C 203.152,436.144, 203.408,436.192, 203.648,436.272z M 162.72,421.728c 2.912-3.904, 43.344-58.704, 81.184-125.968
	C 138.928,267.872, 47.824,268.96, 42.048,269.072C 56.256,336.784, 101.744,392.912, 162.72,421.728z M 37.376,224.032c0,2.32, 0.096,4.592, 0.192,6.896
	c 3.84-0.080, 111.872-2.528, 224.432,31.152c 6.288-12.256, 12.272-24.72, 17.744-37.168c-2.912-0.816-5.744-1.664-8.624-2.608
	c-117.984-38.128-177.824-144.288-177.824-144.288s 0.080-0.064, 0.096-0.096C 58.576,116.64, 37.376,167.84, 37.376,224.032z M 256,5.392
	c-52.912,0-101.44,18.816-139.264,50.096c 2.896-2.336, 4.896-3.824, 4.896-3.824s 41.904,91.408, 171.6,136.56c 0.464,0.192, 0.96,0.32, 1.44,0.464
	c 30.768-79.92, 43.472-146.896, 46.704-165.984C 315.12,11.568, 286.288,5.392, 256,5.392z M 378.176,42.672c-2.24,13.216-13.872,77.376-42.544,156.176
	c 70.576,11.28, 131.728-8.080, 136.256-9.568C 462.144,128.384, 427.264,75.824, 378.176,42.672z"  />
<glyph unicode="&#xe1e1;" d="M 478.944-15.552L 267.12,472.944C 265.264,477.232, 261.024,480, 256.352,480
		s-8.912-2.768-10.752-7.040L 33.056-15.536c-1.584-3.664-1.216-7.84, 0.96-11.152C 36.192-29.984, 39.872-32, 43.824-32L 224-32 l0,106.688 l-63.984,21.328
		c-8.848,0-16,7.152-16,16s 7.152,16, 16,16L 224,106.688L 224,208 c0,8.848, 7.152,16, 16,16l 32,0 c 8.848,0, 16-7.152, 16-16l0-24 l 47.984,24c 8.848,0, 16-7.152, 16-16
		s-7.152-16-16-16L 288,152.016l0-56 l 79.984,48c 8.848,0, 16-7.152, 16-16s-7.152-16-16-16l-79.984-48L 288-32 l 180.176,0 c 3.968,0, 7.648,2, 9.808,5.312
		C 480.16-23.392, 480.496-19.184, 478.944-15.552z"  />
<glyph unicode="&#xe1e2;" d="M 421.344-32C 420.944,197.616, 220.592,385.264,0,385.696L0,480 c 270.656,0, 512-230.304, 512-512L 421.344-32 
	z M 343.6-31.968l-90.608,0 c 0.304,56.384-28.336,119.488-73.664,166.736C 134.256,182.4, 54.368,212.416, 0.224,212.128L 0.224,306.4 
	C 169.264,302.752, 340.16,143.088, 343.6-31.968z M 64.256,96.048c 35.312,0, 63.936-28.656, 63.936-64c0-35.328-28.624-63.984-63.936-63.984
	S 0.32-3.28, 0.32,32.048C 0.32,67.392, 28.944,96.048, 64.256,96.048z"  />
<glyph unicode="&#xe1e3;" d="M 437.008,42.992c-99.968-99.984-262.064-99.984-362.032,0
	c-99.984,99.968-99.984,262.064,0,362.032c 99.968,99.984, 262.064,99.984, 362.032,0C 536.992,305.040, 536.992,142.96, 437.008,42.992z M 120.24,88.24
	c 67.248-67.248, 171.888-73.984, 246.864-20.592L 99.648,335.104C 46.256,260.128, 52.992,155.504, 120.24,88.24z M 391.76,359.76
	C 324.512,427.008, 219.872,433.744, 144.912,380.352l 267.456-267.44C 465.744,187.872, 459.008,292.512, 391.76,359.76z"  />
<glyph unicode="&#xe1e4;" d="M 256,480C 114.608,480,0,365.376,0,224c0-141.376, 114.608-256, 256-256s 256,114.624, 256,256
		C 512,365.376, 397.392,480, 256,480z M 288,34.88L 288,96 c0,8.848-7.152,16-16,16l-32,0 c-8.848,0-16-7.152-16-16l0-61.12 C 143.664,48.384, 80.288,111.68, 66.768,192L 128,192 
		c 8.848,0, 16,7.152, 16,16l0,32 c0,8.848-7.152,16-16,16L 66.88,256 C 80.384,336.352, 143.68,399.712, 224,413.232L 224,352 c0-8.832, 7.152-16, 16-16l 32,0 c 8.848,0, 16,7.168, 16,16
		L 288,413.232 c 80.32-13.52, 143.616-76.88, 157.12-157.232L 384,256 c-8.848,0-16-7.152-16-16l0-32 c0-8.848, 7.152-16, 16-16l 61.232,0 
		C 431.712,111.68, 368.336,48.384, 288,34.88z"  />
<glyph unicode="&#xe1e5;" d="M 96,480l0-512 l 320,255.632L 96,480z"  />
<glyph unicode="&#xe1e6;" d="M 176,480L 80,480 C 71.152,480, 64,472.832, 64,464l0-480 c0-8.848, 7.152-16, 16-16l 96,0 c 8.848,0, 16,7.152, 16,16L 192,464 
				C 192,472.832, 184.848,480, 176,480z M 432,480l-96,0 c-8.848,0-16-7.168-16-16l0-480 c0-8.848, 7.152-16, 16-16l 96,0 c 8.848,0, 16,7.152, 16,16L 448,464 C 448,472.832, 440.848,480, 432,480
				z"  />
<glyph unicode="&#xe1e7;" d="M 496,240l-82.368,0 c-2.912,21.712-8.816,42.096-16.944,60.688L 448,352c 8.848,0, 16,7.168, 16,16L 464,448 
	c0,8.832-7.152,16-16,16s-16-7.168-16-16l0-80 l-52.896-35.264c-8.144,12.016-17.328,22.912-27.6,32.080C 346.688,429.488, 305.776,480, 256,480
	s-90.688-50.512-95.52-115.184C 150.224,355.664, 141.024,344.768, 132.896,332.736L 80,368L 80,448 c0,8.832-7.168,16-16,16S 48,456.832, 48,448l0-80 c0-8.832, 7.168-16, 16-16
	l 51.312-51.312C 107.184,282.096, 101.28,261.712, 98.368,240L 16,240 c-8.832,0-16-7.152-16-16s 7.168-16, 16-16l 82.288,0 c 1.776-13.344, 4.752-58.16, 8.592-70.4
	l-46.672-58.368C 53.248,77.472, 48,71.488, 48,64l0-80 c0-8.848, 7.168-16, 16-16s 16,7.152, 16,16l0,80 l 40.336,40.336C 147.344,51.28, 194.336,16, 248,16
	c 2.704,0, 5.328,0.48, 8,0.672C 258.672,16.48, 261.296,16, 264,16c 53.664,0, 100.656,35.28, 127.664,88.336L 432,64l0-80 c0-8.848, 7.152-16, 16-16
	s 16,7.152, 16,16l0,80 c0,7.488-5.248,13.472-12.192,15.216L 405.12,137.6c 3.84,12.256, 6.816,57.056, 8.592,70.4L 496,208 c 8.848,0, 16,7.152, 16,16
	S 504.848,240, 496,240z"  />
<glyph unicode="&#xe1e8;" d="M 496,416L 16,416 C 7.168,416,0,408.832,0,400l0-352 c0-8.848, 7.168-16, 16-16l 480,0 c 8.848,0, 16,7.152, 16,16L 512,400 
			C 512,408.832, 504.848,416, 496,416z M 480,80c0-8.848-7.152-16-16-16L 48,64 c-8.832,0-16,7.152-16,16L 32,368 c0,8.832, 7.168,16, 16,16l 416,0 c 8.848,0, 16-7.168, 16-16L 480,80 z
			 M 151.968,285.744L 90.288,347.44c-6,6-15.728,6-21.728,0s-6-15.728,0-21.728L 122.288,272l-53.728-53.728
			c-6-6-6-15.712,0-21.712s 15.728-6, 21.728,0l 61.68,61.68c 1.216,0.672, 2.448,1.28, 3.472,2.304
			C 158.592,263.696, 160,267.872, 159.824,272c 0.16,4.128-1.232,8.304-4.384,11.44C 154.416,284.464, 153.184,285.072, 151.968,285.744z M 304,224l-96,0 
			c-8.832,0-16-7.168-16-16c0-8.848, 7.168-16, 16-16l 96,0 c 8.848,0, 16,7.152, 16,16C 320,216.832, 312.848,224, 304,224z"  />
<glyph unicode="&#xe1e9;" d="M 464,480L 48,480 C 39.168,480, 32,472.832, 32,464l0-480 c0-8.848, 7.168-16, 16-16l 416,0 c 8.848,0, 16,7.152, 16,16L 480,464 
			C 480,472.832, 472.848,480, 464,480z M 80,32c-8.832,0-16,7.152-16,16s 7.168,16, 16,16s 16-7.152, 16-16S 88.832,32, 80,32z M 80,96c-8.832,0-16,7.152-16,16
			s 7.168,16, 16,16s 16-7.152, 16-16S 88.832,96, 80,96z M 80,160c-8.832,0-16,7.152-16,16s 7.168,16, 16,16s 16-7.152, 16-16S 88.832,160, 80,160z M 80,224
			c-8.832,0-16,7.168-16,16s 7.168,16, 16,16s 16-7.168, 16-16S 88.832,224, 80,224z M 80,288c-8.832,0-16,7.168-16,16s 7.168,16, 16,16s 16-7.168, 16-16S 88.832,288, 80,288
			z M 80,352C 71.168,352, 64,359.168, 64,368s 7.168,16, 16,16s 16-7.168, 16-16S 88.832,352, 80,352z M 80,416C 71.168,416, 64,423.168, 64,432s 7.168,16, 16,16s 16-7.168, 16-16S 88.832,416, 80,416z
			 M 384,16c0-8.848-7.152-16-16-16L 144,0 c-8.832,0-16,7.152-16,16L 128,176 c0,8.848, 7.168,16, 16,16l 224,0 c 8.848,0, 16-7.152, 16-16L 384,16 z M 384,240
			c0-8.832-7.152-16-16-16L 144,224 c-8.832,0-16,7.168-16,16L 128,432 c0,8.832, 7.168,16, 16,16l 224,0 c 8.848,0, 16-7.168, 16-16L 384,240 z M 432,32c-8.848,0-16,7.152-16,16
			s 7.152,16, 16,16s 16-7.152, 16-16S 440.848,32, 432,32z M 432,96c-8.848,0-16,7.152-16,16s 7.152,16, 16,16s 16-7.152, 16-16S 440.848,96, 432,96z M 432,160
			c-8.848,0-16,7.152-16,16s 7.152,16, 16,16s 16-7.152, 16-16S 440.848,160, 432,160z M 432,224c-8.848,0-16,7.168-16,16s 7.152,16, 16,16s 16-7.168, 16-16
			S 440.848,224, 432,224z M 432,288c-8.848,0-16,7.168-16,16s 7.152,16, 16,16s 16-7.168, 16-16S 440.848,288, 432,288z M 432,352c-8.848,0-16,7.168-16,16s 7.152,16, 16,16
			s 16-7.168, 16-16S 440.848,352, 432,352z M 432,416c-8.848,0-16,7.168-16,16s 7.152,16, 16,16s 16-7.168, 16-16S 440.848,416, 432,416z"  />
<glyph unicode="&#xe1ea;" d="M 448,480L 64,480 C 55.168,480, 48,472.832, 48,464l0-96 c0-8.832, 7.168-16, 16-16l 16,0 c 8.832,0, 16,7.168, 16,16l 32,48l 96,0 
	l0-384 l-80-32c-8.832,0-16-7.152-16-16s 7.168-16, 16-16l 224,0 c 8.848,0, 16,7.152, 16,16s-7.152,16-16,16l-80,32L 288,416 l 96,0 l 32-48c0-8.832, 7.152-16, 16-16l 16,0 
	c 8.848,0, 16,7.168, 16,16L 464,464 C 464,472.832, 456.848,480, 448,480z"  />
<glyph unicode="&#xe1eb;" d="M 461.296,175.696l-45.44,45.456L 415.856-16 c0-8.848-7.136-16-15.984-16l-47.952,0 l0,0l-15.984,0 
	c-8.848,0-15.984,7.152-15.984,16l0,31.984 l0,15.984 l0,47.984 l0,95.952 c0,8.848-7.152,16-16,16l-95.92,0 c-8.832,0-15.984-7.152-15.984-16l0-95.952 l0-63.968 l0-16 
	L 192.048-16 c0-8.848-7.168-16-15.984-16l-16,0 l0,0L 112.128-32 c-8.832,0-16,7.152-16,16L 96.128,221.152 l-45.44-45.456L0,226.416L 253.472,480L 256,477.472L 258.528,480
	l 125.36-125.424L 383.888,447.792 l 63.952,0 l0-157.2 L 512,226.416L 461.296,175.696z"  />
<glyph unicode="&#xe1ec;" d="M 256-32C 114.624-32,0,82.624,0,224C0,365.376, 114.624,480, 256,480c 141.376,0, 256-114.624, 256-256
	C 512,82.624, 397.376-32, 256-32z M 463.488,245.456c 0.416,0.208, 0.64,0.56, 0.8,1.12c 0.336-1.776, 1.152-3.344, 2.464-4.496
	c 0.032-0.16-0.048-0.128, 0.032-0.352c 0.128,0, 0.224,0.096, 0.336,0.096C 468.464,240.736, 470.128,240, 472,240c 2.88,0, 5.28,1.6, 6.688,3.856
	c 0.096-0.112, 0.256-0.256, 0.336-0.384c-0.016,0.256-0.048,0.512-0.080,0.768C 479.568,245.376, 480,246.624, 480,248
	c0,4.416-3.6,8-8,8c-2.816,0-5.152-1.536-6.592-3.712c-0.064,0.048,0,0.24-0.176,0.176
	c 0.208,0.608-0.352,2.16-1.232,3.824L 464,248 C 464,247.088, 463.744,246.272, 463.488,245.456z M 95.872,247.856c0,2.416-5.504,6.528-6.928,6.528
	c0,0.432-2.24,5.36-3.088,5.36c0,1.664-5.84,9.136-6.768,5.872c-0.608-2.112, 4.464-4.96, 4.464-7.408
	c 0.944,0, 4.912-7.52, 5.696-8.832c 8.672-14.656-6.48-4.64-6.48,1.568c-1.936,0.96-4.992,8.336-4.992,10.352
	c-1.136,0.912-4.496,8.032-4.224,8.032c0,4.672-2.576,6.912-7.696,6.912c-0.24,0.464-4.544,6.512-4.624,6.512
	c0,1.92-3.456,7.872-5.376,8.816c0,3.984-2.048,8.896-1.136,13.024c0,4.336-0.224,9.248-1.696,13.696C 39.664,289.6, 32,257.728, 32,224
	c0-96.656, 61.344-178.784, 147.136-210.192c 0.096,7.936, 0.688,17.44, 2.496,17.44c0,1.184, 1.008,6.144, 1.92,6.144c0,3.040, 0.368,6.704,0,10.352
	c-1.136,2.288, 1.504,5.216, 2.304,8.816c 4.432,2.224, 1.296,24.528, 4.64,24.528c0,11.152, 2.496,17.648, 0.752,27.984
	c 0.848,0-5.040,6.256-4.992,6.144c-5.648,0-9.6,9.056-9.6,13.024c-0.544,1.744-1.936,4.352-1.936,6.512
	c 1.296,0-8.080,13.696-8.080,13.424c-4.96,2.752, 0.272,6.592, 0.768,11.104c-4.304,1.424, 0.048,13.040, 1.92,13.040
	c 0.192,1.472, 0.96,2.48, 2.32,3.056c 0.96-3.824, 5.424,1.904, 1.92,1.904c0,2.528-0.288,7.936,0,9.2
	c0,3.904-3.456,11.552-6.144,3.456c-2.88,1.424-10.144,1.168-10.768,5.744c 0.448,2.256-4.144,6.864-5.76,7.664
	c 1.504,3.936-7.792,9.2-11.152,9.2c0,0.848-1.776,0.464-2.304,1.536c-3.424,0-4.208,4.608-8.080,4.608
	c-4.464,0-8.96,3.056-13.072,3.056c-1.376,2.736-7.76,1.664-9.232,4.608c-3.344,0-4.656,6.336-4.752,8.672
	C 102.16,237.904, 99.872,247.856, 95.872,247.856z M 419.968,376.256C 419.936,376.16, 420,376.224, 419.84,375.904c 0.24,0, 0.528-0.272, 0.8-0.384
	C 420.4,375.76, 420.192,376, 419.968,376.256z M 424.784,370.96c 0.56-1.088, 0.976-2.096, 0.848-2.72c 0.56-0.016, 0.832,0.288, 1.28,0.4
	C 426.224,369.424, 425.472,370.16, 424.784,370.96z M 438.688,298.064c 0.256,6.912-5.76,5.76-7.664,9.6c-1.984,0-2.704,1.536-5.392,1.536
	c-1.744,0.592-3.12,0.176-4.128-1.248c-4.112-1.568-1.632,2-4.72,2c 0.144,3.952-1.424,5.040-5.776,4.608
	c-2.496-5.632-6.336-9.008-5.76-15.344c 1.84-0.416, 1.52-0.832, 1.152-2.672c 2.448-0.128, 17.296,0.768, 17.296,2.304
	c 0.512,0, 3.088-5.296, 3.088-0.768c 2.064,0, 3.152-4.848, 8.080-3.44C 434.864,293.648, 443.088,298.064, 438.688,298.064z M 439.472,216.416
	c 0.288,1.408-0.704,2.032-1.536,3.456c 2.192,0-6.928,16.912-6.928,19.552c-1.392,0.688-3.168,5.52-3.488,7.28
	c-1.872,1.248-3.808,5.344-4.608,7.664c-1.904,1.264-6.544,6.928-7.296,9.584c 2.752-0.304, 6.912-0.864, 6.912,2.688
	c-1.856,0-2.128,2.288-0.368,2.288c-0.576,2.352, 1.248,4.048, 1.648,5.888c 0.48,2.224, 1.424,5.648, 1.424,8.304
	c-2.64,0-3.28-0.448-5.376-1.152c0-1.552-4.688,0.384-5.376,0.384c-1.008,2.016-8.32-2.624-10.368,1.536
	c-3.312,2.992-2.416,5.296-3.488,9.52c-0.544,2.144-3.472,2.272-5.248,2.624c-5.008,0.976-1.392-5.968-1.664-7.552
	c 3.072,0-1.936-3.808-1.936-5.744c-5.184,1.12-3.456,6.896-6.512,8.432c-0.912,1.536-0.192,2.688-2.32,2.688
	c0,2.048, 1.088,5.76-1.152,6.512c0,0.992-4.352,1.392-4.992,2.688c-2.752,0-9.152,10.4-11.12,6.896
	c-1.232-2.24, 1.040-2.784, 1.504-4.608c 3.984,0.784, 3.6-6.56, 8.464-5.744c0-1.024, 0.128-2.064, 0.368-3.072
	c 3.6,0.848, 3.184-2.672, 4.992-2.672c-1.312-1.744-5.472,2.784-4.336-1.024c 0.656-2.208, 0.288-4.096-2.576-6.256
	c0,2.384-0.192,8.816-2.688,8.816c-1.696,3.392-6.736,2.576-8.864,5.744c-1.728,0-2.4,5.376-5.376,5.744
	c-0.56-0.784-2.656-1.536-3.472-1.536c-1.616-3.248-10.752-0.336-10.752-0.768c-0.144-0.032-5.12-12.192-5.408-13.792
	c-0.56-3.44-3.328-3.504-4.16-6.768c-0.416-1.632-10.448-0.864-10.448-2.064c-4.336,1.44-8.080,4.48-8.080,9.2
	c-0.352,0, 0.816,12.048, 1.552,13.808c 0.88-0.24, 1.056-0.544, 1.552-1.536c 2.656,0.992, 8.848-0.656, 8.848,2.304
	c 2.576-0.064, 3.344-1.088, 2.304-3.072c 2.4-0.448, 6.544-1.056, 6.544,2.304c-1.408,0-1.552,0.128-1.552,1.536
	c 4.608,4.784-3.456,9.104-3.456,11.488c-1.632,0.544-4.96,4.080-2.592,2.752c 2-1.104, 9.312-3.392, 6.432,1.472
	c 0.192,0.064, 0.32,0.192, 0.368,0.368c 0.816-0.576, 4.256-4.112, 4.256-0.768c 0.944,0, 4.592,2.304, 1.536,2.304
	c 0.288,1.728, 0.224,3.168, 0.368,4.224c 4.88-2.624, 2.16,1.792, 4.624,3.44c0-3.184, 2.624,1.536, 4.224,1.536
	c 1.904,2.832, 6.256,0.64, 7.312,3.84c-2.352,0.768-1.92,6.656-1.92,8.8c 2.832-0.464, 5.984,3.824, 6.416,0.88
	c 0.16-1.136, 0.304-4.272, 0.88-4.704c 4.208-2.208, 3.088,1.264, 3.088,3.44c-1.408,0-3.28,4.928-3.472,7.296
	c-1.152-0.16-3.008-0.64-3.472-1.52c-4.192,0-7.040,1.52-10.368,1.52c-0.256,0.512-4.256,4.992-3.84,4.992
	c-2.336,4.016, 2.336,2.848, 3.072,3.040c0,3.808, 15.856,3.136, 16.544,9.216c-5.216,0, 5.376,8.832, 5.376,8.8
	c 3.536,3.024, 5.408,5.632, 9.808,5.968c 1.856,0.128, 22.496,5.824, 22.496,3.248c 0.832-0.032, 3.584-0.064, 6.432-0.16
	C 368.256,425.12, 314.864,448, 256,448c-57.008,0-108.896-21.472-148.432-56.56c 0.352-0.8, 0.624-1.568, 0.608-2.112
	C 110.272,389.472, 113.28,390.816, 113.952,388.16C 112.912,388.176, 111.872,388.304, 110.88,388.56c 0.736-5.936-2.592-2.304-5.376-2.304
	c0,0.144-1.232,0.64-2.544,0.992c-0.848-0.8-1.744-1.552-2.592-2.352C 100.464,384.64, 100.32,384.624, 100.48,384.336
	c 0.896,0, 0.432-1.392, 2.992-2.24C 106.432,381.088, 109.68,380.528, 112.8,380.032c 2.528-0.4, 3.984,0.464, 6.144,0.464
	c0,0.32, 5.28,2.672, 1.552,2.672c 0.512,2.112-0.432,2.64-2.704,2.672c 0.192,2.24, 5.52,0.768, 7.696,0.768
	c 1.664,2.8, 0.048,2.464, 1.52,5.008c 1.76,3.12, 3.856,0.416, 5.008,3.408C 133.76,394.384, 135.312,393.44, 135.872,391.232
	C 137.264,390.080, 144.336,379.648, 144.336,387.024C 146.864,386.176, 148.128,381.44, 148.176,378.96c 4.592,0.672, 4.992,4.112, 4.992,7.68
	c 1.056,0-0.384,1.712-0.384,2.304C 154.496,389.568, 156.64,387.312, 156.64,389.696c 0.736,0, 0.768-0.736, 0.768-1.536
	c 2.384-0.464, 3.92,0.272, 5.376-0.24c 1.008-0.352, 0.496-5.584, 0.032-7.424c-0.576-2.336-5.040-2.368-5.040-3.456
	c-5.056-3.776, 5.968-5.744, 7.696-8.048c-1.040,0-4.992,0.512-4.992,0.752c-2.496,0-8.544-2.64-10.768-0.752
	c 3.104,0, 4.144,3.728, 4.624,7.28c-2.864,1.072-6.24-0.688-7.040-3.536C 145.952,368.032, 142.832,372.928, 141.264,369.76
	C 140.656,369.568, 135.104,366.992, 135.104,367.856c-6.24-0.88-4.608-6.176-4.608-11.888C 132.976,354.48, 138.016,350.24, 137.792,347.92
	C 143.392,346.928, 145.44,346.336, 150.48,345.616c 0.416-0.816, 2.080-1.584, 3.088-1.904c0-3.296, 2.992-2.704, 5.76-2.704
	c0,4.208, 4.896-3.504, 5.376-4.976c-0.672,0, 1.152-4.304, 1.536-5.76c-0.768,0.272-1.008,0-0.768-0.768
	c 2.432-0.896, 6.288-0.64, 6.928,1.92c-2.336,0-1.552,2.672-1.552,4.224c-2.4,1.6-2.032,4.688, 0.384,5.36
	c0-2.176, 7.92,1.36, 3.456,3.056c 1.088,2.448, 1.824,6.208, 0.048,8.336c-1.136,1.344-2.56,0-3.12,2.016
	c 3.024,0.752, 0.8,6.512, 0.768,9.2c 0.96,0.368, 3.456-0.608, 3.456,0c 2.96,0, 7.888-3.744, 9.616,0.784
	c 4.944-2.256, 1.008-4.4, 6.16-2.688c0-1.216, 5.808-6.896, 6.544-6.896c0-0.272-0.144-1.92, 1.136-1.92
	c0-1.232-0.768,0.704-0.768-1.52c 0.72-0.080, 4.624-0.784, 4.624,0.752c 2.48,0, 4.224,3.040, 4.224,5.36
	c 1.552,1.008, 4.272-8.432, 6.144-8.432c 1.376-2.144, 5.776-5.264, 5.776-7.28c 0.928-0.944, 1.904-0.688, 1.904-3.456
	c 1.168,0, 3.472,4.592, 3.472,0.384c 1.088,0, 4.256-2.336, 4.624-4.208c-2.768,0-0.144-2.688-1.568-2.688
	c0-2.656-5.936-0.544-7.28-0.384c-1.84-8.24-12.944-2.32-19.664-4.448c-3.536-1.12-10.368-8.912-10.736-12.8
	c 4.288-0.048, 6.176,3.712, 10,4.992c 3.12,0, 3.728,1.888, 6.544,2.672c0-0.784, 0.768-0.368, 0.768-1.152
	c-5.472,0-2.144-3.536-0.544-6.112c 0.992-1.6, 2.128-2.368, 3.392-2.864c-0.528-0.928-0.96-1.856-1.296-2.896
	c0-0.016-0.016,0-0.016-0.016c-1.040-0.352-3.072-1.104-3.472-1.92c-6.192-0.688-3.136-0.272-2.72,1.216
	c 0.224-0.528, 2.448-0.048, 2.352-0.064c-0.368,1.856-0.928,1.6-0.384,2.672c-3.36,0-4.992-1.536-7.696-1.536
	c-0.448-0.912-2.8-3.072-3.84-3.072c-0.784-2.368-2.56-6.672-4.624-8.048c0,0.624-5.472-3.44-4.992-3.44
	c-1.216-1.968-2.544-1.904-3.088-4.976c-0.368-0.192-1.92-5.328-1.92-6.128c-2.384-1.584-3.264-8.048-7.312-8.048
	c-2.48-4.928-6.928-4.272-6.928-10.736c 1.504-1.536, 2.080-8.336, 2.544-10.512c 0.576-2.704, 1.472-5.52-2.144-5.584
	c-0.256,0.4-2.784,4.224-2.32,4.224c0,1.584-1.936,6.656-3.072,8.24c-1.52,2.128-4.336-0.336-6.544,0.592
	c-0.944,1.888-7.328,2.304-9.6,2.304c 0.368-1.424, 1.408-1.872, 1.536-3.456c-1.888-0.768-2.976-1.632-4.928-1.36
	c-3.344,0.464-2.944,3.072-6.624,2.704c-5.888-0.592-10-5.472-10-11.312c-0.656,0-0.656-11.504,0-11.504
	c0-3.248, 2.688-5.6, 2.688-8.048c 2.608,0, 5.536-5.744, 8.080-5.744c 0.288-2.032-1.28-2.352, 3.072-2.32
	c0,0.224, 2.368,1.488, 2.688,3.072c-3.008,0.736-0.016,4.608, 1.92,5.36c0-2.736, 3.84,0.912, 3.84,1.152
	c 0.432,0.176, 4.24,1.536, 4.24,1.536c0,3.104, 2.896-0.304, 0.768-1.536c-2.080,0-1.92-3.456-3.072-3.456
	c-0.496-2.464-1.472-4.608-2.048-7.008c-0.736-2.96, 1.664-3.264, 0.896-6.032c 3.056-0.576, 6.144-0.016, 9.232,0
	c 0.016,0.544-0.096,1.072-0.384,1.536c 4.464,0, 0.384-8.432, 3.088-8.432c0-3.184, 1.536-5.664, 1.536-7.664
	c 2.080-1.376, 3.328-3.216, 2.688-5.744c 2.56-0.336, 8.064-0.992, 8.064,2.304c 3.888,0, 4.16-2.64, 3.872-5.36
	c 7.744,0, 2.896,7.664, 6.128,7.664c 0.304,1.264, 0.832,1.488, 1.584,0.656c 1.584-0.848, 2.784,1.584, 4.048,2.352
	c 0.4,0.272, 1.808,1.088, 2.064,1.088c 1.088-0.656, 1.184-0.464, 1.664-1.2c 2.112,0.016, 4.24,1.2, 6.048,2.448
	c 2.768-0.336, 1.872-6.288, 7.056-6.656c 2.080-0.144, 6.896-0.72, 8.688,0.512c 0.448,0.304, 2.096-1.040, 2.272-1.616
	c 1.728,0, 1.6-1.504, 2.336-1.472c 0.176-0.336, 0.432-0.464, 0.784-0.368c 0.224-0.656, 1.6-0.848, 2.32-2.672
	c0-1.664, 3.456-1.952, 3.456-3.056c 2.48-1.248-0.848-1.584, 2.96-2.736c 2.096-0.656, 4.032-1.712, 6.288-1.872
	c 0.72,2.736, 3.056-0.368, 4.24-0.368c 0.608-1.248, 0.928-0.304, 1.52-1.536c 3.568-2.976, 1.216-1.824, 2.688-4.992
	c 1.712-1.12, 2.256-5.024, 2.72-7.28c-1.376,0-0.4-5.264-0.4-5.76c-1.664,0, 4.256-3.152, 4.256,0.784
	c 2.432-0.4, 4.032-3.056, 5.76-3.056c-1.008-2.32, 2.688-4.064, 2.688-0.4c 3.648-0.368, 2.672-5.808, 2.32-7.664
	c 2.704,0, 3.488,1.504, 5.792,1.792C 266.064,158.848, 268.848,160, 272,160c 8.848,0, 16-7.152, 16-16c0-7.968-5.936-14.288-13.568-15.504
	c-1.024-1.168-1.952-2.176-2.016-2.176c0-0.768-0.176-8.416-0.4-8.416c0-1.536-1.168-9.968-2.304-9.968
	c0-4.336-2.832-5.12-3.84-9.2c-2.336-1.728-8.656-4.608-9.632-6.512c-1.808,0-3.152-1.536-4.992-1.536
	c-0.256-0.528-4.176-4.224-3.472-4.224c-0.288-2.72, 0.208-9.12-1.264-10.912c-0.992-1.184-2.416-1.056-1.792-2.912
	c-2.16,0, 0.128-1.536-3.28-1.536c-2.144,0-5.968-3.056-6.080-5.648c-0.144-3.168-0.992-5.456-3.712-7.392
	c0-1.088-4.992-1.408-4.992-4.224c 0.464,0,0-5.216,0-5.744c-1.488,0.048-5.136-1.44-5.76-2.672c-5.024,0-4.416-0.512-7.68-2.688
	c0-0.672-0.464-3.056-1.152-3.056c0-3.888-2.768-0.352-5.008-2.32c 0.88,0, 2-3.824, 1.536-3.824
	c0-3.376-2.096-3.664-4.224-6.144c-1.008-0.672-1.968-3.456-2.688-3.456c0-2.272-1.136-4.336-1.136-6.512
	c 0.48,0, 0.032-0.976, 0.368-1.888c 1.072,0.304, 1.104,1.52, 1.536,1.52c0,1.92, 3.056-1.136, 1.152-1.136
	c-1.584-2.4-3.296-2.448-4.24-5.76c-0.96,0-1.792-0.928-2.496-2.016C 215.712,3.008, 235.488,0, 256,0
	c 78.784,0, 147.936,40.768, 187.872,102.288c 0.24,5.664, 1.12,11.072, 1.744,12.944c 1.568-1.152, 2.736-3.312, 3.84,0
	c-2.768,0.544-2.096,1.504-1.152,3.824c 1.056-0.64, 3.184-1.424, 4.912-1.312c 0.528,0.992, 0.944,2.048, 1.472,3.040
	c-1.568,1.216, 0.592,4.368, 1.344,2.832c 0.4,0.768, 0.752,1.568, 1.12,2.336c-0.176,0.048-0.128-0.064-0.384,0.016
	c0,1.392, 0.256,1.216, 1.168,1.92c 0.016-0.144,0-0.144, 0.032-0.272C 471.936,156.848, 480,189.44, 480,224c0,1.136-0.16,2.224-0.176,3.36
	c-0.416-1.568-1.2-3.264-2.304-3.648c0-1.008-11.44-5.984-10.752-8.048c-2.016,0-9.088-2.016-10.384-4.592
	c-1.424,0-7.168-2.032-7.696-3.072C 441.552,207.984, 442.912,216.416, 439.472,216.416z M 472,304l-8.496,0 
	c-0.064,0.080-0.128,0.096-0.192,0.208c-0.432,0-2.24,4.064-1.536,4.992c 0.688,0, 1.008-0.064, 1.376-0.096
	c-0.72,1.76-1.504,3.488-2.288,5.232c-1.728-1.184-3.248-2.688-5.632-2.832c0-0.656-3.408-7.28,0-7.28
	c0-0.128, 0.064-0.224, 0.096-0.336C 451.248,303.504, 448,300.176, 448,296c0-4.416, 3.584-8, 8-8l 3.152,0 
	c 0.192-1.456, 0.976-2.72, 3.776-3.344c 0.88-3.696, 7.472-5.008, 8.464-1.136c-2.784,0-1.872,2.672-1.632,4.48L 472,288 
	c 4.4,0, 8,3.584, 8,8C 480,300.416, 476.4,304, 472,304z M 448.688,199.968c 0.56-0.032, 4.256,0.064, 4.256,0.72
	c 3.344,0, 7.872,0.464, 11.152,1.552c0-4.96-4.176-7.728-3.472-12.656c-2.768,0-1.552-2.848-1.552-3.824
	c-1.792-1.104-2.064-3.12-4.224-4.224c0-2.224-4.992-5.904-6.464-7.808c-1.664-2.128-6.672-5.824-7.328-8.528
	c 0.176,0.64-9.152-9.712-6.976-9.712c0-1.936-2.624-17.248, 0.768-17.248c0-1.344, 2.896-14.192, 1.136-14.192
	c0-4.128-2.688-6.656-2.688-9.952c-1.312-0.896-3.184-1.392-3.84-2.704c-2.352,0-3.488-4.992-4.608-4.992
	c0-5.328-1.552-9.28-1.552-15.328c 0.432,0-3.072-8.624-3.072-9.184c-2.832-1.904-10-8.736-10-12.288c0,0-4.992-7.008-5.76-8.048
	c-1.504,0-13.088-2.176-13.088-3.072c-2.464,0-8.832-1.936-10.368,0.384c0,2.432-1.328,5.52-1.536,8.832
	c-1.184,0-1.376,4.976-2.688,4.976c0,1.056-7.344,15.728-6.16,15.728c0,1.52-1.312,6.512-1.536,6.512c0,5.28-3.856,9.68-3.856,14.56
	c-1.136,0-3.488,10.72-2.304,10.72c0,5.632, 1.968,9.312, 2.784,15.568c 0.912,6.864-0.432,11.040-1.632,15.888
	c-0.656,0-2.864,3.664-3.088,4.592c-3.088,2.048-4.224,6.112-4.224,9.952c 2.016,2.304, 2.816,10.96, 2.32,13.808
	c-3.888,1.84-5.44,1.152-9.632,1.152c-2.48,4.976-19.136,1.904-23.856,1.904c0-2.72-11.6,0.528-12.688,2.688
	c-2.832,0-8.448,6.016-8.448,8.816c-3.104,2.064-8.064,12.336-8.064,15.712c-2.688,1.344-1.872,6.528-0.4,6.528
	c 0.368,1.44-0.944,5.984-1.568,8.144c-0.464,1.616, 1.568,3.36, 1.568,5.28c0,5.344, 0.128,7.808, 3.12,13.52
	c 0.944,1.792, 2.144,3.472, 3.024,5.712c 1.6,4.016, 2.080,0.192, 4.24,3.776c 2.064,1.024, 3.264,4.448, 5.392,6.128
	c 0.928,1.232, 0.96,1.744,0,2.688c 0.416,0, 2.688,5.904, 2.688,7.264c 3.008,4.176, 0.88,2.272, 3.84,1.92
	c 1.088,1.184, 2.896,4.224, 4.608,4.224c 0.752,1.488, 2.64,2.304, 4.24,2.304c0-2.304, 6.272,0.752, 6.928,0.752
	c 1.072,2.16, 7.984,4.608, 9.616,4.608c0,2.624, 13.632-0.736, 15.776-0.384c0,0.384,0,0.768,0,1.152c 2.912-0.688, 8.224-12.368, 7.68-14.96
	c 2.24,0, 4.32,0.368, 5.776,0c0-2.48, 4.672-3.088, 6.8-3.2c 2.96-0.144, 11.648,0.304, 11.648,4.352c 2.288,0, 4.32-1.6, 3.872-4.208
	c 2.592-0.288, 18-0.592, 16.912-3.824c 2.256,0, 2.832-3.856, 4.992-3.856c-0.432-2.656, 2.688-9.584, 4.992-9.584
	c0-2.304, 1.44-6.544, 3.472-8.032c 1.088-3.296, 4.688-10.24, 8.064-12.272c-1.44-2.72, 2.192-4.96, 3.088-7.664
	c-0.208,0, 0.784-4.016, 1.904-4.608c0-2.72, 5.728-13.808, 8.864-13.808C 447.744,200.88, 444.592,200.272, 448.688,199.968z M 365.632,285.808
	c 0.592,2.288, 1.936,0.512, 3.184,0.096c 2.96-0.96, 1.936,0.048, 4.128,1.040C 372.944,280.704, 369.36,285.44, 365.632,285.808z
	 M 357.536,297.312c 1.568,0, 2-7.040-2.304-5.744c0,1.744-1.104,4.976, 1.168,4.976C 357.056,293.824, 357.536,294.928, 357.536,297.312z
	 M 355.632,301.904c 1.776-0.768, 2.56-0.512, 2.304,0.768c 2.336-0.768-0.304-2.432-0.768-4.224
	C 355.968,299.632, 356.336,300.048, 355.632,301.904z M 314.464,336.032c-3.776,0.976, 3.888,2.096, 4.224,3.056c-1.28,0-2.16,1.328-1.664,2.448
	c 0.576,1.328, 1.52-1.584, 2.832-0.928c 1.552,0.16, 4.608,2.48, 3.040-2c-1.6-4.544-3.056-7.872-8.816-7.952
	C 312.016,332.736, 314,333.824, 314.464,336.032z M 328.704,351.744c 3.104,0, 0.384-2.304-0.304-2.304c 0.528-0.208-0.096-2.064-0.096-2.672
	c 2.88,0.032, 2.928,1.792, 4.992,2.304c-0.432-2.576-3.312-3.072-0.496-5.28c 1.488-1.168, 3.008-2.544, 2.416-4.32
	c 3.664,0, 4.208-3.52, 3.456-7.664c 2.032,0, 1.936-0.096, 1.936,1.936c 1.968-0.544, 1.824-2.32,0-2.32
	c-1.824-3.6-6.608-3.44-10-3.44c-0.032,2.784-0.56,2.96-3.136,2.176c-3.52-1.072-0.768,2.8-0.704,4.72
	c 0.384,0, 7.984-0.352, 3.456,1.152c-0.24,4.128-1.168,5.36-4.992,5.36c0,2.816-0.992,2.608-1.456,5.696
	C 323.12,351.648, 327.344,346.768, 328.704,351.744z M 327.536,326.832c0-0.944-1.92-1.696-2.304-0.368c 0.368-0.128, 0.512,0, 0.368,0.368
	C 326.256,326.832, 326.912,326.832, 327.536,326.832z M 296,368l-16,0 C 275.584,368, 272,371.584, 272,376C 272,380.416, 275.584,384, 280,384l 16,0 
	C 300.416,384, 304,380.416, 304,376C 304,371.584, 300.416,368, 296,368z M 202.784,226.4c 0.896,0, 1.936-0.352, 1.936-1.152
	C 203.552,225.248, 202.048,224.144, 202.784,226.4z M 188.192,225.616c-0.64-1.216-5.824-1.008-6.544,0.4c 1.92,0, 3.408-0.784, 5.376,0
	c0,1.056-0.88,1.904-1.536,3.056c 2.096,0, 4.448-1.6, 7.312-1.536c0,1.776-0.784-0.384,0,1.92c 1.2-0.304, 4.096-3.056, 4.224-4.208
	C 192.816,225.696, 192.624,225.616, 188.192,225.616z M 171.264,234.816c-1.968,0-5.76,1.712-6.928,3.456c 1.904-0.080, 3.792-0.864, 4.992,1.152
	c 4.88-0.496, 5.312-3.856, 9.232-3.856c 0.736-1.296, 4.928-4.272, 0.88-4.656C 176.384,230.624, 172.544,232.288, 171.264,234.816z
	 M 174.336,224.080c-1.424,0-3.776-0.624-2.688,2.32C 173.536,226.144, 174.432,225.36, 174.336,224.080z M 177.024,224.464
	c-0.768-0.128-1.536-0.256-2.304-0.384C 174.944,225.856, 176.624,227.84, 177.024,224.464z M 191.248,207.616
	c-0.304-1.072-0.256-1.136-1.52-1.136c 0.128,0.496, 0.24,0.992, 0.368,1.52C 190.496,207.872, 190.864,207.744, 191.248,207.616z
	 M 156.64,239.424c 0.368-0.128, 0.768-0.272, 1.152-0.384c 0.496-1.904, 1.536-0.96, 2.688-0.384C 160.48,236.432, 155.328,235.792, 156.64,239.424z"  />
<glyph unicode="&#xe1ed;" d="M 255.008-32C 255.008-32, 96,192.992, 96,288.992C 96,478, 255.008,480, 255.008,480
	S 416,478, 416,290C 416,191.008, 255.008-32, 255.008-32z M 256,384c-35.344,0-64-28.656-64-64s 28.656-64, 64-64s 64,28.656, 64,64S 291.344,384, 256,384z"  />
<glyph unicode="&#xe1ee;" d="M 256,480C 114.608,480,0,365.376,0,224c0-141.376, 114.608-256, 256-256s 256,114.624, 256,256
	C 512,365.376, 397.392,480, 256,480z M 256,384c 17.664,0, 32-14.336, 32-32s-14.336-32-32-32s-32,14.336-32,32S 238.336,384, 256,384z M 176,96l 48,32l 32,0 l0,128 l-32,0 l-16,32l 80,0 l0-32 l0-128 l 32,0 l 48-32
	L 176,96 z"  />
<glyph unicode="&#xe1ef;" d="M 256,384C 114.608,384,0,224,0,224s 114.608-160, 256-160s 256,160, 256,160S 397.392,384, 256,384z M 256,128
			c-53.008,0-96,42.992-96,96s 42.992,96, 96,96s 96-42.992, 96-96S 309.008,128, 256,128z M 256,288c-35.344,0-64-28.656-64-64s 28.656-64, 64-64s 64,28.656, 64,64
			S 291.344,288, 256,288z"  />
<glyph unicode="&#xe1f0;" d="M 368,448c-38.464,0-69.296-13.808-96.48-41.008c-0.016-0.016-0.032-0.032-0.048-0.048
	l-0.016,0L 256,387.472L 240.544,405.76c-0.016,0.016-0.032,0.032-0.048,0.048L 240.48,405.808 l0,0C 213.28,433.024, 182.464,448, 144,448S 69.376,433.024, 42.176,405.824
	C 14.992,378.624,0,342.464,0,304c0-38.432, 14.96-74.592, 42.128-101.776L 233.28,9.472C 239.28,3.408, 247.472,0, 256,0s 16.72,3.408, 22.72,9.472
	l 191.136,192.752C 497.024,229.408, 512,265.552, 512,304c0,38.464-14.992,74.624-42.176,101.824C 442.624,433.024, 406.464,448, 368,448L 368,448z"  />
<glyph unicode="&#xe1f1;" d="M 464-32L 128-32 L 128,480 l 160,0 l0-288 l 48,64l 32,0 l 48-64L 416,480 l 48,0 c 8.848,0, 16-7.168, 16-16l0-480 C 480-24.848, 472.848-32, 464-32
	z M 32-16L 32,464 c0,8.832, 7.152,16, 16,16l 48,0 l0-512 L 48-32 C 39.152-32, 32-24.848, 32-16z"  />
<glyph unicode="&#xe1f2;" d="M 399.712,324.512c 5.968-5.968, 15.648-5.968, 21.6,0l 84.528,66.544
	c 14.064-44.224, 4.128-94.432-30.96-129.52c-33.472-33.488-80.736-44.032-123.424-32.768l-100.256-100.256c 11.264-42.704, 0.704-89.952-32.752-123.424
	c-35.088-35.088-85.312-45.024-129.536-30.96l 66.576,84.512c 5.968,5.984, 5.968,15.648,0,21.616l-43.2,43.184c-5.968,5.968-15.648,5.968-21.6,0
	l-84.528-66.544c-14.064,44.224-4.128,94.416, 30.944,129.504c 33.488,33.488, 80.736,44.048, 123.44,32.768l 100.272,100.272
	c-11.28,42.688-0.72,89.952, 32.736,123.424c 35.088,35.088, 85.312,45.024, 129.552,30.976l-66.576-84.544c-5.952-5.952-5.952-15.632,0-21.584
	L 399.712,324.512z"  />
<glyph unicode="&#xe1f3;" d="M 192.768,208.624c-2.848-4.112-6.32-14.416-10.432-16.944c-4.112-2.512-8.752-4.272-13.904-5.248
	c-5.168-0.992-10.512-1.424-16.032-1.264l0-24.432 l 39.472,0 L 191.872,64 l 31.856,0 l0,159.936 l-25.344,0 C 197.488,217.84, 195.616,212.736, 192.768,208.624z M 368,352l 32,0 
	c 8.848,0, 16,7.168, 16,16L 416,464 c0,8.832-7.152,16-16,16l-32,0 c-8.848,0-16-7.168-16-16l0-96 C 352,359.168, 359.152,352, 368,352z M 112,352l 32,0 c 8.832,0, 16,7.168, 16,16L 160,464 
	c0,8.832-7.168,16-16,16L 112,480 C 103.168,480, 96,472.832, 96,464l0-96 C 96,359.168, 103.168,352, 112,352z M 480,416l-32,0 l0-80 c0-8.832-7.152-16-16-16l-96,0 c-8.848,0-16,7.168-16,16L 320,416 l-128,0 l0-80 
	c0-8.832-7.168-16-16-16L 80,320 c-8.832,0-16,7.168-16,16L 64,416 L 32,416 C 14.336,416,0,401.664,0,384l0-384 c0-17.664, 14.336-32, 32-32l 448,0 c 17.664,0, 32,14.336, 32,32L 512,384 
	C 512,401.664, 497.664,416, 480,416z M 480,16c0-8.848-7.152-16-16-16L 48,0 c-8.832,0-16,7.152-16,16L 32,272 c0,8.832, 7.168,16, 16,16l 416,0 c 8.848,0, 16-7.168, 16-16L 480,16 z
	 M 255.76,192.288l 79.488,0 c-14.976-18.432-27.024-37.2-36.24-59.28c-9.2-22.096-10.208-45.088-11.984-68.992l 34.096,0 
	c 0.144,10.656-3.12,22.16-0.816,34.496c 2.336,12.336, 5.632,24.512, 9.872,36.56c 4.272,12.032, 9.568,23.376, 15.936,34.032
	c 6.336,10.672, 13.648,19.664, 21.872,26.976l0,27.872 l-112.24,0 L 255.744,192.288 z"  />
<glyph unicode="&#xe1f4;" d="M 64,352l 32,0 L 96,384 L 64,384 L 64,352 z M 448,448L 64,448 C 28.656,448,0,419.344,0,384l0-384 l 512,0 L 512,384 C 512,419.344, 483.344,448, 448,448z
	 M 480,32L 32,32 L 32,288 l 448,0 L 480,32 z M 480,320L 32,320 L 32,384 c0,17.664, 14.336,32, 32,32l 384,0 c 17.664,0, 32-14.336, 32-32L 480,320 z M 432,384L 208,384 c-8.832,0-16-7.168-16-16s 7.168-16, 16-16l 224,0 
	c 8.848,0, 16,7.168, 16,16S 440.848,384, 432,384z M 128,352l 32,0 L 160,384 L 128,384 L 128,352 z"  />
<glyph unicode="&#xe1f5;" d="M 480,96c0,0-132,0-160,0s 32-96, 32-96c0-17.664-14.336-32-32-32l-128,0 c-17.664,0-32,14.336-32,32
	c0,0, 60.992,96, 32,96S 32,96, 32,96c-17.664,0-32,14.336-32,32L0,448 c0,17.664, 14.336,32, 32,32l 448,0 c 17.664,0, 32-14.336, 32-32l0-320 C 512,110.336, 497.664,96, 480,96z
	 M 256,112c 17.664,0, 32,14.336, 32,32s-14.336,32-32,32s-32-14.336-32-32S 238.336,112, 256,112z M 480,416c0,17.664-14.336,32-32,32L 64,448 C 46.336,448, 32,433.664, 32,416l0-192 
	c0-17.664, 14.336-32, 32-32l 384,0 c 17.664,0, 32,14.336, 32,32L 480,416 z"  />
<glyph unicode="&#xe1f6;" d="M 352,480L 160,480 C 124.656,480, 96,451.344, 96,416l0-384 c0-35.344, 28.656-64, 64-64l 192,0 c 35.344,0, 64,28.656, 64,64L 416,416 
			C 416,451.344, 387.344,480, 352,480z M 264,432l 48,0 C 316.4,432, 320,428.416, 320,424C 320,419.584, 316.4,416, 312,416l-48,0 C 259.584,416, 256,419.584, 256,424
			C 256,428.416, 259.584,432, 264,432z M 208,448c 8.832,0, 16-7.168, 16-16s-7.168-16-16-16s-16,7.168-16,16S 199.168,448, 208,448z M 288,16c0-8.848-7.152-16-16-16l-32,0 
			c-8.832,0-16,7.152-16,16l0,32 c0,8.848, 7.168,16, 16,16l 32,0 c 8.848,0, 16-7.152, 16-16L 288,16 z M 384,112c0-8.848-7.152-16-16-16L 144,96 c-8.832,0-16,7.152-16,16L 128,368 
			c0,8.832, 7.168,16, 16,16l 224,0 c 8.848,0, 16-7.168, 16-16L 384,112 z"  />
<glyph unicode="&#xe1f7;" d="M 256.608,480C 256.608,480, 96,289.264, 96,127.632C 96-34.016, 255.392-32, 255.392-32
			S 416-30, 416,128.624S 256.608,480, 256.608,480z M 256,32c-53.008,0-96,42.992-96,96c0,33.936, 17.824,63.408, 44.432,80.416
			C 196.8,198.224, 192,183.936, 192,168c0-3.312, 0.304-6.512, 0.688-9.664C 192.544,156.192, 192,154.176, 192,152c0-4.112, 0.672-8.048, 1.216-12
			C 192.464,136.112, 192,132.112, 192,128c0-35.344, 28.656-64, 64-64c 4.112,0, 8.112,0.464, 12,1.2C 271.968,64.656, 275.888,64, 280,64
			c 2.176,0, 4.192,0.528, 6.32,0.704C 289.472,64.304, 292.688,64, 296,64c 15.936,0, 30.224,4.8, 40.416,12.416C 319.408,49.824, 289.936,32, 256,32z
			"  />
<glyph unicode="&#xe1f8;" d="M 248,224c-35.344,0-64,28.656-64,64l-96,0 l0-160 c0-88.352, 71.632-160, 160-160
		c 88.368,0, 160,71.648, 160,160L 408,288 l-96,0 C 312,252.656, 283.344,224, 248,224z M 184,352c0,35.344, 28.656,64, 64,64s 64-28.656, 64-64l0-32 l 96,0 
		c0,88.368-71.632,160-160,160c-88.368,0-160-71.632-160-160l 96,0 L 184,352 z M 232,368l0-96 c0-8.832, 7.168-16, 16-16s 16,7.168, 16,16L 264,368 c0,8.832-7.168,16-16,16
		S 232,376.832, 232,368z"  />
<glyph unicode="&#xe1f9;" d="M 376,192c0-70.688-57.312-128-128-128s-128,57.312-128,128c0,65.36, 62.672,105.52, 128,111.216L 248,224 l 160,112
		L 408,352 l-160,128l0-80.672 C 130.448,392.416, 24,310.352, 24,192c0-123.712, 100.288-224, 224-224s 224,100.288, 224,224L 376,192 z"  />
<glyph unicode="&#xe1fa;" d="M 256.208-32L 256.208,224.272 L 9.424,224.272 l0-0.208 L 0.16,224.064 L0,224.272L 512,480L 256.208-32z"  />
<glyph unicode="&#xe1fb;" d="M 464.208,479.056l0,0.8 l-155.936,0 c-2.752,0.352-5.552,0.256-8.144-0.832
	c-4.736-1.264-8.672-4.4-10.592-8.832L 4.464,185.136c-6.224-6.24-6.224-16.336,0-22.56l 189.952-189.952c 6.24-6.224, 16.336-6.224, 22.56,0
	l 284.24,284.256c 6.336,2.128, 10.992,7.936, 10.992,14.992l0,152 C 512.208,452.048, 491.312,475.136, 464.208,479.056z M 416.208,351.856
	c-17.664,0-32,14.336-32,32s 14.336,32, 32,32s 32-14.336, 32-32S 433.872,351.856, 416.208,351.856z"  />
<glyph unicode="&#xe1fc;" d="M 34.016,460.992c 20.448,20.496, 82.256,23.92, 82.72,13.072
	c 0.464-10.832, 55.664-131.056, 56.144-141.904c 0.48-10.832-36.384-47.792-47.168-58.608c-10.688-10.704, 72.128-104.528, 73.696-106.304
	c 1.76-1.584, 95.36-84.592, 106.048-73.872c 10.784,10.816, 47.664,47.76, 58.448,47.28c 10.816-0.464, 130.768-55.792, 141.584-56.288
	c 10.816-0.464, 7.408-62.4-13.040-82.912c-17.488-17.52-108.032-81.136-265.472,32.464c-17.264,9.952-44.608,32.784-86.080,74.336
	c-0.016,0.016-0.048,0.048-0.080,0.064c-0.032,0.048-0.064,0.064-0.096,0.096s-0.064,0.064-0.096,0.096
	c-0.016,0.032-0.048,0.064-0.064,0.080c-41.44,41.568-64.224,68.992-74.16,86.288C-46.928,352.704, 16.544,443.472, 34.016,460.992z"  />
<glyph unicode="&#xe1fd;" d="M 203.376,64.56c-105.248-83.84-133.632-63.568-85.136,60.912C-16.96,118.496-27.808,151.376, 85.712,224
	c-113.52,72.64-102.672,105.488, 32.528,98.544C 69.76,447.008, 98.144,467.312, 203.376,383.44c 35.072,128.736, 70.16,128.736, 105.248,0
	c 105.232,83.872, 133.632,63.568, 85.12-60.896c 135.216,6.944, 146.048-25.904, 32.528-98.544c 113.52-72.624, 102.688-105.504-32.528-98.528
	c 48.496-124.464, 20.112-144.752-85.12-60.912C 273.552-64.192, 238.448-64.192, 203.376,64.56z"  />
<glyph unicode="&#xe1fe;" d="M 267.024,197.52L 352,0l-64-32l-74.336,202.848L 96,64L 96,480 l 320-256L 267.024,197.52z"  />
<glyph unicode="&#xe1ff;" d="M 122.352,270.896c 1.84,8.704-9.808,16.24-22.336,16.544
		c-15.008,0.368-26.576,0.496-36.992,0.544C 54.464,288.016, 48.048,280.832, 48,272l0-240 c 0.048-8.832, 6.448-16.016, 15.072-15.984
		c 10.48,0.048, 22.288,0.176, 38.032,0.544c 13.152,0.32, 25.504,7.84, 23.392,16.544C 108.144,112.064, 108.016,191.936, 122.352,270.896z M 432,224l-144,0 l0,32 l 144,0 
		c 17.664,0, 32,14.336, 32,32s-14.336,32-32,32l-140,0 l 2,24.032L 304,424C 304,454.928, 278.944,480, 248,480C 217.072,480, 192,486.928, 192,456L 183.376,400l-0.528,0 
		l-6.832-47.856L 160,248c0-1.648, 0.24-2.944, 0.56-4.128L 160,240l-14.624-9.616C 145.376,230.384, 144,226.288, 144,224l0-176 c0-8.848, 7.168-16, 16-16
		l 1.616,0 c 7.408-36.512, 39.68-64, 78.384-64l 128,0 c 38.704,0, 70.976,27.488, 78.384,64L 320,32 c-17.664,0-32,14.336-32,32l 128,0 c 17.664,0, 32,14.336, 32,32s-14.336,32-32,32l-128,0 
		l0,32 l 144,0 c 17.664,0, 32,14.336, 32,32S 449.664,224, 432,224z"  />
<glyph unicode="&#xe200;" d="M 448.928,432.032c-10.48-0.048-22.288-0.176-38.016-0.544
		c-13.168-0.32-25.52-7.84-23.408-16.528c 16.352-78.88, 16.48-158.672, 2.144-237.552c-1.824-8.688, 9.792-16.224, 22.336-16.528
		c 15.008-0.368, 26.576-0.496, 36.992-0.544c 8.56-0.032, 14.992,7.136, 15.024,15.968L 464,416.064 C 463.936,424.896, 457.568,432.064, 448.928,432.032z
		 M 352,416.064l-1.616,0 C 342.976,452.544, 310.704,480, 272,480L 144,480 C 105.296,480, 73.024,452.544, 65.616,416.064L 192,416.064 c 17.664,0, 32-14.32, 32-31.968L 96,384.096 
		c-17.664,0-32-14.32-32-31.968S 78.336,320.16, 96,320.16l 128,0 l0-31.968 L 80,288.192 c-17.664,0-32-14.32-32-31.968s 14.336-31.968, 32-31.968l 144,0 l0-31.968 L 80,192.288 
		c-17.664,0-32-14.32-32-31.968s 14.336-31.968, 32-31.968l 140,0 l-2-23.984L 208,24.432c0-30.896, 25.072-55.936, 56-55.936
		c 30.944,0, 56-6.928, 56,23.984l 8.608,55.936l 0.528,0 l 6.848,47.808L 352,200.272c0,1.664-0.24,2.944-0.56,4.128L 352,208.272l 14.624,9.6
		c0,0, 1.376,4.112, 1.376,6.384L 368,400.080 C 368,408.912, 360.848,416.064, 352,416.064z"  />
<glyph unicode="&#xe201;" d="M 480,64c-17.664,0-32,14.336-32,32l0,32 l0,96 c0,106.032-85.968,192-192,192C 149.968,416, 64,330.032, 64,224l0-96 
	l0-32 c0-17.664-14.336-32-32-32s-32,14.336-32,32l0,32 l0,96 C0,365.392, 114.624,480, 256,480c 141.376,0, 256-114.608, 256-256l0-96 l0-32 C 512,78.336, 497.664,64, 480,64z M 112,192l 32,0 
	c 8.832,0, 16-7.152, 16-16l0-160 c0-8.848-7.168-16-16-16L 112,0 c-8.832,0-16,7.152-16,16L 96,176 C 96,184.848, 103.168,192, 112,192z M 368,192l 32,0 c 8.848,0, 16-7.152, 16-16l0-160 
	c0-8.848-7.152-16-16-16l-32,0 c-8.848,0-16,7.152-16,16L 352,176 C 352,184.848, 359.152,192, 368,192z"  />
<glyph unicode="&#xe202;" d="M 287.744,385.264l0-129.008 l 128,0 l0,64 L 512,224l-96.256-96.24l0,65.488 l-128,0 l0-129.008 l 64.496,0 L 256-32
	l-96.256,96.24l 64,0 l0,129.008 l-128,0 l0-64.992 L0,224l 95.744,95.744l0-63.488 l 128,0 L 223.744,385.264 l-62.496,0 L 256,480l 94.752-94.736L 287.744,385.264 z"  />
<glyph unicode="&#xe203;" d="M 507.296,365.872l-45.424,45.424c-6.288,6.288-16.416,6.288-22.704,0L 206.928,166.112
	l-133.12,133.184c-6.352,6.352-16.656,6.352-23.008,0l-46.016-46.048c-6.352-6.336-6.352-16.64,0-23.008l 189.328-193.728
	c 3.664-3.68, 8.64-4.944, 13.424-4.32c 4.944-0.736, 10.096,0.512, 13.888,4.32L 507.296,343.152C 513.568,349.424, 513.568,359.6, 507.296,365.872z"  />
<glyph unicode="&#xe204;" d="M 491.536,371.616l-147.152-148.048l 147.152-147.168c 6.16-6.144, 6.16-16.112,0-22.272
	l-66.816-66.8c-6.128-6.16-16.096-6.16-22.256,0l-146.912,146.912l-146.032-146.912c-6.144-6.16-16.112-6.16-22.272,0l-66.8,66.8
	c-6.144,6.16-6.144,16.128,0,22.272l 146.032,146.912L 20.464,369.328c-6.144,6.144-6.144,16.112,0,22.272l 66.8,66.8
	c 6.144,6.16, 16.112,6.16, 22.272,0l 145.76-145.76l 147.184,148.048c 6.16,6.16, 16.128,6.16, 22.256,0l 66.816-66.8
	C 497.68,387.728, 497.68,377.76, 491.536,371.616z"  />
<glyph unicode="&#xe205;" d="M 476.32,184.528C 478.592,197.36, 480,210.496, 480,224c0,123.712-100.288,224-224,224c-13.504,0-26.64-1.408-39.472-3.68
	C 193.536,466.368, 162.368,480, 128,480C 57.312,480,0,422.688,0,352c0-34.368, 13.632-65.536, 35.68-88.528C 33.408,250.64, 32,237.504, 32,224c0-123.712, 100.288-224, 224-224
	c 13.504,0, 26.64,1.392, 39.472,3.68C 318.464-18.368, 349.632-32, 384-32c 70.688,0, 128,57.312, 128,128C 512,130.368, 498.368,161.536, 476.32,184.528z
	 M 354.64,134.336c-8.864-12.064-21.92-21.632-38.864-28.384c-16.784-6.704-36.88-10.112-59.728-10.112c-27.472,0-50.496,4.656-68.464,13.808
	c-12.848,6.688-23.44,15.696-31.488,26.928c-8.128,11.264-12.24,22.448-12.24,33.264c0,6.736, 2.672,12.56, 7.968,17.36
	c 5.232,4.768, 11.952,7.136, 19.952,7.136c 6.576,0, 12.256-1.872, 16.848-5.632c 4.4-3.632, 8.176-8.944, 11.216-15.776
	c 3.392-7.488, 7.072-13.776, 10.976-18.72c 3.76-4.816, 9.152-8.832, 16.048-11.968c 6.928-3.152, 16.288-4.768, 27.776-4.768
	c 15.792,0, 28.768,3.248, 38.512,9.664c 9.52,6.256, 14.144,13.776, 14.144,22.992c0,7.264-2.416,12.992-7.376,17.456
	c-5.216,4.688-12.080,8.336-20.384,10.848c-8.704,2.592-20.512,5.456-35.104,8.368c-19.84,4.096-36.688,8.944-50.112,14.416
	c-13.712,5.632-24.768,13.424-32.848,23.136c-8.208,9.92-12.368,22.304-12.368,36.912c0,13.904, 4.368,26.448, 12.992,37.248
	c 8.544,10.752, 21.040,19.104, 37.12,24.816c 15.856,5.664, 34.736,8.512, 56.096,8.512c 17.056,0, 32.096-1.904, 44.624-5.664
	c 12.608-3.76, 23.216-8.88, 31.6-15.152c 8.384-6.336, 14.656-13.072, 18.576-20.128c 3.952-7.072, 5.984-14.16, 5.984-20.992
	c0-6.592-2.64-12.56-7.84-17.776c-5.248-5.232-11.84-7.888-19.648-7.888c-7.072,0-12.624,1.664-16.464,4.928
	c-3.584,3.056-7.296,7.808-11.408,14.64c-4.784,8.72-10.544,15.6-17.168,20.448c-6.4,4.72-17.152,7.072-31.92,7.072
	c-13.696,0-24.864-2.64-33.12-7.872c-7.984-5.024-11.856-10.8-11.856-17.648c0-4.208, 1.248-7.696, 3.824-10.704
	c 2.704-3.232, 6.544-6, 11.392-8.352c 5.008-2.416, 10.208-4.352, 15.392-5.728c 5.312-1.424, 14.224-3.52, 26.448-6.24
	c 15.472-3.216, 29.696-6.8, 42.272-10.672c 12.752-3.936, 23.712-8.752, 32.72-14.384c 9.152-5.728, 16.4-13.088, 21.568-21.904
	c 5.152-8.848, 7.76-19.744, 7.76-32.416C 368.016,160.288, 363.536,146.4, 354.64,134.336z"  />
<glyph unicode="&#xe206;" d="M 464,319.92L 48,319.92 c-8.848,0-16-7.152-16-16l0-144 c0-8.848, 7.152-16, 16-16l 16,0 l0-160 
	c0-8.848, 7.152-16, 16-16l 352,0 c 8.848,0, 16,7.152, 16,16l0,160 l 16,0 c 8.848,0, 16,7.152, 16,16l0,144 C 480,312.768, 472.848,319.92, 464,319.92z M 224,15.92
	c0-8.848-7.152-16-16-16L 112-0.080 c-8.848,0-16,7.152-16,16l0,128 c0,8.848, 7.152,16, 16,16l 96,0 c 8.848,0, 16-7.152, 16-16L 224,15.92 z M 224,207.92c0-8.848-7.152-16-16-16
	L 80,191.92 c-8.848,0-16,7.152-16,16l0,64 c0,8.848, 7.152,16, 16,16l 128,0 c 8.848,0, 16-7.152, 16-16L 224,207.92 z M 416,15.92c0-8.848-7.152-16-16-16l-96,0 
	c-8.848,0-16,7.152-16,16l0,128 c0,8.848, 7.152,16, 16,16l 96,0 c 8.848,0, 16-7.152, 16-16L 416,15.92 z M 448,207.92c0-8.848-7.152-16-16-16l-128,0 
	c-8.848,0-16,7.152-16,16l0,64 c0,8.848, 7.152,16, 16,16l 128,0 c 8.848,0, 16-7.152, 16-16L 448,207.92 z M 184.944,319.936l 147.2,0 
	c 25.232,18.096, 49.088,41.648, 51.92,67.312c 1.376,12.528-1.312,30.88-22,47.216c-11.472,9.072-23.12,13.664-34.576,13.664
	c-36.512,0-57.168-44.768-68.336-84.768c-13.344,50.992-39.104,116.56-83.344,116.56c-12.912,0-25.76-5.584-38.256-16.608
	c-24.64-21.792-27.056-44.448-24.752-59.616C 117.968,369.792, 152.080,340.656, 184.944,319.936z M 327.488,409.728c 3.536,0, 8.096-2.112, 13.168-6.144
	c 8.256-6.496, 7.792-10.528, 7.664-11.856c-1.536-14-27.792-36-58.416-54.16C 298.912,376.304, 313.632,409.728, 327.488,409.728z M 160.544,433.76
	c 4.016,3.552, 9.936,7.776, 15.264,7.776c 19.808,0, 40.176-52, 52.048-102.56c-37.408,19.936-76.080,48.208-79.536,70.896
	C 147.856,413.008, 146.576,421.408, 160.544,433.76z"  />
<glyph unicode="&#xe207;" d="M 493.664,31.776L 18.32,31.776 c-10.096,0-18.304-7.936-18.304-17.744l0-28.336 c0-9.808, 8.208-17.744, 18.304-17.744l 475.36,0 
		c 10.128,0, 18.32,7.936, 18.32,17.744l0,28.336 C 511.984,23.84, 503.792,31.776, 493.664,31.776zM 341.312,288.24L 170.336,288.24L 127.792,192.432L 383.872,192.432 	zM 283.888,462.864c0,0-3.36,17.184-26.544,17.184s-26.816-17.776-26.816-17.776l-46.432-141.936l 146.464,0 L 283.888,462.864zM 401.632,160.368L 113.040,160.368L 68.608,48L 446.080,48 	z"  />
<glyph unicode="&#xe208;" d="M 432,112L 80,112 l-48-48l0-16 l 16-16l 144,0 c0-35.344, 28.656-64, 64-64s 64,28.656, 64,64l 144,0 l 16,16l0,16 L 432,112z M 416,240
		c0,65.6-39.52,121.888-96,146.592L 320,416 c0,35.344-28.656,64-64,64s-64-28.656-64-64l0-29.408 C 135.52,361.888, 96,305.6, 96,240l0-112 l 320,0 L 416,240 z M 224,416c0,17.664, 14.336,32, 32,32
		s 32-14.336, 32-32L 224,416 z"  />
<glyph unicode="&#xe209;" d="M 384,272.032l0,32 c0,8.848-7.152,16-16,16L 16,320.032 c-8.848,0-16-7.152-16-16l0-224.016 
			c0-2.88, 0.976-5.424, 2.288-7.76C 13.44,12.928, 65.44-32, 128-32l 128,0 c 40.336,0, 76.096,18.832, 99.536,48L 384,16 c 70.688,0, 128,57.328, 128,128.016
			C 512,214.72, 454.688,272.032, 384,272.032z M 384,80.016l0,128.016 c 35.344,0, 64-28.656, 64-64.016C 448,108.672, 419.344,80.016, 384,80.016z M 83.168,343.936
			c-2.384-4.32-2.112-7.888, 2.432-7.888c 4.512,0, 10.704,3.584, 12.256,7.856c 15.888,41.424-67.552,75.104-17.136,126.192
			C 85.888,475.392, 87.984,479.968, 83.408,480C 78.816,480.048, 69.392,475.68, 64.432,470.528C 15.856,420.624, 105.76,385.552, 83.168,343.936z M 143.6,343.744
			C 143.008,339.616, 145.536,336.048, 150.032,336.048c 4.464,0, 8.8,3.568, 9.248,7.664c 3.536,29.664-20.176,56.88-5.936,82.544
			c 0.224,4.64-5.232,9.248-12.304,9.872c-7.056,0.64-13.344-2.864-13.584-7.472C 125.744,395.184, 147.776,373.824, 143.6,343.744z M 214.432,336.048
			c 4.464,0, 8,3.568, 8.848,7.52c 8.112,38.336, 74.368,50.144, 24.416,118.608c-5.344,7.072-14.832,13.568-19.424,13.632
			c-4.608,0.080-5.008-6.24-1.952-13.232c 49.712-46.912, 1.984-80.576-19.152-119.008C 206.464,339.616, 209.984,336.048, 214.432,336.048z
			 M 278.864,336.048c 4.48,0, 7.488,3.6, 8.784,7.808c 12.16,40.688, 149.424,66.992, 34,122.992c-12.032,5.696-27.648,10.464-31.056,10.272
			c-3.472-0.24, 4.704-6.144, 14.976-12.592c 94.352-61.84, 6.432-43.184-33.904-120.8C 270.352,339.648, 274.4,336.048, 278.864,336.048z"  />
<glyph unicode="&#xe20a;" d="M 464,256L 48,256 c-8.848,0-16,7.152-16,16s 7.152,16, 16,16l 32,0 l 96,176c0,8.848, 7.152,16, 16,16l 32,0 
	c 8.848,0, 16-7.152, 16-16L 144,288l 224,0 L 272,464c0,8.848, 7.152,16, 16,16l 48,0 c 8.848,0, 16-7.152, 16-16l 80-176l 32,0 c 8.848,0, 16-7.152, 16-16S 472.848,256, 464,256z M 48,224
	l 416,0 c 8.848,0, 16-7.152, 16-16l-32-224c0-8.848-7.152-16-16-16L 80-32 c-8.848,0-16,7.152-16,16L 32,208C 32,216.848, 39.152,224, 48,224z M 352,32l 32,0 
	c 8.848,0, 16,7.152, 16,16l 16,96c0,8.848-7.152,16-16,16l-32,0 c-8.848,0-16-7.152-16-16l-16-96C 336,39.152, 343.152,32, 352,32z M 224,48c0-8.848, 7.152-16, 16-16
	l 32,0 c 8.848,0, 16,7.152, 16,16l0,96 c0,8.848-7.152,16-16,16l-32,0 c-8.848,0-16-7.152-16-16L 224,48 z M 112,48c0-8.848, 7.152-16, 16-16l 32,0 c 8.848,0, 16,7.152, 16,16l-16,96
	c0,8.848-7.152,16-16,16L 112,160 c-8.848,0-16-7.152-16-16L 112,48z"  />
<glyph unicode="&#xe20b;" d="M 78.816,480l-32,0 c-8.832,0-16-7.152-16-16l0-480 c0-8.848, 7.168-16, 16-16l 32,0 c 8.832,0, 16,7.152, 16,16
			L 94.816,464 C 94.816,472.848, 87.664,480, 78.816,480z M 478.816,176L 478.816,400 c0,8.848-1.968,16-16,16c-71.152-32-320,64-320,64c-8.832,0-16-7.152-16-16l0-240 
			c0-8.848, 7.168-16, 16-16c0,0, 176-57.136, 320-48C 490.256,150.864, 478.816,167.152, 478.816,176z"  />
<glyph unicode="&#xe20c;" d="M 384,480L 128,480 C 110.336,480, 96,465.664, 96,448l0-448 c0-17.664, 14.336-32, 32-32l 256,0 c 17.664,0, 32,14.336, 32,32L 416,448 
		C 416,465.664, 401.664,480, 384,480z M 256,0c-53.008,0-96,42.992-96,96s 42.992,96, 96,96s 96-42.992, 96-96S 309.008,0, 256,0z M 384,240c0-8.848-7.152-16-16-16L 144,224 
		c-8.832,0-16,7.152-16,16L 128,432 c0,8.848, 7.168,16, 16,16l 224,0 c 8.848,0, 16-7.152, 16-16L 384,240 z M 256,128c-17.664,0-32-14.336-32-32s 14.336-32, 32-32s 32,14.336, 32,32
		S 273.664,128, 256,128z"  />
<glyph unicode="&#xe20d;" d="M 336,32c 8.848,0, 16,7.152, 16,16L 352,272 c0,8.848-7.152,16-16,16s-16-7.152-16-16l0-224 C 320,39.152, 327.152,32, 336,32zM 176,32c 8.832,0, 16,7.152, 16,16L 192,272 c0,8.848-7.168,16-16,16s-16-7.152-16-16l0-224 C 160,39.152, 167.168,32, 176,32zM 464,384l-64,0 L 400,416 c0,35.344-28.656,64-64,64L 176,480 C 140.656,480, 112,451.344, 112,416l0-32 L 48,384 L0,336c0-8.848, 7.168-16, 16-16l 48,0 l0-320 c0-17.664, 14.336-32, 32-32l 320,0 
		c 17.664,0, 32,14.336, 32,32L 448,320 l 48,0 c 8.848,0, 16,7.152, 16,16L 464,384z M 160,416c0,17.664, 14.336,32, 32,32l 128,0 c 17.664,0, 32-14.336, 32-32l0-32 L 160,384 L 160,416 z M 416,16
		c0-8.848-7.152-16-16-16L 112,0 c-8.832,0-16,7.152-16,16L 96,320 l 320,0 L 416,16 zM 256,32c 8.848,0, 16,7.152, 16,16L 272,272 c0,8.848-7.152,16-16,16s-16-7.152-16-16l0-224 C 240,39.152, 247.152,32, 256,32z"  />
<glyph unicode="&#xe20e;" d="M 511.936,479.888L 74.48,207.312l 165.856,0.128L 0.064-31.888l 479.408,305.12l-164.96-0.112
	L 511.936,479.888z"  />
<glyph unicode="&#xe20f;" d="M 217.296-0.112c 113.632,0, 213.936,62.976, 213.936,167.92c0,38.288-17.904,61.744-25.408,74.096c-6.256,7.408-6.256,13.584, 8.752,14.816
	c 58.672,8.64, 97.376,40.752, 97.376,102.48c0,33.344-27.472,73.44-77.408,73.44c-23.712,0-52.688-22.816-52.688-47.504
	c0-13.6, 13.984-29.824, 33.952-29.824c 22.48,0, 35.216,23.648, 31.472,33.536c-1.232,6.176-5.232,13.584, 3.488,13.584
	c 16.256,0, 34.976-20.992, 34.976-40.752c0-34.576-32.464-58.336-83.664-58.336c-27.472,0-51.184,16.944-77.408,16.944
	c-66.176,0-104.88-52.448-104.88-98.144c0-51.856, 39.952-76.544, 69.92-76.544c 33.696,0, 43.696,19.744, 43.696,35.808
	c0,18.512-11.248,30.864-34.976,30.864c-18.72,0-27.472-19.744-26.224-29.632c 1.248-4.944-2.496-8.64-6.256-8.64
	c-4.992,0-19.968,16.048-19.968,37.024c0,14.832, 10,63.568, 62.432,63.568c 56.176,0, 95.312-51.2, 95.312-93.184
	c0-59.264-66.608-122.256-180.224-122.256c-113.632,0-178.544,51.856-178.544,127.184c0,34.576, 14.992,66.672, 33.696,80.256
	c 7.504,4.944, 11.248,3.696, 14.992-2.464c 8.752-6.176, 28.72-22.816, 41.2-22.816c 16.24,0, 24.976,20.336, 24.976,37.648
	c0,14.816-17.472,24.992-32.448,24.992s-24.976-8.944-31.216-11.408c-8.736,13.584-13.728,30.864-13.728,44.448c0,39.504, 28.72,64.304, 56.192,64.304
	c 23.712,0, 43.696-18.608, 39.952-42.080c-1.248-6.176-1.248-11.104, 1.248-11.104c 9.984,0, 32.448,14.816, 32.448,41.984
	c0,38.272-28.704,58.032-66.176,58.032c-61.168,0-98.624-43.216-98.624-88.912c0-27.152, 9.984-51.856, 26.224-72.848
	c-24.976-11.104-73.664-53.088-73.664-127.184C 0.048,96.208, 43.744-0.112, 217.296-0.112z"  />
<glyph unicode="&#xe210;" d="M 146.304,112.208l 157.44,64.512l 64.512,158.96l-158.944-63.024L 146.304,112.208z
			 M 256.464,255.536c 17.664,0, 32-14.336, 32-32s-14.336-32-32-32s-32,14.336-32,32S 238.8,255.536, 256.464,255.536z M 256,480C 114.608,480,0,365.392,0,224
			s 114.608-256, 256-256s 256,114.608, 256,256S 397.392,480, 256,480z M 257.792,31.664c-106.352,0-192.56,86.208-192.56,192.544S 151.44,416.768, 257.792,416.768
			c 106.336,0, 192.544-86.224, 192.544-192.576S 364.144,31.664, 257.792,31.664z"  />
<glyph unicode="&#xe211;" d="M 112,96L 16,96 c-8.848,0-16-7.152-16-16l0-96 c0-8.848, 7.152-16, 16-16l 96,0 c 8.848,0, 16,7.152, 16,16l0,96 
			C 128,88.848, 120.848,96, 112,96z M 96,16c0-8.848-7.152-16-16-16L 48,0 c-8.848,0-16,7.152-16,16l0,32 c0,8.848, 7.152,16, 16,16l 32,0 c 8.848,0, 16-7.152, 16-16L 96,16 z
			 M 496,64L 208,64 c-8.848,0-16-7.152-16-16l0-32 c0-8.848, 7.152-16, 16-16l 288,0 c 8.848,0, 16,7.152, 16,16l0,32 C 512,56.848, 504.848,64, 496,64z M 496,256L 208,256 
			c-8.848,0-16-7.152-16-16l0-32 c0-8.848, 7.152-16, 16-16l 288,0 c 8.848,0, 16,7.152, 16,16l0,32 C 512,248.848, 504.848,256, 496,256z M 112,480L 16,480 C 7.152,480,0,472.848,0,464l0-96 
			c0-8.848, 7.152-16, 16-16l 96,0 c 8.848,0, 16,23.152, 16,32L 128,464 C 128,472.848, 120.848,480, 112,480z M 96,400c0-8.848-7.152-16-16-16L 48,384 C 39.152,384, 32,391.152, 32,400L 32,432 
			c0,8.848, 7.152,16, 16,16l 32,0 c 8.848,0, 16-7.152, 16-16L 96,400 z M 112,288L 16,288 c-8.848,0-16-7.152-16-16l0-96 c0-8.848, 7.152-16, 16-16l 96,0 c 8.848,0, 16,7.152, 16,16l0,96 
			C 128,280.848, 120.848,288, 112,288z M 96,208c0-8.848-7.152-16-16-16L 48,192 c-8.848,0-16,7.152-16,16l0,32 c0,8.848, 7.152,16, 16,16l 32,0 c 8.848,0, 16-7.152, 16-16L 96,208 z
			 M 496,448L 208,448 c-8.848,0-16-7.152-16-16l0-32 c0-8.848, 7.152-16, 16-16l 288,0 c 8.848,0, 16,7.152, 16,16L 512,432 C 512,440.848, 504.848,448, 496,448z"  />
<glyph unicode="&#xe212;" d="M 112,288L 16,288 c-8.848,0-16-7.152-16-16l0-96 c0-8.848, 7.152-16, 16-16l 96,0 c 8.848,0, 16,7.152, 16,16l0,96 
			C 128,280.848, 120.848,288, 112,288z M 96,208c0-8.848-7.152-16-16-16L 48,192 c-8.848,0-16,7.152-16,16l0,32 c0,8.848, 7.152,16, 16,16l 32,0 c 8.848,0, 16-7.152, 16-16L 96,208 z
			 M 112,480L 16,480 C 7.152,480,0,472.848,0,464l0-96 c0-8.848, 7.152-16, 16-16l 96,0 c 8.848,0, 16,23.152, 16,32L 128,464 C 128,472.848, 120.848,480, 112,480z M 96,400c0-8.848-7.152-16-16-16L 48,384 
			C 39.152,384, 32,391.152, 32,400L 32,432 c0,8.848, 7.152,16, 16,16l 32,0 c 8.848,0, 16-7.152, 16-16L 96,400 z M 112,96L 16,96 c-8.848,0-16-7.152-16-16l0-96 c0-8.848, 7.152-16, 16-16l 96,0 
			c 8.848,0, 16,7.152, 16,16l0,96 C 128,88.848, 120.848,96, 112,96z M 96,16c0-8.848-7.152-16-16-16L 48,0 c-8.848,0-16,7.152-16,16l0,32 c0,8.848, 7.152,16, 16,16l 32,0 
			c 8.848,0, 16-7.152, 16-16L 96,16 z M 304,288l-96,0 c-8.848,0-16-7.152-16-16l0-96 c0-8.848, 7.152-16, 16-16l 96,0 c 8.848,0, 16,7.152, 16,16l0,96 
			C 320,280.848, 312.848,288, 304,288z M 288,208c0-8.848-7.152-16-16-16l-32,0 c-8.848,0-16,7.152-16,16l0,32 c0,8.848, 7.152,16, 16,16l 32,0 c 8.848,0, 16-7.152, 16-16
			L 288,208 z M 304,96l-96,0 c-8.848,0-16-7.152-16-16l0-96 c0-8.848, 7.152-16, 16-16l 96,0 c 8.848,0, 16,7.152, 16,16l0,96 C 320,88.848, 312.848,96, 304,96z M 288,16
			c0-8.848-7.152-16-16-16l-32,0 c-8.848,0-16,7.152-16,16l0,32 c0,8.848, 7.152,16, 16,16l 32,0 c 8.848,0, 16-7.152, 16-16L 288,16 z M 496,288l-96,0 c-8.848,0-16-7.152-16-16
			l0-96 c0-8.848, 7.152-16, 16-16l 96,0 c 8.848,0, 16,7.152, 16,16l0,96 C 512,280.848, 504.848,288, 496,288z M 480,208c0-8.848-7.152-16-16-16l-32,0 c-8.848,0-16,7.152-16,16
			l0,32 c0,8.848, 7.152,16, 16,16l 32,0 c 8.848,0, 16-7.152, 16-16L 480,208 z M 496,480l-96,0 c-8.848,0-16-7.152-16-16l0-96 c0-8.848, 7.152-16, 16-16l 96,0 c 8.848,0, 16,23.152, 16,32L 512,464 
			C 512,472.848, 504.848,480, 496,480z M 480,400c0-8.848-7.152-16-16-16l-32,0 c-8.848,0-16,7.152-16,16L 416,432 c0,8.848, 7.152,16, 16,16l 32,0 c 8.848,0, 16-7.152, 16-16L 480,400 z
			 M 304,480l-96,0 c-8.848,0-16-7.152-16-16l0-96 c0-8.848, 7.152-16, 16-16l 96,0 c 8.848,0, 16,23.152, 16,32L 320,464 C 320,472.848, 312.848,480, 304,480z M 288,400
			c0-8.848-7.152-16-16-16l-32,0 c-8.848,0-16,7.152-16,16L 224,432 c0,8.848, 7.152,16, 16,16l 32,0 c 8.848,0, 16-7.152, 16-16L 288,400 z M 496,96l-96,0 c-8.848,0-16-7.152-16-16l0-96 
			c0-8.848, 7.152-16, 16-16l 96,0 c 8.848,0, 16,7.152, 16,16l0,96 C 512,88.848, 504.848,96, 496,96z M 480,16c0-8.848-7.152-16-16-16l-32,0 c-8.848,0-16,7.152-16,16
			l0,32 c0,8.848, 7.152,16, 16,16l 32,0 c 8.848,0, 16-7.152, 16-16L 480,16 z"  />
<glyph unicode="&#xe213;" d="M 384-32L 384-32c-8.848,0-16,7.152-16,16l-160,144L 128,128 c-8.832,0-16,7.152-16,16l0,128 
	c0,8.848, 7.168,16, 16,16l 80,0 L 368,464c0,8.848, 7.152,16, 16,16l0,0c 8.848,0, 16-7.152, 16-16l0-480 C 400-24.848, 392.848-32, 384-32z"  />
<glyph unicode="&#xe214;" d="M 361.040,415.776c-3.008,0-5.936-0.336-8.88-0.56l0-27.84 
			c 68.656,0, 124.32-73.136, 124.32-163.376s-55.664-163.376-124.32-163.376l0-27.84 c 2.944-0.224, 5.872-0.56, 8.88-0.56
			C 444.432,32.224, 512,118.080, 512,224S 444.432,415.776, 361.040,415.776z M 432.080,224c0,55.776-33.888,102.32-79.904,116.88l0-38.4 
			c 23.552-14.032, 39.952-43.744, 39.952-78.464s-16.4-64.432-39.952-78.464l0-38.4 C 398.192,121.68, 432.080,168.224, 432.080,224z M 272.128,480
			c-8.848,0-16-7.152-16-16L 96.032,288L 16,288 c-8.848,0-16-7.152-16-16l0-128 c0-8.848, 7.168-16, 16-16l 80.032,0 l 160.080-144c0-8.848, 7.152-16, 16-16
			c 8.864,0, 16.016,7.152, 16.016,16L 288.128,464 C 288.144,472.848, 280.992,480, 272.128,480z"  />
<glyph unicode="&#xe215;" d="M 480,480L 32,480 C 14.336,480,0,465.664,0,448l0-320 c0-17.664, 14.336-32, 32-32l 128,0 l-64-128l 16,0 l 115.2,128l 57.6,0 l 115.2-128l 16,0 
		l-64,128l 128,0 c 17.664,0, 32,14.336, 32,32L 512,448 C 512,465.664, 497.664,480, 480,480z M 480,144c0-8.848-7.152-16-16-16L 48,128 c-8.848,0-16,7.152-16,16L 32,432 c0,8.848, 7.152,16, 16,16
		l 416,0 c 8.848,0, 16-7.152, 16-16L 480,144 z M 334.048,229.904L 261.712,415.968l-79.008-148.64l-44.096,45.36L 64,266.192l 21.056-12.128l 10.128,6.304l 37.68,23.488
		l 57.68-59.392l 66.8,125.648l 73.856-190.064l 62.992,132.608l 25.664-54.624L 448,242.752l-53.664,114.112L 334.048,229.904z"  />
<glyph unicode="&#xe216;" d="M 256,352c-70.688,0-128-57.312-128-128s 57.312-128, 128-128s 128,57.312, 128,128S 326.688,352, 256,352z M 256,128
			c-53.008,0-96,42.992-96,96s 42.992,96, 96,96s 96-42.992, 96-96S 309.008,128, 256,128z M 256,480C 114.608,480,0,365.392,0,224s 114.608-256, 256-256s 256,114.608, 256,256
			S 397.392,480, 256,480z M 256,32C 149.968,32, 64,117.968, 64,224S 149.968,416, 256,416s 192-85.968, 192-192S 362.032,32, 256,32z M 256,272c-26.512,0-48-21.488-48-48
			s 21.488-48, 48-48s 48,21.488, 48,48S 282.512,272, 256,272z"  />
<glyph unicode="&#xe217;" d="M 287.376,288.736L 287.376,448 L 512,224L 287.376,0L 287.376,160.672 C 173.216,160.672, 60.544,140.8,0,46.496
	C 6.304,218.352, 134.88,259.264, 287.376,288.736z"  />
<glyph unicode="&#xe218;" d="M 207.216,32.368c-0.4-0.4-0.816-0.816-1.2-1.216
	c-40.128-38.384-103.952-39.136-142.656-1.536c-41.056,38.64-41.872,94.608, 0.704,137.664c 0.336,0.336, 0.608,0.688, 0.944,1.024
	c 0.4,0.368, 0.784,0.768, 1.168,1.136l 264.32,256.864l0-0.112 l 0.064,0.208l 2.096,2.048c 24.416,23.232, 63.136,23.648, 86.624,0.816
	c 14.128-20.128, 23.024-60.624-0.784-84.176l-2.192-2.144l-25.008-24.272l-22.944-22.32L 174.768,108.272l-0.096,0.096l-22.336-21.696
	l-0.608,0.752l-0.56-0.624l-1.104-1.216c-0.096-0.064-0.208-0.128-0.288-0.224c-8.928-8.064-22.704-8.128-31.136,0.064
	c-8.352,8.128-8.336,20.032-0.016,28.896c 0.272,0.256, 0.432,0.56, 0.704,0.816l 24.224,23.552l 177.36,172.336L 296.64,334.56L 119.28,162.192
	l-21.536-23.504l0-0.032 c-0.064-0.064-0.128-0.096-0.208-0.192c-0.192-0.192-0.352-0.368-0.544-0.576
	c-22.128-22.096-25.184-54.208-3.36-75.44c 21.84-21.2, 57.632-19.52, 80.352,2l 0.032-0.032l 0.448,0.464
	c 0.048,0.032, 0.096,0.064, 0.128,0.096c 0.048,0.032, 0.080,0.096, 0.112,0.128l 240.832,230.016l 24.976,24.304l 2.224,2.128l-0.032,0.032
	c 37.696,37.168, 19.792,106.784, 1.568,131.968c-37.088,36.032-98.144,35.152-136.368-2.016c-0.56-0.528-1.024-1.12-1.568-1.68l-0.064,0.048
	L 41.92,193.008l 0.032-0.032c-0.208-0.224-0.432-0.368-0.656-0.592c-0.368-0.336-0.704-0.784-1.072-1.152l-0.384-0.368l 0.016-0.032
	c-52.432-52.512-53.296-135.088-1.472-185.504c 52.336-50.864, 138.528-49.584, 192.48,2.848c 0.224,0.224, 0.384,0.432, 0.608,0.656l 0.064-0.064
	L 512,281.328l-24.256,23.568L 207.216,32.368z"  />
<glyph unicode="&#xe219;" d="M 208,192c 8.832,0, 16,7.152, 16,16s-7.168,16-16,16s-16-7.152-16-16S 199.168,192, 208,192z M 256,256
			c 8.848,0, 16,7.152, 16,16s-7.152,16-16,16s-16-7.152-16-16S 247.152,256, 256,256z M 208,320c 8.832,0, 16,7.152, 16,16s-7.168,16-16,16s-16-7.152-16-16
			S 199.168,320, 208,320z M 304,320c 8.848,0, 16,7.152, 16,16s-7.152,16-16,16s-16-7.152-16-16S 295.152,320, 304,320z M 160,256c 8.832,0, 16,7.152, 16,16
			s-7.168,16-16,16s-16-7.152-16-16S 151.168,256, 160,256z M 400,320c 8.848,0, 16,7.152, 16,16s-7.152,16-16,16s-16-7.152-16-16S 391.152,320, 400,320z M 352,256
			c 8.848,0, 16,7.152, 16,16s-7.152,16-16,16s-16-7.152-16-16S 343.152,256, 352,256z M 304,192c 8.848,0, 16,7.152, 16,16s-7.152,16-16,16s-16-7.152-16-16
			S 295.152,192, 304,192z M 432,288c-8.848,0-16-7.152-16-16s 7.152-16, 16-16s 16,7.152, 16,16S 440.848,288, 432,288z M 480,416L 32,416 C 14.336,416,0,401.664,0,384l0-320 
			c0-17.664, 14.336-32, 32-32l 448,0 c 17.664,0, 32,14.336, 32,32L 512,384 C 512,401.664, 497.664,416, 480,416z M 480,80c0-8.848-7.152-16-16-16L 48,64 c-8.832,0-16,7.152-16,16L 32,368 
			c0,8.848, 7.168,16, 16,16l 416,0 c 8.848,0, 16-7.152, 16-16L 480,80 z M 368,128L 144,128 c-8.832,0-16-7.152-16-16s 7.168-16, 16-16l 224,0 c 8.848,0, 16,7.152, 16,16
			S 376.848,128, 368,128z M 80,288c-8.832,0-16-7.152-16-16s 7.168-16, 16-16s 16,7.152, 16,16S 88.832,288, 80,288z M 112,224c-8.832,0-16-7.152-16-16s 7.168-16, 16-16
			s 16,7.152, 16,16S 120.832,224, 112,224z M 112,320c 8.832,0, 16,7.152, 16,16S 120.832,352, 112,352S 96,344.848, 96,336S 103.168,320, 112,320z M 400,224c-8.848,0-16-7.152-16-16
			s 7.152-16, 16-16s 16,7.152, 16,16S 408.848,224, 400,224z"  />
<glyph unicode="&#xe21a;" d="M 383.968,329.744l 91.472,91.472c 6.144,6.128, 6.144,16.080,0,22.224
		c-6.128,6.128-16.064,6.128-22.208,0l-91.488-91.488L 127.968,351.952 l0,48 c0,8.848-7.168,16-16,16l-32,0 c-8.832,0-16-7.152-16-16l0-48 l-48,0 c-8.832,0-16-7.152-16-16
		l0-32 c0-8.848, 7.168-16, 16-16l 48,0 l0-240 c0-8.848, 7.168-16, 16-16l 240,0 l0-48 c0-8.848, 7.152-16, 16-16l 32,0 c 8.848,0, 16,7.152, 16,16l0,48 l 48,0 c 8.848,0, 16,7.152, 16,16l0,32 
		c0,8.848-7.152,16-16,16l-48,0 L 383.968,329.744 z M 297.744,287.968L 127.968,118.176L 127.968,287.968 L 297.744,287.968 z M 150.208,95.968l 169.76,169.776l0-169.776 L 150.208,95.968 z"  />
<glyph unicode="&#xe21b;" d="M 480-32L 32-32 c-17.664,0-32,14.336-32,32L0,448 c0,17.664, 14.336,32, 32,32l 384,0 l 96-96l0-384 
	C 512-17.664, 497.664-32, 480-32z M 128,48c0-8.848, 7.168-16, 16-16l 224,0 c 8.848,0, 16,7.152, 16,16l0,128 c0,8.848-7.152,16-16,16L 144,192 c-8.832,0-16-7.152-16-16L 128,48 z
	 M 352,400c0,8.848-7.152,16-16,16s-16-7.152-16-16l0-48 c0-8.848, 7.152-16, 16-16s 16,7.152, 16,16L 352,400 z M 448,368l-48,48l-16,0 l0-112 c0-8.848-7.152-16-16-16L 144,288 
	c-8.832,0-16,7.152-16,16L 128,416 L 80,416 C 71.168,416, 64,408.848, 64,400l0-352 c0-8.848, 7.168-16, 16-16l 16,0 L 96,208 c0,8.848, 7.168,16, 16,16l 288,0 c 8.848,0, 16-7.152, 16-16l0-176 l 16,0 
	c 8.848,0, 16,7.152, 16,16L 448,368 z"  />
<glyph unicode="&#xe21c;" d="M 512,401.504c0-60.24-161.616-201.296-191.792-261.552l0-124.624 
	c0-0.336-0.192-0.576-0.224-0.912L 319.984,0 c0-17.664-14.336-32-31.984-32l-64,0 c-17.664,0-32,14.336-32,32l0,14.384 c-0.032,0.336-0.24,0.576-0.24,0.944
	l0,124.624 C 161.632,200.208,0,341.264,0,401.504l 0.464,0 C 0.368,402.176,0,402.752,0,403.392C0,437.648, 114.672,480, 256,480s 256-42.352, 256-76.608
	c0-0.64-0.368-1.216-0.48-1.888L 512,401.504 z M 258.72,448.256c-124.016,0-226.944-19.92-226.944-56.448c0-36.512, 102.928-72.080, 226.944-72.080
	c 124.032,0, 220.96,35.568, 220.96,72.080C 479.664,428.336, 382.752,448.256, 258.72,448.256z"  />
<glyph unicode="&#xe21d;" d="M 392,480l-272,0 C 53.712,480,0,426.288,0,360S 53.712,240, 120,240l 21.824,0 
	c 25.536-26.016, 59.84-43.36, 98.176-47.168L 240,32 l-48,0 l-64-64l 256,0 l-64,64l-48,0 L 272,192.832 c 38.336,3.808, 72.64,21.152, 98.176,47.168L 392,240 
	c 66.288,0, 120,53.712, 120,120S 458.288,480, 392,480z M 32,360c0,40.224, 27.136,73.76, 64,84.272L 96,432 l0-16 l0-64 c0-29.056, 7.872-56.256, 21.424-79.728
	C 70.048,273.664, 32,312.288, 32,360z M 394.576,272.272C 408.128,295.744, 416,322.944, 416,352L 416,416 L 416,432 L 416,444.272 c 36.864-10.496, 64-44.048, 64-84.272
	C 480,312.288, 441.952,273.664, 394.576,272.272z"  />
<glyph unicode="&#xe21e;" d="M 448,128l-32,0 c-35.344,0-64,28.656-64,64s 28.656,64, 64,64l 32,0 c 35.344,0, 64-28.656, 64-64
	S 483.344,128, 448,128z M 448,224l-32,0 c-17.664,0-32-14.336-32-32s 14.336-32, 32-32l 32,0 c 17.664,0, 32,14.336, 32,32S 465.664,224, 448,224z M 320,192
	c0-1.376, 0.336-2.64, 0.4-4C 320.336,186.656, 320,185.376, 320,184c0-16.832, 6.016-32.096, 15.68-44.352C 352.816,113.408, 382.336,96, 416,96l 64,0 
	l0-64 c0-17.664-14.336-32-32-32L 32,0 c-17.664,0-32,14.336-32,32L0,344 L0,352 L0,392 c0,25.168, 16.72,46.224, 39.6,53.264C 42.064,446.848, 44.848,448, 48,448l 416,0 
	c 8.848,0, 16-7.152, 16-16s-7.152-16-16-16L 176,416 L 106.4,416 L 48,416 C 39.152,416, 32,408.848, 32,400l0-16 l 416,0 c 17.664,0, 32-14.336, 32-32l0-64 l-64,0 C 362.992,288, 320,245.008, 320,192z
	 M 40,32l 400,0 c 4.416,0, 8,3.584, 8,8S 444.416,48, 440,48l-400,0 C 35.584,48, 32,44.416, 32,40S 35.584,32, 40,32z M 448,344
	C 448,348.416, 444.416,352, 440,352l-400,0 C 35.584,352, 32,348.416, 32,344S 35.584,336, 40,336l 400,0 C 444.416,336, 448,339.584, 448,344z"  />
<glyph unicode="&#xe21f;" d="M 464-32L 112-32 c-8.832,0-16,7.152-16,16l0,16 L 48,0 c-8.848,0-16,7.152-16,16l0,32 c0,8.848, 7.152,16, 16,16
	l 48,0 l0,32 L 48,96 c-8.848,0-16,7.152-16,16l0,32 c0,8.848, 7.152,16, 16,16l 48,0 l0,32 L 48,192 c-8.848,0-16,7.152-16,16l0,32 c0,8.848, 7.152,16, 16,16l 48,0 l0,32 L 48,288 
	c-8.848,0-16,7.152-16,16L 32,336 c0,8.848, 7.152,16, 16,16l 48,0 L 96,384 L 48,384 C 39.152,384, 32,391.152, 32,400L 32,432 c0,8.848, 7.152,16, 16,16l 48,0 L 96,464 c0,8.848, 7.168,16, 16,16l 352,0 
	c 8.848,0, 16-7.152, 16-16l0-480 C 480-24.848, 472.848-32, 464-32z M 96,432L 64,432 C 55.152,432, 48,424.848, 48,416s 7.152-16, 16-16l 32,0 c 8.848,0, 16,7.152, 16,16S 104.848,432, 96,432z
	 M 96,336L 64,336 c-8.848,0-16-7.152-16-16s 7.152-16, 16-16l 32,0 c 8.848,0, 16,7.152, 16,16S 104.848,336, 96,336z M 96,240L 64,240 c-8.848,0-16-7.152-16-16s 7.152-16, 16-16l 32,0 
	c 8.848,0, 16,7.152, 16,16S 104.848,240, 96,240z M 96,144L 64,144 c-8.848,0-16-7.152-16-16s 7.152-16, 16-16l 32,0 c 8.848,0, 16,7.152, 16,16S 104.848,144, 96,144z M 96,48L 64,48 
	c-8.848,0-16-7.152-16-16s 7.152-16, 16-16l 32,0 c 8.848,0, 16,7.152, 16,16S 104.848,48, 96,48z M 384,146c0,27.28-33.888,37.072-78.592,41.168
	c 1.856,1.136, 3.552,3.008, 5.232,4.832L 304,192 c 8.848,0, 16,7.152, 16,16l0,96 c0,8.848-7.152,16-16,16l-32,0 c-8.848,0-16-7.152-16-16l0-96 
	c0-8.848, 7.152-16, 16-16l-6.64,0 c 1.68-1.824, 3.392-3.68, 5.232-4.832C 225.888,183.072, 192,172.912, 192,146L 192,128 l 192,0 L 384,146 z"  />
<glyph unicode="&#xe220;" d="M 256,480C 114.608,480,0,365.392,0,224s 114.608-256, 256-256s 256,114.608, 256,256S 397.392,480, 256,480z M 352,160
		c0-17.664-14.336-32-32-32l-128,0 c-17.664,0-32,14.336-32,32l0,128 c0,17.664, 14.336,32, 32,32l 128,0 c 17.664,0, 32-14.336, 32-32L 352,160 z"  />
<glyph unicode="&#xe221;" d="M 352,320c-17.664,0-32-14.336-32-32s 14.336-32, 32-32s 32,14.336, 32,32S 369.664,320, 352,320zM 160,256c 17.664,0, 32,14.336, 32,32s-14.336,32-32,32s-32-14.336-32-32S 142.336,256, 160,256zM 256,480C 114.608,480,0,365.392,0,224c0-141.392, 114.608-256, 256-256c 141.392,0, 256,114.608, 256,256
		C 512,365.392, 397.392,480, 256,480z M 160,352c 35.344,0, 64-28.656, 64-64s-28.656-64-64-64s-64,28.656-64,64S 124.656,352, 160,352z
		 M 256,32c-65.6,0-121.904,39.52-146.592,96l 293.184,0 C 377.904,71.52, 321.6,32, 256,32z M 352,224c-35.344,0-64,28.656-64,64
		s 28.656,64, 64,64s 64-28.656, 64-64S 387.344,224, 352,224z"  />
<glyph unicode="&#xe222;" d="M 309.072,367.92l 16.496,0 c 31.984,44.032-21.952,64.048,0,112.080l-16.496,0 
		C 289.888,432.768, 335.008,414.352, 309.072,367.92z M 244.704,351.904l 16.768,0 c-22.304,48.032, 32.496,84.064,0,128.096l-16.768,0 
		C 271.056,433.568, 225.2,399.136, 244.704,351.904z M 487.472,73.328c-3.2,12.336-7.024,18.64-24.496,20.016
		c-6.64,0.432-12.992,0.816-19.584,1.248c 0.176,0.32, 0.288,0.784, 0.432,1.12l-51.040,0 c-4.448,0-8.064,3.584-8.064,8
		c0,4.432, 3.616,8.016, 8.064,8.016l 54.496,0 c 1.12,13.6-0.496,30.288-5.328,38.992c-7.152,13.776-13.808,24.976-20.272,33.824
		c-11.152,13.92-31.824,23.248-47.104,28.272c-1.792,0.464-3.968,0.88-6.32,1.264c-0.816-3.568-3.872-6.288-7.696-6.288l-48.336,0 
		c-4.448,0-8.064,3.584-8.064,8.016c0,1.872, 6.544,3.584, 14.336,4.96c-9.696,22.928, 1.776,51.072, 1.776,51.072
		c0,17.68-32.24,53.36-32.24,32.016s-76.688,0-76.688,0c-10.416,11.664-19.984,32.016-19.984,32.016s-28.096-15.872-31.552-36.096
		c-9.968-5.44-16.8-15.84-16.8-27.952l0-16 c0-7.472, 1.328-20, 4.672-32.016l 35.616,0 c 4.448,0, 8.064-3.584, 8.064-8
		c0-4.432-3.616-8.016-8.064-8.016L 134.992,207.792 c-3.616,0-6.544,2.368-7.584,5.632c-10.656,2.32-21.44,5.344-32.384,9.488
		c-17.952-0.368-32.528-14.448-32.528-31.968l0-31.664 c 0.016-5.904, 1.696-11.488, 4.656-16.336c 1.024,0.48, 2.176,0.8, 3.392,0.8l 64.448,0 
		c 4.448,0, 8.048-3.584, 8.048-8s-3.6-8.016-8.048-8.016L 85.664,127.728 c 1.408-0.544, 2.832-1.088, 4.336-1.488
		c-8.992,0.096-18,0.4-26.976,0.4c-15.712-0.080-37.184-13.584-44.464-25.824c-10.864-19.008-16.528-34.272-18.496-64.272
		C-0.992,16.512, 12.624-32, 27.728-32s 435.44,0.352, 435.44,0.352s 47.92,29.776, 48.72,48.112C 513.776,43.952, 491.408,54.704, 487.472,73.328z
		 M 185.728,383.936l 16.768,0 c-26.352,46.432, 19.504,48.832,0,96.064l-16.768,0 C 208.016,431.968, 153.248,427.968, 185.728,383.936z"  />
<glyph unicode="&#xe223;" d="M 384-32l-128,176L 128-32c-17.664,0-32,14.336-32,32L 96,448 c0,17.664, 14.336,32, 32,32l 256,0 
	c 17.664,0, 32-14.336, 32-32l0-448 C 416-17.664, 401.664-32, 384-32z M 376,448l-240,0 C 131.584,448, 128,444.416, 128,440S 131.584,432, 136,432l 240,0 C 380.416,432, 384,435.584, 384,440
	S 380.416,448, 376,448z"  />
<glyph unicode="&#xe224;" d="M 480,48l-96,80l0-80 c0-17.664-14.336-32-32-32L 32,16 c-17.664,0-32,14.336-32,32L0,320 c0,17.664, 14.336,32, 32,32
	l 123.168,0 L 107.84,416L 16,416 C 7.168,416,0,423.152,0,432s 7.168,16, 16,16l 96,0 c 8.832,0, 16-7.152, 16-16l 65.152-80L 352,352 c 17.664,0, 32-14.336, 32-32l0-80 l 96,96c 17.664,0, 32-14.336, 32-32
	l0-224 C 512,62.336, 499.664,48, 480,48z M 336,320l-96,0 c-8.848,0-16-7.152-16-16s 7.152-16, 16-16l 96,0 c 8.848,0, 16,7.152, 16,16S 344.848,320, 336,320z"  />
<glyph unicode="&#xe225;" d="M 416,240c-8.848,0-16-7.152-16-16l0-112 c0-8.848, 7.152-16, 16-16s 16,7.152, 16,16l0,112 
		C 432,232.848, 424.848,240, 416,240z M 368,0L 144,0 c-8.832,0-16-7.152-16-16s 7.168-16, 16-16l 224,0 c 8.848,0, 16,7.152, 16,16S 376.848,0, 368,0z M 320,464
		c0,8.848-7.152,16-16,16l-80,0 c0,0-16-7.152-16-16L0,272c0-8.848, 7.168-16, 16-16l 192,0 c-8.848,0-16-23.152-16-32l0-192 c0-8.848, 7.152-16, 16-16l 96,0 
		c 8.848,0, 16,7.152, 16,16L 320,224 c0,8.848-7.152,32-16,32l 192,0 c 8.848,0, 16,7.152, 16,16L 320,464z"  />
<glyph unicode="&#xe226;" d="M 188.112,291.872c-37.488-37.488-37.488-98.272,0-135.76
			c 37.488-37.488, 98.272-37.488, 135.76,0c 37.504,37.504, 37.504,98.288,0,135.76C 286.384,329.376, 225.616,329.376, 188.112,291.872z M 278.624,201.376
			c-12.496-12.496-32.752-12.496-45.248,0s-12.496,32.752,0,45.248s 32.752,12.496, 45.248,0S 291.12,213.872, 278.624,201.376z M 437.008,405.008
			c-99.968,99.984-262.064,99.984-362.032,0c-99.984-99.968-99.984-262.064,0-362.032c 99.968-99.984, 262.064-99.984, 362.032,0
			C 536.992,142.96, 536.992,305.040, 437.008,405.008z M 346.496,133.488c-49.968-49.984-131.024-49.984-181.008,0c-50,50-50,131.024,0,181.024
			c 49.984,49.984, 131.040,49.984, 181.008,0C 396.496,264.512, 396.496,183.488, 346.496,133.488z M 357.808,325.824l 56.576,79.184l 22.624-22.624
			L 357.808,325.824z"  />
<glyph unicode="&#xe227;" d="M 256,480C 114.624,480,0,365.392,0,224s 114.624-256, 256-256c 141.376,0, 256,114.608, 256,256
			S 397.376,480, 256,480z M 256,32C 149.968,32, 64,117.968, 64,224S 149.968,416, 256,416c 106.032,0, 192-85.968, 192-192S 362.032,32, 256,32z M 256,384
			C 167.632,384, 96,312.352, 96,224s 71.632-160, 160-160c 88.368,0, 160,71.648, 160,160S 344.368,384, 256,384z M 192,128c-17.664,0-32,14.336-32,32s 14.336,32, 32,32
			s 32-14.336, 32-32S 209.664,128, 192,128z M 192,256c-17.664,0-32,14.336-32,32s 14.336,32, 32,32s 32-14.336, 32-32S 209.664,256, 192,256z M 320,128
			c-17.664,0-32,14.336-32,32s 14.336,32, 32,32s 32-14.336, 32-32S 337.664,128, 320,128z M 320,256c-17.664,0-32,14.336-32,32s 14.336,32, 32,32s 32-14.336, 32-32
			S 337.664,256, 320,256z"  />
<glyph unicode="&#xe228;" d="M 256.224,126.688c-0.592,0-1.184,0-1.776,0c-140.512,0-254.16,34.128-254.192,60.336
	l-0.256,102.928c0,0.16, 0.064,0.304, 0.064,0.432c 23.136-10.976, 50.32-16.032, 66.576-19.056c 50.512-9.392, 117.232-14.576, 187.808-14.576l 1.776,0 
	c 71.024,0.080, 138.128,5.392, 189.008,14.944c 16.272,3.056, 43.36,8.144, 66.512,19.056c0-0.048,0-0.144,0-0.144l 0.272-102.928
	C 512.048,161.36, 397.568,126.88, 256.224,126.688z M 256.224,287.744c-0.592,0-1.184,0-1.776,0c-140.512,0-254.16,31.136-254.192,57.344
	l-0.256,86.944C-0.048,458.336, 114.496,479.824, 255.84,480c 0.624,0, 1.216,0, 1.84,0c 140.464,0, 254.032-21.12, 254.064-47.328l 0.272-86.944
	C 512.048,319.424, 397.568,287.936, 256.224,287.744z M 254.432,95.68l 1.776,0 c 71.024,0.096, 138.144,8.384, 189.008,17.936
	c 16.272,3.056, 43.36,8.144, 66.528,19.072l 0.256-116.736c 0.032-26.32-114.448-47.792-255.792-47.968c-0.608,0-1.184,0-1.808,0
	c-140.48,0-254.128,21.12-254.16,47.312L0,132.336c 23.136-10.992, 50.336-16.048, 66.624-19.072C 117.136,103.856, 183.84,95.68, 254.432,95.68z"  />
<glyph unicode="&#xe229;" d="M 480,416L 32,416 C 14.336,416,0,401.664,0,384l0-320 c0-17.664, 14.336-32, 32-32l 448,0 c 17.664,0, 32,14.336, 32,32L 512,384 
		C 512,401.664, 497.664,416, 480,416z M 48,384l 416,0 c 8.848,0, 16-7.152, 16-16l0-48 L 32,320 L 32,368 C 32,376.848, 39.152,384, 48,384z M 464,64L 48,64 c-8.848,0-16,7.152-16,16l0,144 l 448,0 l0-144 
		C 480,71.152, 472.848,64, 464,64z"  />
<glyph unicode="&#xe22a;" d="M 446.208,223.84c 20.032,22.224, 34.384,44.112, 42.752,65.136
	c 9.664,24.4, 9.312,45.584-1.024,62.944c-10.384,17.392-29.408,28.288-56.496,32.368c-23.248,3.52-50.224,2.608-80.464-2.72
	c-10.016,27.76-22.608,50.608-37.456,67.984c-17.296,20.224-36.704,30.464-57.632,30.464c-20.992,0-40.384-10.304-57.664-30.64
	c-14.864-17.472-27.344-40.336-37.168-68.032C 130.8,386.848, 103.84,387.808, 80.592,384.304C 53.504,380.208, 34.496,369.312, 24.080,351.904
	c-10.336-17.36-10.688-38.528-1.024-62.928c 8.32-20.976, 22.752-42.848, 42.96-65.104c-20.192-22.304-34.576-44.144-42.8-65.024
	c-9.6-24.32-9.184-45.44, 1.184-62.752c 10.352-17.392, 29.312-28.336, 56.304-32.512c 23.168-3.616, 50.128-2.688, 80.368,2.8
	c 9.984-27.664, 22.496-50.496, 37.28-67.92c 17.184-20.24, 36.528-30.48, 57.536-30.48c 20.944,0, 40.336,10.256, 57.632,30.464
	c 14.832,17.36, 27.408,40.256, 37.424,68.128c 30.24-5.76, 57.12-6.864, 80.224-3.264c 26.864,4.176, 45.856,15.072, 56.496,32.512
	c 10.352,17.36, 10.704,38.528, 1.008,62.944C 480.352,179.68, 466.096,201.552, 446.208,223.84z M 221.504,19.136
	c-10.8,13.776-20.112,32.208-27.728,54.8c 20.992,5.712, 41.92,12.976, 62.352,21.664c 20.512-8.8, 41.408-16.064, 62.336-21.664
	c-7.744-22.544-17.168-40.944-28.080-54.752C 268.096-9.088, 243.632-9.088, 221.504,19.136z M 290.368,428.72
	c 10.896-13.904, 20.336-32.352, 28.080-54.912c-19.504-5.264-40.384-12.448-62.32-21.472c-21.296,8.672-42.304,16-62.608,21.792
	c 7.744,22.336, 17.136,40.688, 27.984,54.592C 243.664,457.12, 268.080,457.12, 290.368,428.72z M 375.76,243.136c 8.528-6.688, 16.32-13.168, 23.28-19.392
	c-4.736-4.368-9.68-8.704-14.784-12.896c-2.8-2.288-5.632-4.592-8.496-6.928c 0.272,7.040, 0.384,13.792, 0.384,20.192
	C 376.16,229.952, 376.032,236.32, 375.76,243.136z M 372.304,287.696c-2.512,21.968-6.496,43.040-11.856,62.832c 24.288,4.784, 45.68,6.192, 63.664,4.16
	c 18.352-2.064, 30.656-8.064, 36.528-17.728c 6-10.064, 5.344-22.928-2.032-39.312c-7.12-15.904-19.104-32.896-35.68-50.592
	C 407.264,261.392, 390.304,275.024, 372.304,287.696z M 256.144,132.224c-14.416,6.4-28.752,13.632-42.608,21.472
	c-15.808,9.056-29.328,17.344-40.256,24.64c-1.2,13.328-1.808,28.72-1.808,45.792c0,17.056, 0.608,32.336, 1.792,45.504
	c 11.84,7.728, 25.536,16.032, 40.64,24.576c 13.6,7.392, 27.776,14.512, 42.224,21.2c 14.4-6.752, 28.592-13.856, 42.064-21.072
	c 14.176-8.144, 27.872-16.368, 40.816-24.544c 1.2-13.44, 1.792-28.768, 1.792-45.664c0-17.072-0.592-32.544-1.792-46.032
	c-12-7.872-25.584-16.064-40.512-24.416C 285.104,146, 270.896,138.784, 256.144,132.224z M 315.776,323.232
	c-5.312,2.992-11.232,6.16-17.696,9.52c 10.24,3.728, 20.128,7.008, 29.552,9.792c 2.32-9.728, 4.32-19.6, 5.968-29.504
	C 327.904,316.448, 321.952,319.856, 315.776,323.232z M 184.592,342.464c 9.6-2.912, 19.328-6.176, 29.136-9.76c-6.080-3.072-11.904-6.24-17.44-9.424
	c-6.192-3.408-12.144-6.8-17.792-10.192C 180.224,323.088, 182.256,332.928, 184.592,342.464z M 136.528,204.176c-8.608,6.608-16.48,13.184-23.584,19.664
	c 7.232,6.512, 15.072,12.992, 23.488,19.392c-0.208-6.24-0.304-12.576-0.304-19.088C 136.144,217.248, 136.272,210.576, 136.528,204.176z M 151.648,351.008
	c-5.36-20.384-9.28-41.456-11.664-62.784c-18.56-13.216-35.632-27.024-50.896-41.136c-16.576,17.664-28.608,34.656-35.84,50.608
	c-7.408,16.336-8.032,29.152-1.872,39.2c 6,9.872, 17.952,15.728, 36.56,17.92c 5.632,0.656, 11.648,0.992, 17.872,0.992
	C 119.552,355.808, 134.944,354.192, 151.648,351.008z M 53.408,150.096c 7.152,15.952, 19.056,32.928, 35.424,50.528c 15.424-14.288, 32.576-28.176, 51.136-41.376
	c 2.384-21.28, 6.304-42.096, 11.648-62.048c-24.256-4.768-45.632-6.176-63.584-4.176c-18.464,2.096-30.368,7.984-36.432,18.144
	C 45.472,121.008, 46.064,133.728, 53.408,150.096z M 195.76,124.88c 5.568-3.312, 11.616-6.608, 18.096-9.904
	c-10.128-3.728-19.968-6.96-29.424-9.648c-2.32,9.696-4.272,19.44-5.856,29.136C 184.304,131.056, 190.064,127.84, 195.76,124.88z
	 M 327.648,105.296c-9.536,2.688-19.392,5.904-29.52,9.648c 5.76,2.96, 11.84,6.224, 18.176,9.792c 5.888,3.264, 11.664,6.544, 17.232,9.792
	C 331.76,124.096, 329.792,114.336, 327.648,105.296z M 360.32,97.152c 5.232,20.016, 9.152,40.912, 11.68,62.336c 18.464,13.104, 35.536,26.912, 50.88,41.104
	c 16.384-17.792, 28.304-34.864, 35.456-50.768c 7.344-16.384, 8-29.136, 2.032-39.008c-5.904-9.76-18.16-15.776-36.416-17.92
	c-5.36-0.624-11.088-0.96-17.024-0.96C 392.992,91.952, 377.36,93.696, 360.32,97.152z"  />
<glyph unicode="&#xe22b;" d="M 464.768,222.736c-0.112-0.048-0.224-0.112-0.288-0.112c0-0.080,0-0.192,0-0.256
	c-33.152-17.12-63.504-23.92-90.784-23.92c-41.296,0-75.552,15.6-101.872,34.864c-0.16,0.112-0.368,0.256-0.496,0.4L 319.2,415.088
	c 15.136-12.912, 49.376-37.072, 101.264-37.072c 26.128,0, 56.656,6.112, 91.52,22.784L 464.768,222.736z M 150.128,293.28c-0.432,0-0.848,0-1.296,0
	c-24.768,0-54.24-7.184-90.592-23.424L 104.928,449.312c 35.376,15.792, 64.16,22.16, 88.16,22.672c 0.176,0, 0.352,0, 0.544,0
	c 14.112,0, 26.864-1.84, 38.144-4.768c 23.616-6.592, 57.568-28.848, 57.568-28.848L 289.344,438.24 c-9.728-36.48-38.528-144.576-48.24-180.576
	C 215.76,276.048, 188.528,292.848, 150.128,293.28z M 132.080,249.552c 3.072,0.288, 6.128,0.384, 9.184,0.384c 26.944,0, 51.536-10.32, 69.184-20.224
	c 7.552-4.448, 14.688-9.296, 21.776-14.112c-6.272-23.536-39.328-147.056-49.056-183.168c-26.224,19.104-54.016,36.064-94.096,36.064
	c-24.336,0-53.264-6.32-89.056-22.128L 47.408,226.24c 5.392,2.4, 10.656,4.608, 15.76,6.624C 80.448,239.52, 105.056,247.072, 132.080,249.552z
	 M 363.008,156.4c 25.152,0, 54.928,5.088, 89.472,18.64L 406.944,0.8c-39.264-17.728-70.656-24.784-96.912-24.784
	c-41.488,0-96.784,37.328-96.72,37.28l 47.248,179.584C 274.944,180.32, 308.24,156.4, 363.008,156.4z"  />
<glyph unicode="&#xe22c;" d="M 496,256l-50.768,0 C 431.712,336.32, 368.336,399.6, 288,413.12L 288,464 c0,8.848-7.152,16-16,16l-32,0 
		c-8.848,0-16-7.152-16-16l0-50.88 C 143.664,399.6, 80.288,336.32, 66.768,256L 16,256 c-8.848,0-16-7.152-16-16l0-32 c0-8.848, 7.152-16, 16-16l 50.768,0 
		c 13.52-80.32, 76.896-143.616, 157.232-157.12L 224-16 c0-8.848, 7.152-16, 16-16l 32,0 c 8.848,0, 16,7.152, 16,16l0,50.88 c 80.336,13.52, 143.712,76.816, 157.232,157.12L 496,192 
		c 8.848,0, 16,7.152, 16,16l0,32 C 512,248.848, 504.848,256, 496,256z M 379.936,256L 288,256 L 288,347.808 C 332.944,336.208, 368.336,300.912, 379.936,256z M 224,347.808L 224,256 
		L 132.048,256 C 143.648,300.912, 179.056,336.208, 224,347.808z M 132.048,192L 224,192 l0-91.792 C 179.056,111.776, 143.648,147.072, 132.048,192z M 288,100.208L 288,192 l 91.936,0 
		C 368.336,147.072, 332.944,111.776, 288,100.208z"  />
<glyph unicode="&#xe22d;" d="M 208,320L 80,320 c-8.848,0-16-7.152-16-16l0-160 c0-8.848, 7.152-16, 16-16l 224,0 c 8.848,0, 16,7.152, 16,16
		l-96,160C 224,312.848, 216.848,320, 208,320zM 496,320l-48,0 L 448,368 c0,8.848-7.152,16-16,16L 16,384 C 7.152,384,0,376.848,0,368l0-288 c0-8.848, 7.152-16, 16-16
		l 416,0 c 8.848,0, 16,7.152, 16,16l0,48 l 48,0 c 8.848,0, 16,7.152, 16,16L 512,304 C 512,312.848, 504.848,320, 496,320z M 416,112c0-8.848-7.152-16-16-16L 48,96 
		c-8.848,0-16,7.152-16,16L 32,336 c0,8.848, 7.152,16, 16,16l 352,0 c 8.848,0, 16-7.152, 16-16L 416,112 z"  />
</font>
</defs>
</svg>
