<?xml version="1.0" standalone="no"?>
<!DOCTYPE svg PUBLIC "-//W3C//DTD SVG 1.1//EN" "http://www.w3.org/Graphics/SVG/1.1/DTD/svg11.dtd" >
<svg xmlns="http://www.w3.org/2000/svg">
<metadata>
This is a custom SVG font generated by IcoMoon.
<iconset grid="32"></iconset>
</metadata>
<defs>
<font id="brankic1979" horiz-adv-x="1024" >
<font-face units-per-em="1024" ascent="960" descent="-64" />
<missing-glyph horiz-adv-x="1024" />
<glyph class="hidden" unicode="&#xf000;" d="M0,960L 1024 -64L0 -64 z" horiz-adv-x="0" />
<glyph unicode="&#xe000;" d="M 512,864C 282.24,864, 96,677.76, 96,448s 186.24-416, 416-416s 416,186.24, 416,416S 741.76,864, 512,864z M 512,96C 317.6,96, 160,253.6, 160,448S 317.6,800, 512,800
			s 352-157.6, 352-352S 706.4,96, 512,96z M 474.496,553.312c-18.848-14.656-36.288-24.64-52.32-29.888l0-55.744 c 30.496,10.048, 56.992,25.568, 79.488,46.56
			l0-227.552 l 65.504,0 l0,320 l-53.952,0 C 506.24,587.104, 493.312,568, 474.496,553.312z"  />
<glyph unicode="&#xe001;" d="M 512,864C 282.24,864, 96,677.76, 96,448s 186.24-416, 416-416s 416,186.24, 416,416S 741.76,864, 512,864z M 512,96C 317.6,96, 160,253.6, 160,448S 317.6,800, 512,800
			s 352-157.6, 352-352S 706.4,96, 512,96z M 562.048,391.136c 19.424,17.792, 32.864,31.424, 40.32,40.896c 11.232,14.304, 19.424,28, 24.64,41.024
			c 5.152,13.056, 7.744,26.816, 7.744,41.248c0,25.376-9.056,46.624-27.136,63.68c-18.080,17.056-42.944,25.6-74.592,25.6
			c-28.864,0-52.928-7.36-72.192-22.080s-30.72-38.976-34.336-72.8l 61.248-6.112c 1.152,17.92, 5.536,30.72, 13.12,38.432
			c 7.552,7.712, 17.76,11.552, 30.592,11.552c 12.96,0, 23.136-3.68, 30.464-11.040c 7.36-7.36, 11.072-17.92, 11.072-31.616
			c0-12.384-4.256-24.928-12.672-37.632c-6.24-9.184-23.264-26.688-50.944-52.48c-34.432-31.936-57.472-57.568-69.12-76.896
			c-11.68-19.328-18.688-39.744-20.992-61.344l 215.488,0 l0,56.992 l-122.208,0 c 3.232,5.536, 7.392,11.232, 12.608,17.088
			C 530.272,361.504, 542.592,373.312, 562.048,391.136z"  />
<glyph unicode="&#xe002;" d="M 512,864C 282.24,864, 96,677.76, 96,448s 186.24-416, 416-416s 416,186.24, 416,416S 741.76,864, 512,864z M 512,96C 317.6,96, 160,253.6, 160,448S 317.6,800, 512,800
			s 352-157.6, 352-352S 706.4,96, 512,96z M 551.936,472.992c 30.816,16.8, 46.176,39.296, 46.176,67.456c0,19.872-7.488,37.664-22.56,53.44
			c-18.272,19.264-42.56,28.896-72.8,28.896c-17.696,0-33.664-3.328-47.904-9.952s-25.344-15.776-33.344-27.36
			c-7.936-11.584-13.92-27.104-17.888-46.528l 56.736-9.664c 1.632,14.048, 6.176,24.704, 13.632,32.032c 7.488,7.328, 16.512,10.976, 27.040,10.976
			c 10.688,0, 19.296-3.232, 25.728-9.632c 6.432-6.432, 9.664-15.072, 9.664-25.888c0-12.736-4.416-22.912-13.216-30.624
			c-8.736-7.68-21.536-11.296-38.24-10.848l-6.816-50.080c 11.008,3.072, 20.416,4.608, 28.32,4.608c 11.968,0, 22.112-4.512, 30.464-13.536
			c 8.352-9.024, 12.512-21.28, 12.512-36.704c0-16.288-4.352-29.248-13.024-38.848c-8.704-9.6-19.424-14.4-32.128-14.4
			c-11.84,0-21.952,4-30.24,12c-8.352,8-13.44,19.584-15.328,34.752l-59.488-7.232c 3.072-26.976, 14.144-48.8, 33.28-65.504
			c 19.136-16.704, 43.2-25.024, 72.256-25.024c 30.624,0, 56.256,9.888, 76.832,29.728c 20.608,19.808, 30.88,43.776, 30.88,71.904
			c0,19.36-5.504,35.904-16.48,49.6C 584.928,460.224, 570.272,469.056, 551.936,472.992z"  />
<glyph unicode="&#xe003;" d="M 512,864C 282.24,864, 96,677.76, 96,448s 186.24-416, 416-416s 416,186.24, 416,416S 741.76,864, 512,864z M 512,96C 317.6,96, 160,253.6, 160,448S 317.6,800, 512,800
			s 352-157.6, 352-352S 706.4,96, 512,96z M 581.632,597.216l-51.616,0 l-139.328-203.968l0-53.568 l 131.488,0 L 522.176,275.2 l 59.456,0 l0,64.512 l 39.776,0 l0,53.76 l-39.776,0 L 581.632,597.216 z
			 M 522.144,393.44l-73.888,0 l 73.888,109.888L 522.144,393.44 z"  />
<glyph unicode="&#xe004;" d="M 512,864C 282.24,864, 96,677.76, 96,448s 186.24-416, 416-416s 416,186.24, 416,416S 741.76,864, 512,864z M 512,96C 317.6,96, 160,253.6, 160,448S 317.6,800, 512,800
			s 352-157.6, 352-352S 706.4,96, 512,96z M 520.288,515.552c-14.304,0-28.352-3.424-42.016-10.272l 9.76,54.528l 115.904,0 l0,57.504 l-162.496,0 l-31.52-167.008
			l 49.824-7.264c 14.016,15.68, 29.824,23.488, 47.488,23.488c 14.144,0, 25.632-4.928, 34.464-14.784s 13.248-24.64, 13.248-44.352
			c0-21.024-4.48-36.736-13.344-47.2c-8.896-10.464-19.776-15.648-32.64-15.648c-11.232,0-21.152,4.032-29.76,12.128
			c-8.64,8.064-13.792,19.040-15.552,32.864l-61.216-6.336c 3.648-26.848, 14.784-48.192, 33.472-64.096c 18.688-15.872, 42.816-23.808, 72.448-23.808
			c 37.056,0, 65.984,14.112, 86.88,42.464c 15.328,20.704, 22.944,44.288, 22.944,70.72c0,31.648-9.472,57.408-28.448,77.28
			C 570.688,505.632, 547.552,515.552, 520.288,515.552z"  />
<glyph unicode="&#xe005;" d="M 512,864C 282.24,864, 96,677.76, 96,448s 186.24-416, 416-416s 416,186.24, 416,416S 741.76,864, 512,864z M 512,96C 317.6,96, 160,253.6, 160,448S 317.6,800, 512,800
			s 352-157.6, 352-352S 706.4,96, 512,96z M 528.64,490.080c-22.752,0-41.76-9.024-57.088-27.136c 2.336,36.832, 7.968,61.056, 16.928,72.672
			s 19.904,17.44, 32.896,17.44c 9.76,0, 17.696-2.912, 23.808-8.736s 9.92-14.816, 11.36-27.040l 59.488,6.56
			c-4.384,25.92-14.56,45.664-30.528,59.296c-15.968,13.6-36.128,20.416-60.48,20.416c-34.72,0-62.944-12.96-84.672-38.944
			c-21.728-25.952-32.576-68.32-32.576-127.104c0-57.312, 10.4-98.56, 31.296-123.712c 20.832-25.152, 47.456-37.76, 79.872-37.76
			c 30.208,0, 54.944,9.952, 74.176,29.792c 19.296,19.872, 28.896,46.24, 28.896,79.104c0,30.976-9.184,56.224-27.456,75.776
			C 576.288,480.32, 554.304,490.080, 528.64,490.080z M 550.432,340.48c-7.552-8.896-17.056-13.344-28.416-13.344c-11.776,0-22.272,5.44-31.456,16.32
			s-13.76,26.336-13.76,46.368c0,18.112, 4.064,31.84, 12.224,41.12s 18.144,13.952, 29.952,13.952c 12.224,0, 22.432-4.864, 30.592-14.592
			s 12.256-25.024, 12.256-45.952C 561.824,364, 558.016,349.376, 550.432,340.48z"  />
<glyph unicode="&#xe006;" d="M 512,864C 282.24,864, 96,677.76, 96,448s 186.24-416, 416-416s 416,186.24, 416,416S 741.76,864, 512,864z M 512,96C 317.6,96, 160,253.6, 160,448S 317.6,800, 512,800
			s 352-157.6, 352-352S 706.4,96, 512,96z M 407.808,534.688l 139.872,0 c-28.864-36.352-51.936-77.6-69.184-123.744
			c-17.28-46.112-26.432-91.392-27.424-135.776l 59.264,0 c-0.16,28.32, 4.48,60.448, 13.888,96.384c 9.376,35.968, 23.072,69.92, 40.96,101.888
			c 17.92,31.936, 35.52,56.448, 52.896,73.504l0,44.736 l-210.24,0 L 407.84,534.688 z"  />
<glyph unicode="&#xe007;" d="M 512,864C 282.24,864, 96,677.76, 96,448s 186.24-416, 416-416s 416,186.24, 416,416S 741.76,864, 512,864z M 512,96C 317.6,96, 160,253.6, 160,448S 317.6,800, 512,800
			s 352-157.6, 352-352S 706.4,96, 512,96z M 550.592,467.424c 13.984,6.112, 24.832,14.976, 32.576,26.592s 11.584,24.832, 11.584,39.712
			c0,23.936-8.448,43.68-25.248,59.296c-16.864,15.584-40.544,23.392-71.008,23.392c-30.784,0-54.496-7.808-71.2-23.392
			c-16.704-15.616-25.056-35.36-25.056-59.296c0-14.016, 3.616-26.88, 10.816-38.624c 7.264-11.744, 18.784-20.96, 34.688-27.68
			c-18.496-7.904-32.032-19.104-40.64-33.632c-8.576-14.528-12.864-30.496-12.864-47.872c0-31.552, 11.424-56.416, 34.304-74.496
			c 19.36-15.328, 43.648-23.008, 72.8-23.008c 31.328,0, 56.448,9.28, 75.328,27.84c 18.88,18.528, 28.32,42.624, 28.32,72.288
			c0,17.984-4.64,33.824-13.888,47.552S 568.384,460.256, 550.592,467.424z M 471.008,557.152c 7.008,7.008, 16.384,10.496, 28.192,10.496
			c 11.36,0, 20.512-3.456, 27.424-10.4c 6.912-6.912, 10.368-16.16, 10.368-27.68c0-12.256-3.488-21.856-10.496-28.768
			c-7.008-6.944-16.32-10.4-27.968-10.4c-11.52,0-20.704,3.424-27.648,10.272c-6.912,6.848-10.368,16.416-10.368,28.672
			C 460.512,540.864, 464,550.144, 471.008,557.152z M 531.776,351.584c-8.352-9.12-18.848-13.696-31.52-13.696
			c-12.96,0-23.808,4.704-32.512,14.208c-8.672,9.504-12.992,22.752-12.992,39.68c0,12.128, 3.68,23.392, 11.072,33.792
			c 7.36,10.368, 18.56,15.552, 33.568,15.552c 12.992,0, 23.712-4.576, 32.192-13.696c 8.448-9.152, 12.672-21.248, 12.672-36.256
			C 544.256,373.952, 540.096,360.736, 531.776,351.584z"  />
<glyph unicode="&#xe008;" d="M 512,864C 282.24,864, 96,677.76, 96,448s 186.24-416, 416-416s 416,186.24, 416,416S 741.76,864, 512,864z M 512,96C 317.6,96, 160,253.6, 160,448S 317.6,800, 512,800
			s 352-157.6, 352-352S 706.4,96, 512,96z M 499.488,597.216c-29.92,0-54.528-9.952-73.888-29.856c-19.328-19.904-28.96-46.144-28.96-78.656
			c0-31.232, 9.152-56.576, 27.424-76.032c 18.304-19.456, 40.096-29.216, 65.312-29.216c 23.2,0, 42.496,8.992, 57.984,26.944
			c-2.464-36.768-8.16-60.992-17.024-72.672c-8.896-11.648-19.648-17.504-32.352-17.504c-10.048,0-18.112,2.944-24.256,8.768
			s-9.92,14.848-11.36,26.976l-59.456-6.56c 4.384-26.656, 14.272-46.688, 29.728-60.064c 15.456-13.408, 35.744-20.128, 60.8-20.128
			c 34.88,0, 63.136,12.992, 84.864,39.008c 21.728,25.984, 32.608,68.32, 32.608,126.976c0,57.664-10.432,99.072-31.296,124.256
			C 558.752,584.608, 532.032,597.216, 499.488,597.216z M 529.76,442.464c-8.064-9.344-17.984-14.016-29.792-14.016
			c-12.224,0-22.432,4.832-30.592,14.56s-12.224,24.928-12.224,45.632c0,20.416, 3.744,35.136, 11.232,44.096c 7.52,8.96, 16.928,13.44, 28.32,13.44
			c 11.936,0, 22.432-5.472, 31.552-16.416c 9.088-10.944, 13.664-26.336, 13.664-46.176C 541.92,465.504, 537.888,451.808, 529.76,442.464z"  />
<glyph unicode="&#xe009;" d="M 512,864C 282.24,864, 96,677.76, 96,448s 186.24-416, 416-416s 416,186.24, 416,416S 741.76,864, 512,864z M 512,96C 317.6,96, 160,253.6, 160,448S 317.6,800, 512,800
			s 352-157.6, 352-352S 706.4,96, 512,96z M 511.808,616.416c-31.136,0-55.328-10.944-72.704-32.832c-21.024-26.56-31.52-70.016-31.52-130.368
			c0-61.536, 9.568-104.32, 28.672-128.32s 44.32-35.968, 75.552-35.968c 31.072,0, 55.328,10.944, 72.672,32.8c 21.024,26.528, 31.552,70.144, 31.552,130.816
			c0,60.8-10.432,104.352-31.328,130.624C 567.2,605.312, 542.88,616.416, 511.808,616.416z M 545.44,372.512c-3.264-12.256-7.776-20.736-13.632-25.504
			c-5.888-4.736-12.576-7.104-20-7.104c-7.488,0-14.112,2.336-19.904,7.008s-10.592,14.016-14.4,28.096s-5.696,39.936-5.696,77.536
			s 2.112,64.384, 6.368,80.256c 3.2,12.256, 7.744,20.736, 13.632,25.472c 5.856,4.736, 12.512,7.104, 20,7.104
			c 7.424,0, 14.048-2.368, 19.872-7.104c 5.792-4.736, 10.56-14.144, 14.368-28.224s 5.76-39.936, 5.76-77.536S 549.696,388.256, 545.44,372.512z"  />
<glyph unicode="&#xe00a;" d="M 512,864C 282.24,864, 96,677.76, 96,448s 186.24-416, 416-416s 416,186.24, 416,416S 741.76,864, 512,864z
			 M 568.224,238.848l-79.008,0 l0,297.76 c-28.832-26.912-62.848-46.816-102.016-59.744l0,71.488 c 20.608,6.752, 43.008,19.584, 67.168,38.464
			c 24.192,18.88, 40.736,40.896, 49.76,66.048l 64.096,0 L 568.224,238.848 z"  />
<glyph unicode="&#xe00b;" d="M 512,864C 282.24,864, 96,677.76, 96,448s 186.24-416, 416-416s 416,186.24, 416,416S 741.76,864, 512,864z
			 M 650.944,306.368l0-73.504 l-276.992,0 c 2.976,27.744, 11.968,54.016, 26.976,78.88c 14.976,24.832, 44.576,57.824, 88.768,98.88
			c 35.552,33.184, 57.376,55.68, 65.44,67.488c 10.88,16.32, 16.32,32.448, 16.32,48.384c0,17.632-4.704,31.2-14.112,40.672s-22.4,14.208-39.008,14.208
			c-16.384,0-29.44-4.992-39.136-14.944s-15.296-26.464-16.736-49.568l-79.008,7.904c 4.672,43.488, 19.36,74.72, 44.096,93.696
			c 24.704,18.944, 55.648,28.416, 92.736,28.416c 40.64,0, 72.576-10.976, 95.808-32.896c 23.232-21.952, 34.848-49.216, 34.848-81.824
			c0-18.56-3.328-36.224-9.984-52.992s-17.184-34.368-31.616-52.704c-9.568-12.16-26.848-29.728-51.872-52.608
			c-24.992-22.848-40.832-38.016-47.488-45.504c-6.656-7.52-12.032-14.816-16.16-21.952L 650.944,306.4 z"  />
<glyph unicode="&#xe00c;" d="M 512,864C 282.24,864, 96,677.76, 96,448s 186.24-416, 416-416s 416,186.24, 416,416S 741.76,864, 512,864z
			 M 607.84,276.576c-26.432-25.504-59.328-38.208-98.752-38.208c-37.312,0-68.256,10.72-92.8,32.16c-24.608,21.44-38.848,49.44-42.784,84.064
			l 76.512,9.248c 2.432-19.424, 8.992-34.272, 19.712-44.576c 10.656-10.272, 23.616-15.424, 38.816-15.424c 16.32,0, 30.048,6.208, 41.248,18.624
			c 11.136,12.384, 16.704,29.088, 16.704,50.112c0,19.872-5.344,35.68-16.032,47.328c-10.72,11.648-23.744,17.44-39.136,17.44
			c-10.144,0-22.24-1.984-36.352-5.888l 8.704,63.904c 21.376-0.576, 37.696,4.064, 48.928,13.888c 11.232,9.824, 16.832,22.88, 16.832,39.168
			c0,13.856-4.096,24.864-12.32,33.12c-8.256,8.224-19.168,12.352-32.8,12.352c-13.472,0-24.928-4.672-34.464-14.016
			c-9.536-9.376-15.328-23.040-17.408-40.992l-72.992,12.352c 5.056,25.024, 12.704,45.024, 22.944,60s 24.48,26.72, 42.752,35.296
			s 38.784,12.832, 61.472,12.832c 38.816,0, 69.952-12.384, 93.376-37.152c 19.328-20.256, 28.96-43.136, 28.96-68.64c0-36.192-19.808-65.088-59.456-86.656
			c 23.648-5.056, 42.56-16.416, 56.704-34.016c 14.176-17.632, 21.248-38.88, 21.248-63.808C 647.488,332.864, 634.272,302.048, 607.84,276.576z"  />
<glyph unicode="&#xe00d;" d="M 523.488,397.344l0,140.96 l-95.072-140.96L 523.488,397.344 z M 512,864C 282.24,864, 96,677.76, 96,448
			s 186.24-416, 416-416s 416,186.24, 416,416S 741.76,864, 512,864z M 651.008,328.352L 600,328.352 l0-83.040 l-76.512,0 l0,83.040 l-168.992,0 l0,68.704 l 179.136,262.272l 66.368,0 l0-261.984 
			l 51.008,0 L 651.008,328.352 z"  />
<glyph unicode="&#xe00e;" d="M 512,864C 282.24,864, 96,677.76, 96,448s 186.24-416, 416-416s 416,186.24, 416,416S 741.76,864, 512,864z
			 M 625.472,298.24c-26.848-36.384-64.096-54.56-111.744-54.56c-38.080,0-69.12,10.208-93.152,30.688c-24,20.512-38.368,48.064-43.072,82.624
			l 79.008,8.192c 2.24-17.888, 8.896-32, 19.936-42.368c 11.040-10.432, 23.744-15.616, 38.144-15.616c 16.48,0, 30.368,6.688, 41.824,20.064
			c 11.36,13.376, 17.088,33.568, 17.088,60.576c0,25.28-5.696,44.256-17.024,56.896c-11.36,12.64-26.176,18.976-44.416,18.976
			c-22.72,0-43.136-9.984-61.152-30.016l-63.904,9.248l 40.512,214.752l 208.992,0 l0-73.984 l-149.056,0 l-12.704-70.144c 17.696,8.736, 35.744,13.152, 54.176,13.152
			c 35.168,0, 64.96-12.768, 89.44-38.272c 24.448-25.504, 36.672-58.624, 36.672-99.296C 655.008,355.168, 645.152,324.864, 625.472,298.24z"  />
<glyph unicode="&#xe00f;" d="M 513.984,446.816c-15.232,0-28.064-5.952-38.56-17.856
			c-10.528-11.904-15.776-29.472-15.776-52.704c0-25.696, 5.92-45.504, 17.76-59.456c 11.808-13.984, 25.312-20.96, 40.544-20.96
			c 14.624,0, 26.848,5.76, 36.608,17.184s 14.624,30.144, 14.624,56.224c0,26.816-5.248,46.432-15.744,58.912S 529.76,446.816, 513.984,446.816z M 512,864
			C 282.24,864, 96,677.76, 96,448s 186.24-416, 416-416s 416,186.24, 416,416S 741.76,864, 512,864z M 609.504,268.576c-24.736-25.504-56.576-38.208-95.36-38.208
			c-41.664,0-75.904,16.16-102.72,48.512c-26.848,32.352-40.256,85.344-40.256,159.040c0,75.552, 14.016,130.016, 41.984,163.392
			c 27.936,33.376, 64.256,50.048, 108.928,50.048c 31.328,0, 57.28-8.8, 77.824-26.4c 20.576-17.632, 33.664-43.168, 39.296-76.672l-76.512-8.416
			c-1.888,15.68-6.784,27.296-14.656,34.752c-7.904,7.488-18.144,11.232-30.752,11.232c-16.736,0-30.912-7.456-42.464-22.432
			c-11.552-14.944-18.848-46.080-21.856-93.44c 19.68,23.232, 44.192,34.848, 73.504,34.848c 33.024,0, 61.312-12.544, 84.864-37.632
			s 35.328-57.504, 35.328-97.216C 646.656,327.808, 634.272,294.016, 609.504,268.576z"  />
<glyph unicode="&#xe010;" d="M 512,864C 282.24,864, 96,677.76, 96,448s 186.24-416, 416-416s 416,186.24, 416,416S 741.76,864, 512,864z
			 M 652.352,581.504c-22.304-21.984-44.96-53.472-68-94.56s-40.608-84.736-52.672-131.008c-12.064-46.24-17.984-87.552-17.824-123.936l-76,0 
			c 1.28,56.992, 13.024,115.2, 35.232,174.464c 22.144,59.296, 51.744,112.32, 88.8,159.040l-180.032,0 l0,73.504 l 270.496,0 L 652.352,581.504 z"  />
<glyph unicode="&#xe011;" d="M 518.848,426.816c-19.328,0-33.696-6.688-43.168-20.128
			c-9.472-13.408-14.176-27.936-14.176-43.616c0-21.952, 5.568-39.040, 16.704-51.328s 25.056-18.432, 41.76-18.432c 16.32,0, 29.824,5.952, 40.512,17.76
			s 16.032,28.832, 16.032,51.168c0,19.456-5.44,35.104-16.32,46.912C 549.312,420.928, 535.52,426.816, 518.848,426.816z M 517.728,489.344
			c 14.944,0, 26.88,4.48, 35.84,13.376c 8.928,8.928, 13.44,21.28, 13.44,37.056c0,14.848-4.448,26.72-13.312,35.648
			c-8.864,8.928-20.576,13.376-35.136,13.376c-15.136,0-27.168-4.512-36.128-13.504c-8.96-9.024-13.44-20.96-13.44-35.808
			c0-15.776, 4.448-28.096, 13.28-36.928C 491.168,493.76, 502.976,489.344, 517.728,489.344z M 512,864C 282.24,864, 96,677.76, 96,448s 186.24-416, 416-416
			s 416,186.24, 416,416S 741.76,864, 512,864z M 618.080,265.632c-24.288-23.872-56.576-35.808-96.832-35.808c-37.504,0-68.672,9.888-93.632,29.632
			c-29.408,23.328-44.128,55.264-44.128,95.872c0,22.336, 5.536,42.88, 16.64,61.568c 11.072,18.688, 28.544,33.12, 52.384,43.296
			c-20.448,8.608-35.328,20.448-44.576,35.52c-9.312,15.072-13.952,31.552-13.952,49.536c0,30.688, 10.72,56.032, 32.192,76.064
			c 21.472,20, 52,30.016, 91.552,30.016c 39.2,0, 69.632-10.016, 91.264-30.016c 21.696-20.032, 32.512-45.376, 32.512-76.064
			c0-19.104-4.96-36.064-14.912-50.944c-9.984-14.848-23.936-26.24-41.952-34.080c 22.816-9.216, 40.16-22.656, 52.032-40.32
			c 11.872-17.664, 17.824-38.048, 17.824-61.152C 654.496,320.512, 642.336,289.504, 618.080,265.632z"  />
<glyph unicode="&#xe012;" d="M 509.76,593.824c-14.688,0-26.88-5.76-36.576-17.248
			c-9.696-11.52-14.528-30.368-14.528-56.576c0-26.56, 5.28-46.048, 15.808-58.496c 10.528-12.48, 23.712-18.688, 39.488-18.688
			c 15.264,0, 28.096,6.016, 38.528,17.984s 15.648,29.568, 15.648,52.768c0,25.44-5.888,45.184-17.632,59.232S 525.152,593.824, 509.76,593.824z M 512,864
			C 282.24,864, 96,677.76, 96,448s 186.24-416, 416-416s 416,186.24, 416,416S 741.76,864, 512,864z M 614.816,287.904c-27.872-33.408-64.192-50.080-108.896-50.080
			c-32.224,0-58.208,8.64-78.048,25.824c-19.84,17.248-32.576,42.976-38.176,77.216l 76.512,8.48c 1.888-15.616, 6.752-27.2, 14.592-34.72
			c 7.808-7.52, 18.176-11.296, 31.104-11.296c 16.256,0, 30.080,7.488, 41.504,22.56c 11.36,15.072, 18.656,46.208, 21.856,93.536
			c-19.904-23.072-44.768-34.592-74.624-34.592c-32.48,0-60.512,12.512-84.064,37.504c-23.552,25.024-35.328,57.568-35.328,97.664
			c0,41.76, 12.448,75.424, 37.28,100.992c 24.864,25.568, 56.544,38.336, 95.008,38.336c 41.824,0, 76.16-16.192, 103.008-48.544
			c 26.816-32.352, 40.224-85.6, 40.224-159.68C 656.672,375.68, 642.72,321.312, 614.816,287.904z"  />
<glyph unicode="&#xe013;" d="M 535.616,592.704c-7.456,6.080-16,9.152-25.632,9.152s-18.208-3.072-25.76-9.152
			c-7.552-6.112-13.408-17.024-17.568-32.768c-5.472-20.448-8.192-54.848-8.192-103.232s 2.432-81.632, 7.328-99.712s 11.104-30.112, 18.528-36.16
			c 7.456-6.016, 16-8.96, 25.632-8.96s 18.176,3.040, 25.76,9.12s 13.376,17.024, 17.568,32.768c 5.44,20.256, 8.192,54.56, 8.192,102.944
			s-2.432,81.632-7.36,99.712C 549.216,574.496, 543.072,586.592, 535.616,592.704z M 512,864C 282.24,864, 96,677.76, 96,448s 186.24-416, 416-416s 416,186.24, 416,416
			S 741.76,864, 512,864z M 603.456,288.544c-22.336-28.128-53.504-42.176-93.472-42.176c-40.16,0-72.544,15.392-97.12,46.24s-36.864,85.824-36.864,164.928
			c0,77.632, 13.504,133.504, 40.544,167.616c 22.336,28.128, 53.504,42.176, 93.472,42.176s 71.232-14.24, 93.76-42.752
			c 26.816-33.76, 40.256-89.696, 40.256-167.904C 644,378.688, 630.464,322.624, 603.456,288.544z"  />
<glyph unicode="&#xe014;" d="M 512,864C 282.24,864, 96,677.76, 96,448s 186.24-416, 416-416s 416,186.24, 416,416S 741.76,864, 512,864z M 512,96C 317.6,96, 160,253.6, 160,448S 317.6,800, 512,800
			s 352-157.6, 352-352S 706.4,96, 512,96z M 468.864,583.328c-21.568,23.648-47.456,35.456-77.792,35.456c-31.040,0-56.64-10.752-76.704-32.288
			c-8.096-8.832-14.56-19.232-19.328-31.232c-4.736-12-7.136-24.192-7.136-36.512c0-25.408, 7.168-47.040, 21.44-64.864
			c 14.304-17.824, 32.928-28.48, 55.904-32l 7.968-0.512l 6.88-1.088c 10.592-1.408, 15.904-5.472, 15.904-12.16c0-7.072-7.072-18.176-21.216-33.344
			c-14.848-16.224-38.336-32.672-70.496-49.216c-13.44-7.072-20.128-15.872-20.128-26.464c0-6.72, 2.272-12.288, 6.88-16.672
			c 4.576-4.416, 10.4-6.592, 17.472-6.592c 17.632,0, 41.984,10.208, 73.024,30.688c 36.672,24, 65.984,53.184, 87.84,87.616
			c 21.888,34.368, 32.8,68.352, 32.8,101.888c0,15.872-3.008,31.648-8.992,47.36C 487.2,559.072, 479.072,572.384, 468.864,583.328z M 720.736,583.328
			c-21.44,23.648-47.136,35.456-77.056,35.456c-31.328,0-56.864-10.752-76.576-32.288c-8.128-8.832-14.528-19.328-19.296-31.488
			c-4.768-12.192-7.136-24.256-7.136-36.256c0-25.408, 7.040-47.136, 21.088-65.12s 32.576-28.576, 55.424-31.744l 8.448-0.512l 6.304-1.088
			c 10.56-1.408, 15.84-5.472, 15.84-12.16c0-7.072-6.88-18.176-20.608-33.344c-14.432-15.52-37.856-31.936-70.208-49.216
			c-13.408-7.072-20.096-15.872-20.096-26.464c0-6.72, 2.304-12.288, 6.88-16.672c 4.608-4.416, 10.4-6.592, 17.44-6.592
			c 17.6,0, 41.92,10.208, 72.864,30.688c 36.64,24, 65.792,53.184, 87.424,87.616c 21.632,34.368, 32.48,68.352, 32.48,101.888
			c0,15.872-2.976,31.648-8.96,47.36C 739.072,559.072, 730.976,572.384, 720.736,583.328z"  />
<glyph unicode="&#xe015;" d="M 512,864C 282.24,864, 96,677.76, 96,448s 186.24-416, 416-416s 416,186.24, 416,416S 741.76,864, 512,864z M 512,96C 317.6,96, 160,253.6, 160,448S 317.6,800, 512,800
			s 352-157.6, 352-352S 706.4,96, 512,96z M 466.944,570.432c 13.408,7.072, 20.096,15.904, 20.096,26.496c0,6.688-2.272,12.256-6.848,16.672
			c-4.608,4.416-10.4,6.624-17.44,6.624c-17.632,0-41.92-10.24-72.896-30.688c-36.64-24-65.76-53.184-87.392-87.584
			c-21.632-34.4-32.48-68.384-32.48-101.92c0-15.872, 3.008-31.648, 8.992-47.36c 5.984-15.68, 14.080-28.992, 24.288-39.968
			c 21.472-23.648, 47.168-35.456, 77.088-35.456c 31.328,0, 56.864,10.784, 76.576,32.32c 8.096,8.8, 14.496,19.328, 19.296,31.488
			c 4.736,12.192, 7.136,24.256, 7.136,36.256c0,25.408-7.040,47.104-21.088,65.12s-32.576,28.576-55.424,31.744l-8.448,0.512l-6.336,1.088
			c-10.528,1.408-15.84,5.472-15.84,12.16c0,7.072, 6.88,18.176, 20.64,33.344C 411.2,536.736, 434.56,553.152, 466.944,570.432z M 719.68,570.432
			c 13.44,7.072, 20.128,15.904, 20.128,26.496c0,6.688-2.272,12.256-6.88,16.672c-4.576,4.416-10.4,6.624-17.472,6.624
			c-17.632,0-41.984-10.24-73.024-30.688c-36.672-24-65.952-53.184-87.808-87.584s-32.8-68.384-32.8-101.92c0-15.872, 3.008-31.648, 8.992-47.36
			c 6.016-15.68, 14.080-28.992, 24.32-39.968c 21.536-23.648, 47.424-35.456, 77.76-35.456c 31.072,0, 56.64,10.784, 76.736,32.32
			c 8.096,8.8, 14.56,19.232, 19.328,31.232c 4.736,12.032, 7.136,24.192, 7.136,36.544c0,25.408-7.168,47.008-21.44,64.832
			c-14.304,17.824-32.928,28.48-55.904,32l-7.968,0.512l-6.88,1.088c-10.56,1.408-15.872,5.472-15.872,12.16c0,7.072, 7.072,18.176, 21.184,33.344
			C 664.032,537.472, 687.52,553.856, 719.68,570.432z"  />
<glyph unicode="&#xe016;" d="M 876.64,444.416L 485.44,832.928L 128.928,832.928 L 128.096,476.864l 386.496-394.528
			c 25.408-25.408, 66.272-25.76, 91.296-0.736l 271.488,271.52C 902.368,378.112, 902.048,419.008, 876.64,444.416z M 223.424,671.872c0,35.328, 28.672,64, 64,64
			s 64-28.672, 64-64c0-35.36-28.672-64-64-64S 223.424,636.512, 223.424,671.872z M 571.616,225.536l-248.896,248.896l 22.624,22.624l 248.896-248.896L 571.616,225.536z
			 M 639.488,293.408l-248.896,248.896l 22.656,22.624l 248.864-248.896L 639.488,293.408z M 707.36,361.312l-248.864,248.896l 22.624,22.624l 248.864-248.896
			L 707.36,361.312z"  />
<glyph unicode="&#xe017;" d="M 925.056,333.568l-297.952-297.952c-25.312-25.312-66.368-25.312-91.68,0L 170.176,400.896
	l-90.24,279.328l 65.92,65.92l 126.304-126.304c-3.392-24.32, 3.968-49.824, 22.656-68.512c 31.648-31.648, 82.944-31.648, 114.592,0
	c 31.616,31.648, 31.616,82.944,0,114.592c-18.688,18.688-44.192,26.016-68.512,22.656L 214.592,814.88L 279.040,879.36l 280.768-88.8L 925.056,425.28
	C 950.368,399.936, 950.368,358.912, 925.056,333.568z M 363.552,597.152c-6.336-6.336-16.576-6.336-22.912,0L 88.512,849.28
	c-6.336,6.336-6.336,16.608,0,22.912s 16.608,6.336, 22.912,0l 252.096-252.096C 369.888,613.76, 369.888,603.488, 363.552,597.152z"  />
<glyph unicode="&#xe018;" d="M 810.56,645.12l-112-193.984c-17.696-30.592-56.8-41.088-87.424-23.392l-27.68,16l 32,55.392
	l0,0c 15.296-8.8, 34.88-3.584, 43.68,11.712l 80,138.56c 8.832,15.328, 3.584,34.88-11.68,43.712l-110.88,64
	c-15.328,8.832-34.88,3.584-43.68-11.712l-80-138.56c-8.864-15.328-3.616-34.88, 11.68-43.712l-32-55.392l-27.68,16
	c-30.624,17.664-41.12,56.8-23.424,87.392l 112,193.984c 17.696,30.624, 56.8,41.088, 87.424,23.424l 166.24-96C 817.76,714.88, 828.256,675.744, 810.56,645.12
	z M 432,309.44c-15.328,8.832-20.576,28.416-11.712,43.712l 128,221.696c 8.832,15.328, 28.416,20.576, 43.712,11.712s 20.576-28.416, 11.68-43.712l-128-221.696
	C 466.88,305.856, 447.328,300.64, 432,309.44z M 408.576,396.832L 408.576,396.832c-15.328,8.832-34.88,3.584-43.712-11.68l-80-138.56
	c-8.832-15.328-3.584-34.88, 11.712-43.712l 110.88-64c 15.296-8.832, 34.88-3.584, 43.68,11.712l 80,138.56c 8.832,15.296, 3.584,34.88-11.68,43.712l0,0
	l 32,55.392l 27.68-16c 30.624-17.664, 41.12-56.768, 23.424-87.392l-112-193.984c-17.696-30.624-56.8-41.088-87.424-23.424l-166.272,96
	c-30.624,17.696-41.12,56.8-23.424,87.424l 112,193.984c 17.696,30.624, 56.832,41.12, 87.456,23.424l 27.68-16L 408.576,396.832z"  />
<glyph unicode="&#xe019;" d="M 451.872,759.84l-240-415.68c-13.248-22.976, 31.424-73.568, 31.424-73.568l 288,498.816
			C 531.296,769.408, 465.12,782.816, 451.872,759.84z M 528,475.712c 22.944-13.248, 52.32-5.376, 65.568,17.568l 128,221.696
			C 734.816,737.952, 726.944,767.296, 704,780.576c-22.944,13.248-52.32,5.376-65.568-17.568l-128-221.696C 497.184,518.336, 505.056,488.96, 528,475.712z
			 M 496,420.288c-22.976,13.248-52.32,5.376-65.568-17.568l-128-221.728C 289.184,158.048, 297.024,128.672, 320,115.424
			c 22.944-13.248, 52.32-5.376, 65.568,17.568l 128,221.728C 526.816,377.696, 518.944,407.040, 496,420.288z M 780.672,625.408l-288-498.816
			c0,0, 66.176-13.408, 79.424,9.568l 240,415.68C 825.376,574.816, 780.672,625.408, 780.672,625.408z"  />
<glyph unicode="&#xe01a;" d="M 160,0L 160,768 l 133.344,128l 405.344,0 L 832,768l0-768 L 160,0 z M 800,256l0,32 l0,192 l0,32 L 800,736 L 192,736 l0-224 l0-32 l0-192 l0-32 l0-224 l 608,0 L 800,256 z M 768,512L 224,512 
	L 224,704 l 544,0 L 768,512 z M 576,640l-160,0 l0-32 l 160,0 L 576,640 z M 768,288L 224,288 l0,192 l 544,0 L 768,288 z M 576,416l-160,0 l0-32 l 160,0 L 576,416 z M 768,64L 224,64 l0,192 l 544,0 L 768,64 z M 576,192l-160,0 l0-32 l 160,0 L 576,192 z"  />
<glyph unicode="&#xe01b;" d="M 160-32L 160,768 l 133.344,128l 405.344,0 L 832,768l0-800 L 160-32 z M 192,0l 608,0 L 800,736 L 192,736 L 192,0 z M 224,352l 544,0 l0-320 L 224,32 L 224,352 z M 416,224l0-32 l 32,0 
	l 96,0 l 32,0 l0,32 l0,64 l-32,0 l0-64 l-96,0 l0,64 l-32,0 L 416,224 z M 224,704l 544,0 l0-320 L 224,384 L 224,704 z M 416,544l 32,0 l 96,0 l 32,0 l0,32 l0,64 l-32,0 l0-64 l-96,0 l0,64 l-32,0 L 416,544 z"  />
<glyph unicode="&#xe01c;" d="M 864-32L 160-32 c-35.328,0-64,28.672-64,64L 96,736 c0,35.36, 28.672,64, 64,64l 64,0 l0-32 c0-53.024, 42.976-96, 96-96
	c 52.992,0, 96,42.976, 96,96L 416,800 l 192,0 l0-32 c0-53.024, 43.008-96, 96-96s 96,42.976, 96,96L 800,800 l 64,0 c 35.328,0, 64-28.64, 64-64l0-704 C 928-3.328, 899.328-32, 864-32z M 864,576L 160,576 l0-544 l 704,0 
	L 864,576 z M 320,416L 224,416 l0,96 l 96,0 L 320,416 z M 320,256L 224,256 l0,96 l 96,0 L 320,256 z M 320,96L 224,96 l0,96 l 96,0 L 320,96 z M 480,416l-96,0 l0,96 l 96,0 L 480,416 z M 480,256l-96,0 l0,96 l 96,0 L 480,256 z M 480,96l-96,0 l0,96 l 96,0 L 480,96 z M 640,416l-96,0 
	l0,96 l 96,0 L 640,416 z M 640,256l-96,0 l0,96 l 96,0 L 640,256 z M 640,96l-96,0 l0,96 l 96,0 L 640,96 z M 800,416l-96,0 l0,96 l 96,0 L 800,416 z M 800,256l-96,0 l0,96 l 96,0 L 800,256 z M 800,96l-96,0 l0,96 l 96,0 L 800,96 z M 703.008,704
	C 668.192,704, 640,732.224, 640,767.008L 640,832.992 C 640,867.808, 668.192,896, 703.008,896s 63.008-28.192, 63.008-63.008l0-65.984 C 766.016,732.224, 737.824,704, 703.008,704z
	 M 319.008,704C 284.192,704, 256,732.224, 256,767.008L 256,832.992 C 256,867.808, 284.192,896, 319.008,896s 63.008-28.192, 63.008-63.008l0-65.984 C 382.016,732.224, 353.792,704, 319.008,704z"  />
<glyph unicode="&#xe01d;" d="M 896,0L 128,0 c-35.328,0-64,28.672-64,64L 64,736 c0,35.328, 28.672,64, 64,64l 64,0 l0-32 c0-53.024, 42.976-96, 96-96
	s 96,42.976, 96,96L 384,800 l 256,0 l0-32 c0-53.024, 43.008-96, 96-96s 96,42.976, 96,96L 832,800 l 64,0 c 35.328,0, 64-28.672, 64-64l0-672 C 960,28.672, 931.328,0, 896,0z M 896,576L 128,576 l0-512 l 768,0 L 896,576 z
	 M 418.208,325.472c 6.304,10.048, 9.472,20.672, 9.472,31.776c0,24.736-13.312,37.12-39.936,37.12c-23.136,0-45.248-9.184-66.368-27.552l0,52.128 
	c 23.36,15.136, 49.76,22.688, 79.136,22.688c 27.488,0, 48.96-6.912, 64.416-20.704s 23.168-32.48, 23.168-55.968c0-31.36-18.816-63.808-56.448-97.312
	l-55.328-49.12l0-1.12 l 109.12,0 l0-49.12 L 308.448,168.288 l0,46.112 l 77.056,73.696C 400.992,302.944, 411.904,315.392, 418.208,325.472z M 634.784,218.688
	c 8.448,6.496, 12.672,15.552, 12.672,27.2c0,12-5.216,21.248-15.648,27.744s-24.768,9.76-43.040,9.76l-24.192,0 l0,45.376 l 22.304,0 
	c 35.008,0, 52.512,11.616, 52.512,34.88c0,21.888-13.44,32.8-40.32,32.8c-17.984,0-35.488-5.824-52.512-17.44l0,48.384 
	c 18.88,9.504, 40.864,14.24, 65.984,14.24c 27.488,0, 48.896-6.176, 64.224-18.56s 22.976-28.448, 22.976-48.192c0-35.136-17.824-57.12-53.44-65.984l0-0.928 
	c 19.008-2.368, 33.984-9.28, 44.992-20.704s 16.512-25.472, 16.512-42.080c0-25.12-9.184-44.992-27.552-59.616s-43.744-21.952-76.128-21.952
	c-27.744,0-50.304,4.512-67.68,13.504l0,51.552 c 17.984-13.12, 39.008-19.68, 63.008-19.68C 614.56,208.928, 626.336,212.192, 634.784,218.688z
	 M 735.008,704C 700.192,704, 672,732.192, 672,767.008L 672,832.992 C 672,867.808, 700.192,896, 735.008,896s 63.008-28.192, 63.008-63.008l0-65.984 
	C 798.016,732.192, 769.824,704, 735.008,704z M 287.008,704C 252.192,704, 224,732.192, 224,767.008L 224,832.992 C 224,867.808, 252.192,896, 287.008,896s 63.008-28.192, 63.008-63.008l0-65.984 
	C 350.016,732.192, 321.792,704, 287.008,704z"  />
<glyph unicode="&#xe01e;" d="M 352,864L 288,864 l0-128 l 64,0 L 352,864 z M 704,704l-64,0 l0-64 l 64,0 L 704,704 z M 352,704L 288,704 l0-64 l 64,0 L 352,704 z M 734.016,768L 736,608l-128,0 L 608,768 l-224,0 l0-160 L 256,608 L 256,768 L 160,768 
			l0-768 l 672,0 L 832,768 L 734.016,768 z M 352,97.984L 256,97.984 l0,96 l 96,0 L 352,97.984 z M 352,225.984L 256,225.984 l0,96 l 96,0 L 352,225.984 z M 352,353.984L 256,353.984 l0,96 l 96,0 L 352,353.984 z M 480,97.984l-96,0 l0,96 l 96,0 L 480,97.984 z
			 M 480,225.984l-96,0 l0,96 l 96,0 L 480,225.984 z M 480,353.984l-96,0 l0,96 l 96,0 L 480,353.984 z M 608,97.984l-96,0 l0,96 l 96,0 L 608,97.984 z M 608,225.984l-96,0 l0,96 l 96,0 L 608,225.984 z M 608,353.984l-96,0 l0,96 
			l 96,0 L 608,353.984 z M 736,97.984l-96,0 l0,96 l 96,0 L 736,97.984 z M 736,225.984l-96,0 l0,96 l 96,0 L 736,225.984 z M 736,353.984l-96,0 l0,96 l 96,0 L 736,353.984 z M 704,864l-64,0 l0-128 l 64,0 L 704,864 z"  />
<glyph unicode="&#xe01f;" d="M 670.016,831.008L 224,831.008 l0-766.016 l 320,0 l0,64 L 288,128.992 L 288,767.008 l 320,0 l0-96 l 128,0 l0-352 l 64,0 L 800,704.992 L 670.016,831.008z
			 M 736,255.008l-64,0 l0-64 l-64,0 l0-64 l 64,0 l0-62.016 l 64,0 l0,64 l 64,0 l0,62.016 l-64,0 L 736,255.008 z"  />
<glyph unicode="&#xe020;" d="M 670.016,831.008L 224,831.008 l0-766.016 l 320,0 l0,64 L 288,128.992 L 288,767.008 l 320,0 l0-96 l 128,0 l0-352 l 64,0 L 800,704.992 L 670.016,831.008z
			 M 608,159.008l 192,1.984l0,62.016 l-192,0 L 608,159.008 z"  />
<glyph unicode="&#xe021;" d="M 352,480l 32,0 l0,32 l-32,0 L 352,480 z M 352,384l 32,0 l0,32 l-32,0 L 352,384 z M 352,576l 32,0 l0,32 l-32,0 L 352,576 z M 352,288l 32,0 l0,32 l-32,0 L 352,288 z
			 M 352,192l 32,0 l0,32 l-32,0 L 352,192 z M 416,384l 256,0 l0,32 l-256,0 L 416,384 z M 416,576l 256,0 l0,32 l-256,0 L 416,576 z M 670.016,832L 224,832 l0-768 l 576,0 L 800,704 L 670.016,832z M 736,129.984L 288,129.984 L 288,768 l 320,0 l0-94.016 l 128,0 L 736,129.984 z
			 M 416,288l 256,0 l0,32 l-256,0 L 416,288 z M 416,480l 256,0 l0,32 l-256,0 L 416,480 z M 416,192l 256,0 l0,32 l-256,0 L 416,192 z"  />
<glyph unicode="&#xe022;" d="M 543.488,446.496l-256,0 l0-28.992 l 256,0 L 543.488,446.496 z M 543.488,350.496l-256,0 l0-31.008 l 256,0 L 543.488,350.496 z
			 M 384.512,831.488l0-96.512 L 287.488,734.976 l0-96.512 L 192.992,638.464 l0-606.016 L 640,32.448 l0,96.992 l 94.496,0 l0,94.016 l 96.512,0 l0,608 L 384.512,831.456 z M 608.992,63.488L 224,63.488 L 224,609.504 l 384.992,0 L 608.992,63.488 z
			 M 703.488,158.496L 640,158.496 l0,480 L 318.496,638.496 L 318.496,704 l 384.992,0 L 703.488,158.496 z M 800,254.496l-65.504,0 L 734.496,735.008 l-319.008,0 L 415.488,800.512 L 800,800.512 L 800,254.496 z M 543.488,159.008l-256,0 L 287.488,128 l 256,0 L 543.488,159.008 z
			 M 543.488,255.488l-256,0 l0-31.008 l 256,0 L 543.488,255.488 z M 543.968,543.488l-256,0 l0-32 l 256,0 L 543.968,543.488 z"  />
<glyph unicode="&#xe023;" d="M 703.968,832l-384,0 C 284.64,832, 256,803.328, 256,768l0-640 c0-35.328, 28.64-64, 63.968-64l 384,0 
			C 739.328,64, 768,92.672, 768,128L 768,768 C 768,803.328, 739.328,832, 703.968,832z M 416,800l 160,0 l 1.984-32L 416,768 L 416,800 z M 511.328,112c-17.664,0-32,14.304-32,32s 14.336,32, 32,32
			c 17.696,0, 32-14.304, 32-32S 528.992,112, 511.328,112z M 703.968,224l-384,0 l 0.672,512l 383.328,0 L 703.968,224 z"  />
<glyph unicode="&#xe024;" d="M 736.032,832l-480,0 C 220.672,832, 192,803.328, 192,768l0-640 c0-35.328, 28.672-64, 64.032-64l 480,0 
			C 771.36,64, 800,92.672, 800,128L 800,768 C 800,803.328, 771.36,832, 736.032,832z M 496,96c-17.664,0-31.968,14.304-31.968,32s 14.304,32, 31.968,32
			c 17.696,0, 32.032-14.304, 32.032-32S 513.696,96, 496,96z M 735.712,193.984L 254.88,193.984 L 254.88,767.168 l 480.832,0 L 735.712,193.984 z"  />
<glyph unicode="&#xe025;" d="M 896,832L 128,832 C 92.64,832, 64,803.328, 64,768l0-640 c0-35.328, 28.64-64, 64-64l 768,0 c 35.328,0, 64,28.672, 64,64L 960,768 
			C 960,803.328, 931.328,832, 896,832z M 369.984,784c 17.664,0, 31.968-14.336, 31.968-32s-14.304-32-31.968-32c-17.696,0-32,14.336-32,32S 352.32,784, 369.984,784z
			 M 272,784c 17.664,0, 32-14.336, 32-32s-14.336-32-32-32c-17.696,0-32,14.336-32,32S 254.304,784, 272,784z M 175.968,784c 17.696,0, 32-14.336, 32-32
			s-14.304-32-32-32C 158.304,720, 144,734.336, 144,752S 158.304,784, 175.968,784z M 896,128L 128,128 L 128,671.328 l 768,0 L 896,128 z M 896,735.328L 448,735.328 l0,32 l 448,0 L 896,735.328 z"  />
<glyph unicode="&#xe026;" d="M 544,161.984l-96,0 L 448,112 L 352,96l0-32 l 286.016,0 l0,30.016 L 544,112L 544,161.984 z M 864,832L 128,832 
			C 92.64,832, 64,803.36, 64,768l0-448 C 64,284.672, 92.64,256, 128,256l 736,0 c 35.36,0, 64,28.672, 64,64L 928,768 C 928,803.36, 899.36,832, 864,832z M 492,304
			c-17.664,0-32,14.336-32,32c0,17.696, 14.336,32, 32,32c 17.696,0, 32-14.304, 32-32C 524,318.336, 509.664,304, 492,304z M 864,416L 128,416 L 128,768 l 736,0 L 864,416 z"  />
<glyph unicode="&#xe027;" d="M 704,832L 320,832 C 284.64,832, 256,803.328, 256,768l0-640 c0-35.328, 28.64-64, 64-64l 384,0 c 35.328,0, 64,28.672, 64,64L 768,768 
			C 768,803.328, 739.328,832, 704,832z M 512,128c-61.888,0-112,50.144-112,112c0,61.888, 50.112,112, 112,112c 61.856,0, 112-50.112, 112-112
			C 624,178.144, 573.856,128, 512,128z M 704,416L 320,416 l 0.672,352L 704,768 L 704,416 z M 512,304c-35.328,0-64-28.672-64-64s 28.672-64, 64-64s 64,28.672, 64,64
			S 547.328,304, 512,304z"  />
<glyph unicode="&#xe028;" d="M 896.48,33.792l-65.568,0 L 830.912,0 l-97.376,0 l0,33.792 L 288.48,33.792 L 288.48,0 L 191.104,0 l 0.032,33.792L 127.52,33.792 
	c-35.136,0-63.584,28.48-63.584,63.584L 63.936,703.36 c0,35.104, 28.48,63.584, 63.584,63.584l 222.528,0 c0,0, 14.016,19.456, 39.648,37.184L 308,885.856l 22.496,22.464
	l 88.16-88.128c 16.768,7.2, 36.192,12.32, 58.56,12.32c 23.776,0, 43.936-5.856, 61.12-13.76l 89.568,89.568l 22.464-22.464L 566.72,802.176
	c 23.328-17.184, 35.68-35.264, 35.68-35.264l 294.048,0 c 35.136,0, 63.584-28.48, 63.584-63.584l0-605.984 C 960.064,62.24, 931.584,33.792, 896.48,33.792z
	 M 669.984,639.776c0,17.568-14.24,31.776-31.808,31.776L 193.12,671.552 c-17.568,0-31.808-14.208-31.808-31.776l0-478.848 c0-17.568, 14.24-31.776, 31.808-31.776
	l 445.024,0 c 17.568,0, 31.808,14.208, 31.808,31.776L 669.952,639.776 z M 769.344,129.152l 93.344,0 l0,31.776 l-93.344,0 L 769.344,129.152 z M 769.344,192.736l 93.344,0 l0,31.744 l-93.344,0 
	L 769.344,192.736 z M 769.344,258.304l 93.344,0 l0,31.776 l-93.344,0 L 769.344,258.304 z M 769.344,321.888l 93.344,0 l0,31.808 l-93.344,0 L 769.344,321.888 z M 813.792,670.784
	c-26.304,0-47.68-21.344-47.68-47.68s 21.376-47.68, 47.68-47.68c 26.336,0, 47.68,21.344, 47.68,47.68S 840.128,670.784, 813.792,670.784z M 813.792,544
	c-26.304,0-47.68-21.312-47.68-47.648s 21.376-47.68, 47.68-47.68c 26.336,0, 47.68,21.344, 47.68,47.68S 840.128,544, 813.792,544z"  />
<glyph unicode="&#xe029;" d="M 896,736L 415.872,735.456L 416,830.016L 160,832l0-96 L 96,736 C 60.672,736, 32,707.328, 32,672l0-544 
			c0-35.328, 28.672-64, 64-64l 800,0 c 35.328,0, 64,28.672, 64,64L 960,672 C 960,707.328, 931.328,736, 896,736z M 224,768l 128,0 l0-96 L 224,672 L 224,768 z M 384,161.344c-123.712,0-224,100.288-224,224
			c0,123.712, 100.288,224, 224,224c 123.68,0, 224-100.288, 224-224C 608,261.632, 507.68,161.344, 384,161.344z M 816,527.328c-35.36,0-64,28.64-64,64
			c0,35.328, 28.64,64, 64,64c 35.328,0, 64-28.672, 64-64C 880,556, 851.328,527.328, 816,527.328z M 384,524c-79.52,0-144-64.48-144-144
			s 64.48-144, 144-144s 144,64.48, 144,144S 463.52,524, 384,524z"  />
<glyph unicode="&#xe02a;" d="M 896,704l-190.016,0 C 705.984,704, 704,707.808, 704,752S 668.192,832, 624,832l-256,0 
			C 323.808,832, 288,796.192, 288,752S 289.984,704, 289.984,704L 96,704 c-35.328,0-64-28.672-64-64l0-512 c0-35.328, 28.672-64, 64-64l 800,0 c 35.328,0, 64,28.672, 64,64L 960,640 
			C 960,675.328, 931.328,704, 896,704z M 497.44,192.864c-106.048,0-192,85.952-192,192c0,106.016, 85.952,192, 192,192c 106.016,0, 192-85.952, 192-192
			C 689.44,278.816, 603.456,192.864, 497.44,192.864z"  />
<glyph unicode="&#xe02b;" d="M 864,414.496l-160,64.096l0,128.256 l 160,64.128c 17.696,0, 32-14.368, 32-32.064l0-192.384 
	C 896,428.832, 881.696,414.496, 864,414.496z M 560,638.944c-79.52,0-144,64.608-144,144.288c0,79.68, 64.48,144.288, 144,144.288S 704,862.912, 704,783.232
	C 704,703.52, 639.52,638.944, 560,638.944z M 272,638.944c-79.52,0-144,64.608-144,144.288c0,79.68, 64.48,144.288, 144,144.288S 416,862.912, 416,783.232
	C 416,703.52, 351.52,638.944, 272,638.944z M 672,638.944l0-288.576 l-178.624,0 c-1.664-26.624-13.312-49.568-30.624-62.56l 18.048,0 l 127.648-287.872L 576.64-0.064 
	l-42.56,96l-85.12,0 L 448.96-64 l-31.904,0 l0,159.936 l-86.464,0 l-43.232-96L 255.52-0.064 l 129.664,287.872l 12.064,0 c-17.312,12.992-28.96,35.936-30.624,62.56L 160,350.368 l0,288.576 l 112,0 l 288,0 L 672,638.944 z
	 M 417.024,277.888c-1.312,0.32-2.528,0.992-3.808,1.44l-68.224-151.424l 72.032,0 L 417.024,277.888 z M 448.928,280.192l0-152.32 l 70.944,0 l-68.032,153.44
	C 450.912,280.864, 449.952,280.576, 448.928,280.192z"  />
<glyph unicode="&#xe02c;" d="M 970.72,113.76c-4.096,7.072-17.216,9.248-39.392,6.464
			c-40.8-5.28-70.432,8.032-88.896,40.032c-13.984,24.192-17.6,48.512-10.848,72.96s 26.752,59.328, 59.968,104.704l 20.768,28.928
			c 61.696,85.216, 74.336,159.328, 37.952,222.4c-37.024,64.192-144,58.784-220.896,25.792C 667.168,743.328, 536.096,832, 384,832C 171.904,832,0,660.064,0,448
			c0-212.064, 171.904-384, 384-384c 212.064,0, 384,171.936, 384,384c0,47.008-8.864,91.872-24.32,133.472c 25.952,9.312, 56.992,16.064, 86.272,17.152
			c 38.464,1.408, 73.28-6.656, 87.104-30.592c 30.816-53.408, 15.936-116.512-44.64-189.216l-12.416-14.912c-70.848-85.024-87.776-159.488-50.912-223.424
			c 14.912-25.792, 38.624-44.192, 71.2-55.264c 32.576-11.040, 60.128-9.984, 82.72,3.072C 974.208,94.752, 976.8,103.264, 970.72,113.76z
			 M 208,366.016c-44.192,0-80,35.808-80,80c0,44.16, 35.808,80, 80,80s 80-35.808, 80-80C 288,401.824, 252.192,366.016, 208,366.016z
			 M 384,190.016c-44.192,0-80,35.808-80,80s 35.808,80, 80,80s 80-35.808, 80-80S 428.192,190.016, 384,190.016z M 352.64,446.016
			c0,17.664, 14.368,32, 32.032,32s 32-14.304, 32-32c0-17.696-14.336-32-32-32S 352.64,428.32, 352.64,446.016z M 384,542.016c-44.192,0-80,35.808-80,80
			c0,44.16, 35.808,80, 80,80s 80-35.808, 80-80C 464,577.824, 428.192,542.016, 384,542.016z M 560,366.016c-44.192,0-80,35.808-80,80
			c0,44.16, 35.808,80, 80,80s 80-35.808, 80-80C 640,401.824, 604.192,366.016, 560,366.016z"  />
<glyph unicode="&#xe02d;" d="M 128,768l0-704 l 704,0 L 832,768 L 128,768 z M 256,128L 192,128 l0,64 l 64,0 L 256,128 z M 256,224L 192,224 l0,64 l 64,0 L 256,224 z M 256,320L 192,320 l0,64 l 64,0 L 256,320 z M 256,448L 192,448 l0,64 
			l 64,0 L 256,448 z M 256,544L 192,544 l0,64 l 64,0 L 256,544 z M 256,640L 192,640 L 192,704 l 64,0 L 256,640 z M 640,128L 320,128 l0,256 l 320,0 L 640,128 z M 640,448L 320,448 L 320,704 l 320,0 L 640,448 z M 768,128l-64,0 l0,64 l 64,0 L 768,128 z M 768,224l-64,0 l0,64 l 64,0 L 768,224 z M 768,320l-64,0 
			l0,64 l 64,0 L 768,320 z M 768,448l-64,0 l0,64 l 64,0 L 768,448 z M 768,544l-64,0 l0,64 l 64,0 L 768,544 z M 768,640l-64,0 L 704,704 l 64,0 L 768,640 z"  />
<glyph unicode="&#xe02e;" d="M 768,416c-35.36,0-64-28.64-64-64l0-128 l-160,0 L 544,672 l 352,0 l0-256 L 768,416 z M 608,640l-32,0 l0-64 l 32,0 L 608,640 z M 608,320l-32,0 l0-64 l 32,0 L 608,320 z
	 M 672,640l-32,0 l0-64 l 32,0 L 672,640 z M 672,320l-32,0 l0-64 l 32,0 L 672,320 z M 736,640l-32,0 l0-64 l 32,0 L 736,640 z M 800,640l-32,0 l0-64 l 32,0 L 800,640 z M 864,640l-32,0 l0-64 l 32,0 L 864,640 z M 128,768l 416,0 l0-64 L 128,704 L 128,768 z M 512,672l0-448 L 160,224 L 160,672 L 512,672 z
	 M 544,128L 128,128 l0,64 l 416,0 L 544,128 z"  />
<glyph unicode="&#xe02f;" d="M 736,366.848l0,47.776 l-31.872,0 l0-47.776 c0-114.368-94.688-207.104-209.056-207.136l-0.128,0 
			c-114.368,0.032-207.072,92.736-207.072,207.136l0,47.776 L 256,414.624 l0-47.776 c0-120.416, 89.312-219.008, 205.12-235.584l0-96.672 
			c-90.752-6.848-159.328-37.568-159.328-66.048c0-0.736, 393.024-0.736, 393.024,0c0,29.568-74.112,61.312-169.952,66.496l0,95.84 
			C 642.592,145.696, 736,245.056, 736,366.848z M 494.976,193.568c 96.8,0, 177.28,78.496, 177.28,175.296l0,45.792 L 319.68,414.656 l0-45.792 
			C 319.68,272.064, 398.176,193.568, 494.976,193.568z M 672.256,720.8c0,96.8-80.48,175.264-177.28,175.264c-96.768,0-175.296-78.464-175.296-175.264l0-274.304 
			l 352.576,0 L 672.256,720.8 z M 560,831.616c 8.8,0, 16-7.168, 16-16s-7.2-16-16-16c-8.832,0-16,7.168-16,16S 551.168,831.616, 560,831.616z
			 M 496,831.616c 8.8,0, 16-7.168, 16-16s-7.2-16-16-16c-8.832,0-16,7.168-16,16S 487.168,831.616, 496,831.616z M 432,831.616
			c 8.8,0, 16-7.168, 16-16s-7.2-16-16-16c-8.832,0-16,7.168-16,16S 423.168,831.616, 432,831.616z M 368,479.616
			c-8.832,0-16,7.168-16,16s 7.168,16, 16,16c 8.8,0, 16-7.168, 16-16S 376.8,479.616, 368,479.616z M 368,543.616
			c-8.832,0-16,7.168-16,16s 7.168,16, 16,16c 8.8,0, 16-7.168, 16-16S 376.8,543.616, 368,543.616z M 368,607.616
			c-8.832,0-16,7.168-16,16c0,8.832, 7.168,16, 16,16c 8.8,0, 16-7.168, 16-16C 384,614.784, 376.8,607.616, 368,607.616z
			 M 368,671.616c-8.832,0-16,7.168-16,16s 7.168,16, 16,16c 8.8,0, 16-7.168, 16-16S 376.8,671.616, 368,671.616z M 400,735.616
			c-8.832,0-16,7.168-16,16s 7.168,16, 16,16c 8.8,0, 16-7.168, 16-16S 408.8,735.616, 400,735.616z M 432,479.616
			c-8.832,0-16,7.168-16,16s 7.168,16, 16,16c 8.8,0, 16-7.168, 16-16S 440.8,479.616, 432,479.616z M 432,543.616
			c-8.832,0-16,7.168-16,16s 7.168,16, 16,16c 8.8,0, 16-7.168, 16-16S 440.8,543.616, 432,543.616z M 432,607.616
			c-8.832,0-16,7.168-16,16c0,8.832, 7.168,16, 16,16c 8.8,0, 16-7.168, 16-16C 448,614.784, 440.8,607.616, 432,607.616z
			 M 432,671.616c-8.832,0-16,7.168-16,16s 7.168,16, 16,16c 8.8,0, 16-7.168, 16-16S 440.8,671.616, 432,671.616z M 464,735.616
			c-8.832,0-16,7.168-16,16s 7.168,16, 16,16c 8.8,0, 16-7.168, 16-16S 472.8,735.616, 464,735.616z M 496,479.616
			c-8.832,0-16,7.168-16,16s 7.168,16, 16,16c 8.8,0, 16-7.168, 16-16S 504.8,479.616, 496,479.616z M 496,543.616
			c-8.832,0-16,7.168-16,16s 7.168,16, 16,16c 8.8,0, 16-7.168, 16-16S 504.8,543.616, 496,543.616z M 496,607.616
			c-8.832,0-16,7.168-16,16c0,8.832, 7.168,16, 16,16c 8.8,0, 16-7.168, 16-16C 512,614.784, 504.8,607.616, 496,607.616z
			 M 496,671.616c-8.832,0-16,7.168-16,16s 7.168,16, 16,16c 8.8,0, 16-7.168, 16-16S 504.8,671.616, 496,671.616z M 528,735.616
			c-8.832,0-16,7.168-16,16s 7.168,16, 16,16c 8.8,0, 16-7.168, 16-16S 536.8,735.616, 528,735.616z M 560,479.616
			c-8.832,0-16,7.168-16,16s 7.168,16, 16,16c 8.8,0, 16-7.168, 16-16S 568.8,479.616, 560,479.616z M 560,543.616
			c-8.832,0-16,7.168-16,16s 7.168,16, 16,16c 8.8,0, 16-7.168, 16-16S 568.8,543.616, 560,543.616z M 560,607.616
			c-8.832,0-16,7.168-16,16c0,8.832, 7.168,16, 16,16c 8.8,0, 16-7.168, 16-16C 576,614.784, 568.8,607.616, 560,607.616z
			 M 560,671.616c-8.832,0-16,7.168-16,16s 7.168,16, 16,16c 8.8,0, 16-7.168, 16-16S 568.8,671.616, 560,671.616z M 592,735.616
			c-8.832,0-16,7.168-16,16s 7.168,16, 16,16c 8.8,0, 16-7.168, 16-16S 600.8,735.616, 592,735.616z M 624,479.616
			c-8.832,0-16,7.168-16,16s 7.168,16, 16,16c 8.8,0, 16-7.168, 16-16S 632.8,479.616, 624,479.616z M 624,543.616
			c-8.832,0-16,7.168-16,16s 7.168,16, 16,16c 8.8,0, 16-7.168, 16-16S 632.8,543.616, 624,543.616z M 624,607.616
			c-8.832,0-16,7.168-16,16c0,8.832, 7.168,16, 16,16c 8.8,0, 16-7.168, 16-16C 640,614.784, 632.8,607.616, 624,607.616z
			 M 624,671.616c-8.832,0-16,7.168-16,16s 7.168,16, 16,16c 8.8,0, 16-7.168, 16-16S 632.8,671.616, 624,671.616z"  />
<glyph unicode="&#xe030;" d="M 524.832,130.848l0-95.84 c 95.84-5.184, 169.984-36.928, 169.984-66.496
	c0-0.736-393.024-0.736-393.024,0c0,28.512, 68.608,59.232, 159.328,66.048l0,96.672 C 345.312,147.84, 256,246.432, 256,366.848l0,47.776 l 31.872,0 l0-47.776 
	c0-114.368, 92.704-207.104, 207.072-207.136l 0.128,0 c 114.368,0.032, 209.056,92.736, 209.056,207.136l0,47.776 L 736,414.624 l0-47.776 
	C 736,245.056, 642.592,145.696, 524.832,130.848z M 494.976,193.568c-96.768,0-175.296,78.496-175.296,175.296l0,45.792 l 352.576,0 l0-45.792 
	C 672.256,272.064, 591.744,193.568, 494.976,193.568z M 319.68,720.8c0,96.8, 78.496,175.264, 175.296,175.264s 177.28-78.464, 177.28-175.264l0-274.304 L 319.68,446.496 L 319.68,720.8 z
	"  />
<glyph unicode="&#xe031;" d="M 524.8,130.048l0-95.776 c 95.744-5.152, 169.76-36.832, 169.76-66.4
	c0-0.736-392.576-0.736-392.576,0c0,28.448, 68.544,59.168, 159.136,65.984l0,96.576 c-115.648,16.576-204.864,115.104-204.864,235.328l0,49.76 l 31.84,0 l0-49.76 
	c0-114.24, 92.608-206.88, 206.848-206.912l 0.128,0 c 114.24,0.032, 206.848,92.672, 206.848,206.912l0,49.76 l 33.856,0 l0-49.76 
	C 735.744,244.128, 642.432,144.864, 524.8,130.048z M 496,193.44c-97.12,0-175.808,78.688-175.808,175.808l0,79.264 l 143.84,0 l0,31.968 l-143.84,0 l0,31.968 l 143.84,0 
	l0,31.936 l-143.84,0 l0,31.968 l 143.84,0 L 464.032,608.32 l-143.84,0 L 320.192,640.288 l 143.84,0 L 464.032,672.256 l-143.84,0 L 320.192,722.88 c0,97.088, 78.688,173.824, 175.808,173.824
	c 97.088,0, 175.808-76.704, 175.808-173.824l0-50.624 l-143.872,0 l0-31.968 l 143.872,0 l0-31.968 l-143.872,0 l0-31.968 l 143.872,0 l0-31.968 l-143.872,0 l0-31.936 l 143.872,0 l0-31.968 l-143.872,0 l0-31.968 
	l 143.872,0 l0-79.264 C 671.808,272.128, 593.088,193.44, 496,193.44z"  />
<glyph unicode="&#xe032;" d="M 737.76,675.008c 17.824,0, 32.256-14.432, 32.256-32.256l-58.464-642.976
	c0-17.824-14.432-32.256-32.256-32.256L 344.672-32.48 c-17.824,0-32.256,14.432-32.256,32.256L 254.016,642.752c0,17.824, 14.432,32.256, 32.256,32.256l 288.32,0 
	l 34.112,173.952l 154.848,79.52l-11.136-41.536l-114.944-57.632l-30.016-154.304L 737.76,675.008 z M 560.448,449.248l 128.928,0 l-36.288-417.216l-282.176,0 l-36.288,417.216
	l 192.928,0 l 40.288,193.504l-281.6,0 l 58.432-642.976l 334.592,0 l 58.464,642.976l-137.024,0 L 560.448,449.248z"  />
<glyph unicode="&#xe033;" d="M 782.784,672.608L 207.776,672.608 l 0.576,61.888l 45.952,0 l 97.248,95.84l 291.488,0 l 95.264-95.84l 45.952,0 
	L 782.784,672.608z M 545.184,766.432l-95.84,0 l0-31.936 l 95.84,0 L 545.184,766.432 z M 731.424,415.040L 623.36,415.040 c-23.84,46.432-71.648,78.528-127.424,78.528
	s-103.584-32.096-127.392-78.528L 262.368,415.040 l-20.672,223.616l 511.136,0 L 731.424,415.040z M 417.408,351.168c0,44.096, 35.744,79.872, 79.872,79.872
	c 44.096,0, 79.84-35.776, 79.84-79.872s-35.744-79.872-79.84-79.872C 453.152,271.296, 417.408,307.072, 417.408,351.168z M 495.936,206.048
	c 57.408,0, 106.56,33.888, 129.6,82.528l 93.792,0 l-24.384-254.912L 297.632,33.664 l-23.552,254.912l 92.288,0 C 389.408,239.936, 438.528,206.048, 495.936,206.048z"  />
<glyph unicode="&#xe034;" d="M 800,674.624L 222.56,674.624 l 0.576,62.144l 46.112,0 l 97.664,96.224l 292.736,0 l 95.648-96.224l 46.112,0 L 800,674.624z
	 M 561.408,768.832l-96.256,0 l0-32.064 l 96.256,0 L 561.408,768.832 z M 756.992,512.192L 269.12,512.192 l-12.48,128.32l 513.28,0 L 756.992,512.192z M 743.84,225.504L 280.672,225.504 l-24.032,254.624
	l 513.28,0 L 743.84,225.504z M 711.776,63.072c0-17.696-14.368-32.064-32.096-32.064L 344.864,31.008 c-17.728,0-32.096,14.368-32.096,32.064l-12.672,130.336
	l 424.768,0 L 711.776,63.072z"  />
<glyph unicode="&#xe035;" d="M 849.984,703.328l-335.872-294.816l0-382.048 L 701.024-64L 262.976-64 l 186.944,90.432L 449.92,408.512 
	L 110.016,703.328L 628.48,703.328 l 103.776,179.808l 27.904-16.096l-94.496-163.68L 849.984,703.36 z M 771.552,673.12l-123.616-0.48l-38.080-65.984l 87.84,0 L 771.552,673.12z
	 M 514.112,477.792c 18.912,0, 34.208,15.328, 34.208,34.24c0,18.912-15.328,34.24-34.208,34.24s-34.24-15.328-34.24-34.24
	C 479.872,493.088, 495.232,477.792, 514.112,477.792z M 188.48,673.12l 74.464-66.464l 309.728,0 l 38.016,65.824L 188.48,673.12z"  />
<glyph unicode="&#xe036;" d="M 959.488,462.464c-12.096,116.448-130.016,115.776-191.264,113.696
			c 0.288,17.696, 0.48,31.968, 0.48,31.968L 63.84,608.352c0,0,0-96.448,0-98.848c0-136.992, 78.24-255.488, 192.352-313.888l0-34.176 l 320.608,0 l0,34.176 
			c 32,16.384, 60.704,37.888, 86.112,62.752C 820.192,296, 985.152,350.304, 959.488,462.464z M 712,317.888c 35.936,55.2, 57.152,120.8, 57.152,191.616
			c0-0.544, 0.032,0.928, 0.064,3.712c 57.12,1.888, 120.16,7.584, 134.432-49.28C 917.984,401.376, 813.504,350.432, 712,317.888z M 282.56,736.32
			c0-32-52.48-66.080-52.48-66.080s 102.848,18.368, 102.848,66.368s-101.984,16-101.984,52s 50.464,70.080, 50.464,70.080S 184.608,838.304, 184.608,788.32
			S 282.56,768.32, 282.56,736.32z M 442.56,704.32c0-32-52.48-66.080-52.48-66.080s 102.848,18.368, 102.848,66.368s-101.984,16-101.984,52
			s 50.464,70.080, 50.464,70.080s-96.832-20.384-96.832-70.368S 442.56,736.32, 442.56,704.32z M 570.56,736.32c0-32-52.48-66.080-52.48-66.080
			s 102.848,18.368, 102.848,66.368s-101.984,16-101.984,52s 50.464,70.080, 50.464,70.080s-96.832-20.384-96.832-70.368S 570.56,768.32, 570.56,736.32z
			 M 61.856,130.304c0-44.192, 157.6-80, 352-80s 352,35.808, 352,80C 765.856,129.376, 61.856,129.376, 61.856,130.304z"  />
<glyph unicode="&#xe037;" d="M 824.352,159.84l-87.168,0 l0-69.248 c0-49.472-44.096-89.536-93.568-89.536L 313.76,1.056 
	c-49.472,0-89.568,40.064-89.568,89.536l0,483.2 l 95.936,0 l0-476.96 l 63.616,0 l 0.064,476.96c 17.088-12.32, 42.688-21.472, 64.256-26.336l0-450.656 l 63.616,0 L 511.68,545.6 
	c 23.84,3.936, 45.696,12.896, 64.512,25.824l0-474.624 l 63.616,0 L 639.808,573.792 l 95.36,0 l 89.152,0 c 39.552,0, 71.648-32.064, 71.648-71.648l0-270.624 
	C 896,191.936, 863.904,159.84, 824.352,159.84z M 831.712,511.68l-94.56,0 l0-287.52 l 94.56,0 L 831.712,511.68 z M 679.104,603.456c-31.328,0-59.616,12.512-80.544,32.672
	c-25.984-36.704-68.544-60.864-116.896-60.864c-46.624,0-87.616,22.624-113.824,57.088c-20.736-19.168-48.256-31.136-78.72-31.136
	c-56.16,0-103.008,39.776-113.984,92.672C 158.048,705.088, 146.752,724.352, 146.752,746.272c0,34.624, 28.064,62.688, 62.688,62.688
	c 2.56,0, 5.024-0.448, 7.488-0.736c 19.36,15.392, 43.488,25.12, 70.048,25.632c 11.936,35.392, 45.056,61.088, 84.512,61.088
	c 30.368,0, 57.088-15.2, 73.312-38.304c 11.776,3.2, 24.032,5.184, 36.832,5.184c 13.376,0, 26.112-2.24, 38.368-5.728
	c 16.16,23.424, 43.136,38.848, 73.728,38.848c 38.624,0, 71.232-24.576, 83.808-58.816c 0.544,0, 0.992,0.16, 1.536,0.16
	c 64.32,0, 116.448-52.128, 116.448-116.416S 743.392,603.456, 679.104,603.456z"  />
<glyph unicode="&#xe038;" d="M 665.728,616.256c 46.336,115.84-57.248,134.944-57.248,133.568
			c 32.704,81.792-32.704,136.32-92.672,136.32s-57.248-27.296-57.248-27.296s 32.704,6.816, 32.704-19.072c0-25.92-30.016-24.544-59.968-54.528
			c-30.016-29.984-15.68-25.92-17.728-25.92c 62.336,4.096, 98.816-60.32, 167.648-36.768c-68.16-34.080-84.512,20.096-158.112,22.816
			c-9.536,0-64.064,10.56-64.064-93.696c 79.744-9.216, 114.496-64.064, 222.176-51.808c-121.312-44.96-273.28,141.088-294.4-62.688
			c0-43.616, 32.672-65.536, 32.672-65.536s 377.568,0, 376.224,0C 770.656,504.352, 733.888,623.072, 665.728,616.256z M 514.304-32L 684.8,450.208L 340.064,450.208 
			L 514.304-32z"  />
<glyph unicode="&#xe039;" d="M 816,672c-9.44,0-18.56-1.184-27.424-3.104c-3.936,58.272-51.968,104.448-111.232,104.448
			c-13.28,0-25.856-2.72-37.664-6.976C 602.88,824.864, 538.176,864, 464,864c-112.704,0-203.936-89.824-207.36-201.696C 241.632,668.48, 225.248,672, 208,672
			c-70.688,0-128-57.312-128-128c0-68.864, 54.496-124.608, 122.656-127.424l 51.328,51.328L 305.888,416l 24.256,0 l 51.872,51.904L 433.888,416l 24.256,0 l 51.872,51.904
			L 561.888,416l 24.256,0 l 51.872,51.904L 689.888,416l 24.256,0 l 51.872,51.904l 51.712-51.712C 887.584,417.12, 944,473.888, 944,544
			C 944,614.688, 886.688,672, 816,672z M 768,429.888L 722.112,384l-40.256,0 l-43.872,43.872L 594.112,384l-40.256,0 l-43.872,43.872L 466.112,384l-40.256,0 
			l-43.872,43.872L 338.112,384L 297.888,384 l-43.872,43.872L 210.112,384L 208,384 l 84.8-352l 436,0 L 816,384l-2.112,0 L 768,429.888z M 368,64l-66.656,288l 32,0 l 66.656-288
			L 368,64 z M 432,64l-33.984,288l 32,0 l 33.984-288L 432,64 z M 528,64l-32,0 l0,288 l 32,0 L 528,64 z M 560,64l 33.984,288l 32,0 L 592,64L 560,64 z M 656,64l-32,0 l 65.984,288l 32,0 L 656,64z
			"  />
<glyph unicode="&#xe03a;" d="M 691.2,704l-352,0 L 128,416l0-160 c0-35.328, 28.672-64, 64-64l 640,0 c 35.328,0, 64,28.672, 64,64l0,160 L 691.2,704z
			 M 718.88,415.264l-65.664-96.064l-274.816,0.64l-70.464,95.808l-130.752,0.768L 358.4,671.584L 672,671.584 l 179.2-255.2L 718.88,415.264z"  />
<glyph unicode="&#xe03b;" d="M 691.2,704l-352,0 L 128,416l0-160 c0-35.328, 28.672-64, 64-64l 640,0 c 35.328,0, 64,28.672, 64,64l0,160 L 691.2,704z
			 M 718.88,415.264l-65.664-96.064l-274.816,0.64l-70.464,95.808l-130.752,0.768l 181.184,255.2L 672,671.616 l 179.2-255.2L 718.88,415.264z M 556,608
			c0,17.664-10.336,32-28,32c-17.696,0-30.016-14.336-30.016-32l0-126.016 L 420,480l 108-121.984L 633.984,480l-78.016,1.984L 555.968,608 z"  />
<glyph unicode="&#xe03c;" d="M 691.2,704l-352,0 L 128,416l0-160 c0-35.328, 28.672-64, 64-64l 640,0 c 35.328,0, 64,28.672, 64,64l0,160 L 691.2,704z
			 M 718.88,415.296l-65.664-96.096l-274.848,0.64l-70.432,95.84l-130.752,0.736l 181.184,255.2L 672,671.616 l 179.2-255.2L 718.88,415.296z M 420,512
			l 78.016-1.984L 498.016,384 c0-17.696, 12.32-32, 30.016-32c 17.664,0, 28,14.304, 28,32l0,126.016 L 633.984,512L 528,633.984L 420,512z"  />
<glyph unicode="&#xe03d;" d="M 691.2,704l-352,0 L 128,384l0-160 c0-35.328, 28.672-64, 64-64l 640,0 c 35.328,0, 64,28.672, 64,64l0,160 L 691.2,704z
			 M 718.88,383.264l-65.664-128.064l-274.848,0.64l-70.432,127.84l-130.752,0.736l 181.184,287.2L 672,671.616 l 179.2-287.2L 718.88,383.264z M 384,288l 256,0 l0,32 l-256,0 L 384,288 z
			 M 378.656,640.096L 237.344,416l 557.312,0 l-144,224.096L 378.656,640.096 z M 352,352l 320,0 l0,32 L 352,384 L 352,352 z"  />
<glyph unicode="&#xe03e;" d="M 512,864C 282.24,864, 96,677.76, 96,448s 186.24-416, 416-416s 416,186.24, 416,416S 741.76,864, 512,864z
	 M 744.256,566.176l-303.552-303.52c-7.616-7.584-19.936-7.584-27.552,0l-6.112,6.112l-0.032-0.032L 240,436.928
	c-7.616,7.616-7.616,19.968,0,27.584l 41.408,41.376c 7.616,7.616, 19.968,7.616, 27.584,0l 118.048-118.912l 248.192,248.192
	c 7.616,7.616, 19.968,7.616, 27.584,0l 41.408-41.408C 751.872,586.176, 751.872,573.824, 744.256,566.176z"  />
<glyph unicode="&#xe03f;" d="M 698.24,543.040l-32.064,32.064c-5.92,5.92-15.488,5.92-21.376,0l-192.448-192.416l-91.488,92.224c-5.952,5.92-15.488,5.92-21.44,0
		l-32.064-32.096c-5.92-5.92-5.92-15.488,0-21.376l 134.176-135.136c 5.92-5.888, 15.488-5.888, 21.376,0l 235.328,235.328
		C 704.192,527.552, 704.192,537.12, 698.24,543.040zM 512,864C 282.24,864, 96,677.76, 96,448s 186.24-416, 416-416s 416,186.24, 416,416S 741.76,864, 512,864z M 512,128c-176.704,0-320,143.296-320,320
		c0,176.736, 143.296,320, 320,320c 176.736,0, 320-143.264, 320-320C 832,271.296, 688.736,128, 512,128z"  />
<glyph unicode="&#xe040;" d="M 512,32C 282.24,32, 96,218.24, 96,448S 282.24,864, 512,864s 416-186.24, 416-416S 741.76,32, 512,32z
	 M 702.752,569.312c 7.808,7.808, 7.808,20.512,0,28.32l-42.496,42.464c-7.808,7.808-20.512,7.808-28.32,0l-120.352-120.352l-120.352,120.352
	c-7.808,7.808-20.512,7.808-28.32,0l-42.496-42.464c-7.808-7.808-7.808-20.512,0-28.32l 120.384-120.384l-120.384-120.32
	c-7.808-7.808-7.808-20.512,0-28.32l 42.496-42.496c 7.808-7.808, 20.512-7.808, 28.32,0l 120.352,120.384l 120.352-120.384
	c 7.808-7.808, 20.512-7.808, 28.32,0l 42.496,42.496c 7.808,7.808, 7.808,20.512,0,28.32l-120.384,120.32L 702.752,569.312z"  />
<glyph unicode="&#xe041;" d="M 512,32C 282.24,32, 96,218.24, 96,448S 282.24,864, 512,864s 416-186.24, 416-416S 741.76,32, 512,32z M 512,768
	C 335.296,768, 192,624.704, 192,448s 143.296-320, 320-320c 176.736,0, 320,143.296, 320,320S 688.736,768, 512,768z M 657.184,334.88l-32.448-32.448
	c-5.952-5.952-15.616-5.952-21.6,0l-91.84,91.84l-91.84-91.84c-5.984-5.952-15.616-5.952-21.6,0l-32.448,32.448
	c-5.952,5.952-5.952,15.616,0,21.6l 91.872,91.808l-91.872,91.84c-5.952,5.984-5.952,15.648,0,21.632l 32.448,32.416
	c 5.984,5.984, 15.616,5.984, 21.6,0l 91.84-91.84l 91.84,91.84c 5.984,5.984, 15.648,5.984, 21.6,0l 32.448-32.416
	c 5.952-5.984, 5.952-15.648,0-21.632l-91.872-91.84l 91.872-91.808C 663.136,350.496, 663.136,340.8, 657.184,334.88z"  />
<glyph unicode="&#xe042;" d="M 496,16c-229.76,0-416,186.24-416,416s 186.24,416, 416,416s 416-186.24, 416-416
	S 725.76,16, 496,16z M 702.016,449.984c0,17.664-14.336,32-32,32l-128,0 l0,128 c0,17.664-14.304,32-32,32l-32,0 c-17.696,0-32-14.336-32-32l0-128 l-128,0 
	c-17.696,0-32-14.336-32-32l0-32 c0-17.696, 14.304-32, 32-32l 128,0 l0-128 c0-17.696, 14.304-32, 32-32l 32,0 c 17.696,0, 32,14.304, 32,32l0,128 l 128,0 c 17.664,0, 32,14.304, 32,32L 702.016,449.984 z"  />
<glyph unicode="&#xe043;" d="M 512,32C 282.24,32, 96,218.24, 96,448S 282.24,864, 512,864s 416-186.24, 416-416S 741.76,32, 512,32z M 512,768
	C 335.296,768, 192,624.736, 192,448c0-176.704, 143.296-320, 320-320c 176.736,0, 320,143.296, 320,320C 832,624.736, 688.736,768, 512,768z M 639.616,416l-96,0 l0-96 
	c0-17.696-14.336-32-32-32c-17.696,0-32,14.304-32,32l0,96 l-96,0 c-17.696,0-32,14.336-32,32c0,17.664, 14.304,32, 32,32l 96,0 l0,96 c0,17.696, 14.304,32, 32,32
	c 17.664,0, 32-14.304, 32-32l0-96 l 96,0 c 17.664,0, 32-14.336, 32-32C 671.616,430.336, 657.28,416, 639.616,416z"  />
<glyph unicode="&#xe044;" d="M 496,848c-229.76,0-416-186.24-416-416s 186.24-416, 416-416c 229.76,0, 416,186.24, 416,416
			S 725.76,848, 496,848z M 704,420c0-17.696-14.336-32-32-32L 320,388 c-17.696,0-32,14.304-32,32l0,32 c0,17.664, 14.304,32, 32,32l 352,0 c 17.664,0, 32-14.336, 32-32
			L 704,420 z"  />
<glyph unicode="&#xe045;" d="M 512,864C 282.24,864, 96,677.76, 96,448s 186.24-416, 416-416s 416,186.24, 416,416S 741.76,864, 512,864z M 512,128
			c-176.704,0-320,143.296-320,320c0,176.736, 143.296,320, 320,320c 176.736,0, 320-143.264, 320-320C 832,271.296, 688.736,128, 512,128z M 631.616,480l-256,0 
			c-17.696,0-32-14.336-32-32c0-17.696, 14.304-32, 32-32l 256,0 c 17.696,0, 32,14.304, 32,32C 663.616,465.664, 649.312,480, 631.616,480z"  />
<glyph unicode="&#xe046;" d="M 496,848c-229.76,0-416-186.24-416-416s 186.24-416, 416-416s 416,186.24, 416,416
			S 725.76,848, 496,848z M 496,196c-26.528,0-48,21.504-48,48s 21.472,48, 48,48c 26.496,0, 48-21.504, 48-48
			S 522.496,196, 496,196z M 544,404c0-26.496-21.504-48-48-48c-26.528,0-48,21.504-48,48l0,224 c0,26.528, 21.472,48, 48,48
			c 26.496,0, 48-21.472, 48-48L 544,404 z"  />
<glyph unicode="&#xe047;" d="M 496,864C 257.408,864, 64,670.592, 64,432S 257.408,0, 496,0S 928,193.408, 928,432
			S 734.592,864, 496,864z M 496,96C 310.432,96, 160,246.432, 160,432S 310.432,768, 496,768S 832,617.568, 832,432S 681.568,96, 496,96z M 496,640
			c-26.496,0-48-21.472-48-48l0-161.984 c0-26.496, 21.504-48, 48-48s 48,21.504, 48,48L 544,592 C 544,618.528, 522.496,640, 496,640z M 496,320
			c-26.496,0-48-21.504-48-48s 21.504-48, 48-48s 48,21.504, 48,48S 522.496,320, 496,320z"  />
<glyph unicode="&#xe048;" d="M 831.84,349.824l-42.368,0 c-6.88-24.928-16.736-48.576-29.376-70.496l 39.168-39.136
	c 25.056-25.056, 25.056-65.696,0-90.752l-22.688-22.688c-25.056-25.056-65.696-25.056-90.752,0L 646.4,166.144c-21.856-12.448-45.408-22.144-70.208-28.896
	l0-41.088 c0-35.424-28.704-64.16-64.16-64.16l-32.064,0 c-35.424,0-64.192,28.704-64.192,64.16l0,41.088 c-24.768,6.752-48.352,16.48-70.208,28.896
	l-39.392-39.392c-25.024-25.056-65.664-25.056-90.72,0L 192.736,149.44c-25.056,25.056-25.056,65.696,0,90.752l 39.168,39.136
	c-12.64,21.952-22.496,45.568-29.408,70.496L 160.16,349.824 C 124.704,349.824, 96,378.528, 96,413.952l0,32.096 c0,35.424, 28.704,64.16, 64.16,64.16l 41.856,0 
	C 208.64,534.88, 218.112,558.368, 230.4,580.16l-37.664,37.632c-25.056,25.056-25.056,65.696,0,90.752l 22.688,22.656c 25.056,25.056, 65.696,25.056, 90.72,0
	l 36.896-36.896c 22.592,13.152, 46.976,23.392, 72.704,30.4L 415.744,767.84 C 415.776,803.296, 444.544,832, 479.968,832l 32.064,0 c 35.424,0, 64.16-28.704, 64.16-64.16
	l0-43.104 c 25.792-7.040, 50.144-17.28, 72.704-30.432l 36.896,36.896c 25.056,25.056, 65.696,25.056, 90.752,0l 22.688-22.656
	c 25.056-25.056, 25.056-65.696,0-90.752L 761.6,580.16c 12.288-21.792, 21.76-45.28, 28.416-69.984l 41.856,0 c 35.424,0, 64.16-28.736, 64.16-64.16l0-32.096 
	C 896,378.528, 867.296,349.824, 831.84,349.824z M 496,605.44c-97.44,0-176.448-79.008-176.448-176.448s 79.008-176.448, 176.448-176.448
	s 176.448,79.008, 176.448,176.448S 593.44,605.44, 496,605.44z M 496,350.816c-44.288,0-80.224,35.872-80.224,80.192c0,44.288, 35.936,80.192, 80.224,80.192
	s 80.192-35.904, 80.192-80.192C 576.192,386.688, 540.288,350.816, 496,350.816z"  />
<glyph unicode="&#xe049;" d="M 680.576,254.752l 22.688,22.688c 25.056,25.056, 25.056,65.696,0,90.752l-39.168,39.136
			c 12.608,21.952, 22.496,45.568, 29.376,70.496l 42.368,0 c 35.424,0, 64.16,28.736, 64.16,64.16l0,32.064 c0,35.424-28.704,64.16-64.16,64.16l-41.856,0 
			C 687.328,662.88, 677.888,686.368, 665.6,708.16l 37.664,37.632c 25.056,25.056, 25.056,65.696,0,90.752l-22.688,22.656
			c-25.056,25.056-65.696,25.056-90.752,0l-36.896-36.896c-22.56,13.152-46.944,23.392-72.704,30.432L 480.224,895.84 C 480.192,931.296, 451.456,960, 416.032,960
			l-32.064,0 c-35.424,0-64.192-28.704-64.192-64.16l0-43.104 c-25.76-7.040-50.112-17.28-72.704-30.432L 210.144,859.232
			c-25.024,25.056-65.664,25.056-90.72,0L 96.736,836.576c-25.056-25.056-25.056-65.696,0-90.752L 134.368,708.16c-12.256-21.792-21.76-45.28-28.384-69.984
			L 64.16,638.176 C 28.704,638.208,0,609.472,0,574.016l0-32.064 c0-35.424, 28.704-64.16, 64.16-64.16l 42.336,0 c 6.912-24.928, 16.768-48.544, 29.408-70.496
			l-39.168-39.136c-25.056-25.056-25.056-65.696,0-90.752l 22.688-22.688c 25.056-25.056, 65.696-25.056, 90.72,0l 39.392,39.392
			c 21.888-12.448, 45.408-22.144, 70.208-28.896l0-41.088 c0-35.392, 28.736-64.16, 64.192-64.16l 32.064,0 c 35.424,0, 64.16,28.736, 64.16,64.16l0,41.088 
			c 24.8,6.752, 48.384,16.48, 70.208,28.896l 39.392-39.392C 614.88,229.696, 655.488,229.696, 680.576,254.752z M 400,380.576
			c-97.44,0-176.448,78.976-176.448,176.448c0,97.44, 79.008,176.448, 176.448,176.448s 176.448-79.008, 176.448-176.448
			C 576.448,459.552, 497.44,380.576, 400,380.576z M 400,639.2c-44.32,0-80.224-35.904-80.224-80.192s 35.904-80.192, 80.224-80.192
			c 44.288,0, 80.192,35.904, 80.192,80.192S 444.288,639.2, 400,639.2z M 801.984,36.416c-21.504,0-38.912-17.408-38.912-38.912
			c0-21.472, 17.408-38.88, 38.912-38.88c 21.472,0, 38.912,17.408, 38.912,38.88C 840.896,19.008, 823.456,36.416, 801.984,36.416z M 964.864,35.936
			l-20.288,0 c-3.232,11.968-7.84,23.36-13.792,33.952l 18.24,18.24c 12.16,12.16, 12.16,31.872,0,44l-11.008,11.008c-12.16,12.16-31.84,12.16-44,0
			l-17.92-17.888c-10.944,6.368-22.784,11.328-35.264,14.752l0,20.864 c0,17.184-13.952,31.136-31.136,31.136l-15.552,0 
			c-17.184,0-31.136-13.952-31.136-31.136l0-20.864 c-12.512-3.424-24.32-8.384-35.264-14.752l-17.92,17.888c-12.16,12.16-31.872,12.16-44,0
			l-11.008-11.008c-12.16-12.128-12.16-31.84,0-44l 18.24-18.24c-5.984-10.56-10.56-21.984-13.792-33.952l-20.288,0 
			c-17.184,0-31.136-13.952-31.136-31.136l0-15.552 c0-17.184, 13.952-31.136, 31.136-31.136l 20.544,0 c 3.328-12.064, 8.128-23.52, 14.24-34.176
			l-18.976-18.976c-12.16-12.16-12.16-31.84,0-44.032l 11.008-11.008c 12.128-12.128, 31.84-12.128, 44,0l 19.104,19.136
			c 10.624-6.016, 22.016-10.752, 34.048-14.016l0-19.936 c0-17.184, 13.952-31.136, 31.136-31.136l 15.552,0 c 17.184,0, 31.136,13.952, 31.136,31.136l0,19.936 
			c 12.032,3.264, 23.424,7.968, 34.016,14.016l 19.136-19.136c 12.16-12.128, 31.84-12.128, 44,0l 11.008,11.008c 12.16,12.192, 12.16,31.872,0,44.032
			l-18.976,18.976c 6.080,10.656, 10.912,22.112, 14.24,34.176l 20.544,0 c 17.184,0, 31.136,13.952, 31.136,31.136L 995.872,4.8 
			C 996,22.016, 982.048,35.936, 964.864,35.936z M 801.984-89.024c-47.264,0-85.568,38.304-85.568,85.6c0,47.264, 38.304,85.568, 85.568,85.568
			s 85.568-38.304, 85.568-85.568C 887.552-50.72, 849.248-89.024, 801.984-89.024z"  />
<glyph unicode="&#xe04a;" d="M 850.336,496L 912,496 l0-96 l-61.664,0 c-4.192-30.592-11.968-60.032-23.488-87.584l 53.408-30.848
	l-48-83.136l-54.336,31.36c-18.656-23.552-40.32-44.544-64.352-62.656l 32-55.392l-83.136-48l-32.672,56.544
	c-27.168-10.592-55.84-17.984-85.792-21.536L 543.968,32 l-96,0 l0,68.576 c-29.184,4.512-57.312,12.192-83.648,23.392l-34.784-60.224l-83.136,48l 35.616,61.696
	c-22.304,17.888-42.208,38.496-59.584,61.216l-62.752-36.224l-48,83.136l 63.328,36.576c-10.272,25.952-17.472,53.376-21.376,81.888L 80,400.032 l0,96 l 73.664,0 
	c 3.904,28.544, 11.104,55.968, 21.376,81.888l-63.328,36.576l 48,83.136l 62.752-36.224c 17.376,22.72, 37.28,43.328, 59.584,61.248L 246.432,784.256
	l 83.136,48l 34.784-60.224c 26.336,11.2, 54.464,18.912, 83.648,23.392L 448,864 l 96,0 l0-66.72 c 29.952-3.552, 58.624-10.944, 85.792-21.536l 32.672,56.544l 83.136-48
	l-32-55.424c 24.032-18.112, 45.696-39.104, 64.352-62.656l 54.336,31.36l 48-83.136l-53.408-30.848C 838.368,556.032, 846.144,526.592, 850.336,496z
	 M 495.712,656.288c-114.88,0-208-93.12-208-208s 93.12-208, 208-208s 208,93.12, 208,208S 610.592,656.288, 495.712,656.288z M 496,368
	c-44.192,0-80,35.808-80,80s 35.808,80, 80,80S 576,492.192, 576,448S 540.192,368, 496,368z"  />
<glyph unicode="&#xe04b;" d="M 977.76,152.992L 577.152,838.944c-33.408,33.408-87.616,33.408-121.024,0L 55.488,152.992
			c-33.408-33.376-33.408-87.552,0-120.992l 922.24,0 C 1011.2,65.44, 1011.2,119.616, 977.76,152.992z M 479.744,592.704c0,26.528, 21.504,48, 48,48
			s 48-21.472, 48-48l0-224 c0-26.496-21.504-48-48-48s-48,21.504-48,48L 479.744,592.704 z M 528.032,160.448c-26.496,0-48,21.44-48,48
			c0,26.496, 21.504,48, 48,48s 48-21.504, 48-48C 576.032,181.888, 554.528,160.448, 528.032,160.448z"  />
<glyph unicode="&#xe04c;" d="M 864,63.008l-64,0 l0-62.016 l-128,0 l0,62.016 L 320,63.008 l0-62.016 L 192,0.992 l0,62.016 L 128,63.008 c-35.36,0-64,28.672-64,64l0,544 
	c0,35.36, 28.64,64, 64,64l 736,0 c 35.328,0, 64-28.672, 64-64l0-544 C 928,91.648, 899.328,63.008, 864,63.008z M 671.968,447.008L 544,447.008 l0,128 l-96,0 l0-128 l-128,0 l0-96 l 128,0 l0-128 l 96,0 l0,128 l 127.968,0 
	L 671.968,447.008 z M 608,831.68l-192,0 l0-64.672 l-64,0 L 352,798.336 l 32,0 L 384,895.008 l 254.656,0 l0-96 L 672,799.008 l0-32 l-64,0 L 608,831.68 z"  />
<glyph unicode="&#xe04d;" d="M 864,32l-128,0 L 736,704 l 128,0 c 35.328,0, 64-28.672, 64-64l0-544 C 928,60.672, 899.328,32, 864,32z M 320,704L 320,704L 320,768 
	c0,35.36, 28.672,64, 64,64l 224,0 c 35.328,0, 64-28.64, 64-64l0-64 l0-672 L 320,32 L 320,704 z M 384,704l 224,0 c0,0,0,14.336,0,32c0,17.696-14.336,32-32,32l-160,0 c-17.696,0-32-14.304-32-32
	C 384,718.336, 384,704, 384,704z M 64,96L 64,640 c0,35.328, 28.672,64, 64,64l 128,0 l0-672 L 128,32 C 92.672,32, 64,60.672, 64,96z"  />
<glyph unicode="&#xe04e;" d="M 864,32L 128,32 c-35.36,0-64,28.672-64,64L 64,480 c0,0, 167.072-85.92, 320-121.088L 384,320 
	c0-17.696, 14.304-32, 32-32l 160,0 c 17.664,0, 32,14.304, 32,32l0,38.912 C 760.896,394.080, 928,480, 928,480l0-384 C 928,60.672, 899.328,32, 864,32z M 544,416
	c 17.664,0, 32-14.304, 32-32l0-32 c0-17.696-14.336-32-32-32l-96,0 c-17.696,0-32,14.304-32,32l0,32 c0,17.696, 14.304,32, 32,32L 544,416 z M 608,416c0,17.696-14.336,32-32,32l-160,0 
	c-17.696,0-32-14.304-32-32l0-28.672 C 231.072,423.552, 64,512, 64,512l0,128 c0,35.328, 28.64,64, 64,64l 192,0 L 320,768 c0,35.328, 28.672,64, 64,64l 224,0 c 35.328,0, 64-28.672, 64-64l0-64 l 192,0 
	c 35.328,0, 64-28.672, 64-64l0-128 c0,0-167.104-88.448-320-124.672L 608,416 z M 608,736c0,17.696-14.336,32-32,32l-160,0 c-17.696,0-32-14.304-32-32c0-17.664,0-32,0-32l 224,0 
	C 608,704, 608,718.336, 608,736z"  />
<glyph unicode="&#xe04f;" d="M 896,32L 128,32 c-35.328,0-64,28.672-64,64l0,288 l 128,0 l0-96 l 128,0 l0,96 l 384,0 l0-96 l 128,0 l0,96 l 128,0 l0-288 
	C 960,60.672, 931.328,32, 896,32z M 736,320l0,128 l 64,0 l0-128 L 736,320 z M 224,320l0,128 l 64,0 l0-128 L 224,320 z M 832,480l-128,0 l0-64 L 320,416 l0,64 L 192,480 l0-64 L 64,416 l0,224 c0,35.328, 28.672,64, 64,64l 768,0 
	c 35.328,0, 64-28.672, 64-64l0-224 l-128,0 L 832,480 z M 608,800.672l-192,0 L 416,736 l-64,0 L 352,767.328 l 32,0 L 384,864 l 256.672,0 l0-96 L 672,768 l0-32 l-64,0 L 608,800.672 z"  />
<glyph unicode="&#xe050;" d="M 626.272,612.576l-100.608-151.424l-73.12,73.696l-73.152-118.304l-54.848,54.304L 265.152,352
			l 466.304,0 L 626.272,612.576z M 128,800l0-736 l 736,0 L 864,800 L 128,800 z M 800,288L 192,288 L 192,736 l 608,0 L 800,288 z M 335.712,541.728c 26.528,0, 48,21.472, 48,48s-21.472,48-48,48
			c-26.496,0-48-21.472-48-48S 309.216,541.728, 335.712,541.728z"  />
<glyph unicode="&#xe051;" d="M 887.456,331.68l-42.112-157.248l-1.184-0.32l-46.016-171.744l-297.472,79.68l-3.552-0.928
	l-313.216,83.904l-0.544,2.048L 100,189.44l 15.776,58.912l 1.024-0.288L 271.328,824.768L 270.304,825.056l 16.288,60.704l 547.36-146.688l 0.512,1.792
	l 150.752-40.384L 886.912,333.76L 887.456,331.68z M 908.224,656.064L 331.488,810.592l-113.856-424.96l 576.672-154.496L 908.224,656.064z M 391.488,531.456
	l 38.208-65.44l 99.424,93.6l 50.656-88.512l 133.92,118.048l 33.504-273.888L 304.896,433.856L 391.488,531.456z M 420.064,595.84
	c-25.12,6.752-40.064,32.608-33.312,57.728c 6.72,25.152, 32.576,40.096, 57.728,33.344c 25.12-6.752, 40.064-32.608, 33.312-57.728
	C 471.072,604.032, 445.216,589.088, 420.064,595.84z M 692.48,816.672l-13.248-3.552l-121.44,32.544l 179.136,48l 27.712-103.392l-70.080,18.784L 692.48,816.672
	z M 115.744,662.112l 39.744-148.32l-32.544-121.408L 38.784,706.56L 220.16,755.168l-18.784-70.080L 115.744,662.112z M 225.856,8.448L 193.28,129.984l 243.104-65.152
	L 225.856,8.448z"  />
<glyph unicode="&#xe052;" d="M 849.994,13.898l-83.836,23.004l-0.192,231.892l 80.194-22.556l 115.626,431.61L 376.082,834.786
	l-38.596-143.966L 271.414,690.82 l 59.522,222.116l 709.064-189.974L 849.994,13.898z M 736.092-63.198L0-63.198 L0,670.914 l 736.092,0 L 736.092-63.198 z M 672.258,607.078L 63.836,607.078 l0-446.818 l 608.422,0 
	L 672.258,607.078 z M 250.774,288.474l 72.942,117.958l 72.942-73.516l 100.29,151.028l 104.892-259.88L 136.778,224.064 l 59.266,118.534L 250.774,288.474z M 207.162,413.302
	c-26.454,0-47.892,21.406-47.892,47.86s 21.438,47.86, 47.892,47.86s 47.86-21.406, 47.86-47.86S 233.618,413.302, 207.162,413.302z" horiz-adv-x="1040"  />
<glyph unicode="&#xe053;" d="M 736,320c-17.696,0-32,14.336-32,32l0,192 c0,17.696, 14.304,32, 32,32c 17.664,0, 32-14.304, 32-32l0-192 
	C 768,334.336, 753.664,320, 736,320z M 639.936,729.312C 671.872,674.208, 672,608, 672,608L 352,608 c0,0-1.248,67.072, 31.008,122.368l-60.256,60.256
	c-6.24,6.24-6.24,16.384,0,22.624s 16.384,6.24, 22.624,0l 56.512-56.512C 425.568,782.944, 460.48,801.984, 512,801.984
	c 50.88,0, 85.472-19.552, 109.12-46.208l 57.504,57.472c 6.24,6.24, 16.384,6.24, 22.624,0s 6.24-16.384,0-22.624L 639.936,729.312z M 432,704
	C 423.168,704, 416,696.832, 416,688S 423.168,672, 432,672C 440.8,672, 448,679.168, 448,688S 440.8,704, 432,704z M 592,704C 583.168,704, 576,696.832, 576,688
	S 583.168,672, 592,672C 600.8,672, 608,679.168, 608,688S 600.8,704, 592,704z M 320,352c0-17.664-14.336-32-32-32c-17.696,0-32,14.336-32,32l0,192 
	c0,17.696, 14.304,32, 32,32c 17.664,0, 32-14.304, 32-32L 320,352 z M 672,288c0-41.76-26.816-76.864-64-90.112L 608,96 c0-17.664-14.336-32-32-32c-17.696,0-32,14.336-32,32l0,96 
	l-64,0 l0-96 c0-17.664-14.336-32-32-32c-17.696,0-32,14.336-32,32l0,101.888 c-37.216,13.248-64,48.384-64,90.112l0,288 l 320,0 L 672,288 z"  />
<glyph unicode="&#xe054;" d="M 512,832C 299.936,832, 128,660.064, 128,448c0-212.096, 171.936-384, 384-384c 212.096,0, 384,171.904, 384,384
			C 896,660.064, 724.096,832, 512,832z M 754.4,389.888l-75.648-84.16l-16.288,118.304c-97.984,30.016-209.984,30.304-313.984,0.32l-10.112-119.776
			c0,0-82.112,84.512-83.584,84.512c-38.432-13.664-80.096-43.744-80.096-43.744l-1.984,25.984c0,0, 317.344,221.344, 664.032,0l-1.984-25.984
			C 834.688,345.312, 796.416,377.888, 754.4,389.888z"  />
<glyph unicode="&#xe055;" d="M 555.584,433.984l 266.848-271.456C 754.432,101.472, 664.832,64, 566.24,64
	c-212.064,0-384,171.936-384,384c0,212.064, 171.936,384, 384,384c 108.16,0, 205.696-44.864, 275.488-116.8L 555.584,433.984z M 581.568,705.344
	c-26.496,0-47.968-21.504-47.968-48c0-26.528, 21.472-48, 47.968-48c 26.528,0, 48.032,21.472, 48.032,48C 629.6,683.84, 608.096,705.344, 581.568,705.344
	z"  />
<glyph unicode="&#xe056;" d="M 896.544,63.488l-66.080,0 l-64.064,192.256L 223.648,255.744 l-64.096-192.256L 95.456,63.488 
	c-53.056,0-96.128,43.072-96.128,96.128L-0.672,736.384 c0,53.088, 43.072,96.096, 96.128,96.096l 801.056,0 c 53.088,0, 96.128-43.040, 96.128-96.096l0-576.768 
	C 992.672,106.56, 949.632,63.488, 896.544,63.488z M 894.528,736.384L 95.456,736.384 l0-416.544 l 799.072,0 L 894.528,736.384 z M 832.448,383.936L 159.552,383.936 L 159.552,672.288 l 672.864,0 L 832.416,383.936 z
	 M 303.616,608.736c-44.256,0-80.096-35.872-80.096-80.096s 35.84-80.096, 80.096-80.096s 80.128,35.872, 80.128,80.096S 347.872,608.736, 303.616,608.736z
	 M 542.048,560.128l-94.112,0 l0-64.064 l 94.112,0 L 542.048,560.128 z M 688.416,608.736c-44.256,0-80.096-35.872-80.096-80.096s 35.84-80.096, 80.096-80.096
	c 44.224,0, 80.096,35.872, 80.096,80.096S 732.64,608.736, 688.416,608.736z M 686.24,496.064c-17.696,0-32.032,14.336-32.032,32.032
	c0,17.696, 14.336,32.032, 32.032,32.032s 32.064-14.336, 32.064-32.032C 718.304,510.4, 703.936,496.064, 686.24,496.064z M 305.76,496.064
	c-17.696,0-32.032,14.336-32.032,32.032c0,17.696, 14.336,32.032, 32.032,32.032c 17.728,0, 32.064-14.336, 32.064-32.032
	C 337.824,510.4, 323.456,496.064, 305.76,496.064z M 744.32,223.712l 56.096-158.88L 189.6,64.832 l 54.048,158.88L 744.32,223.712 z M 704.288,127.584l 32.032,0 l0,32.032 l-32.032,0 
	L 704.288,127.584 z M 640.192,127.584l 32.064,0 l0,32.032 l-32.064,0 L 640.192,127.584 z M 415.904,127.584l 158.208,0 l0,32.032 l-158.208,0 L 415.904,127.584 z M 319.776,127.584l 32.032,0 l0,32.032 L 319.776,159.616 
	L 319.776,127.584 z M 255.68,127.584l 32.032,0 l0,32.032 L 255.68,159.616 L 255.68,127.584 z"  />
<glyph unicode="&#xe057;" d="M 224.032,480l 32,0 l0-32 l-32,0 l0-96 l 64,0 l0,32 l-32,0 l0,32 l 32,0 l0,96 l-64,0 L 224.032,480 z M 416.064,384l 32,0 l0,32 l-32,0 L 416.064,384 z M 320.032,480l 32,0 
			l0-32 l-32,0 l0-32 l 32,0 l0-32 l-32,0 l0-32 l 64,0 l0,160 l-64,0 L 320.032,480 z M 416.064,448l 32,0 l0,32 l-32,0 L 416.064,448 z M 480.064,352l 96,0 l0,160 l-96,0 L 480.064,352 z M 512.064,480l 32,0 l0-96 l-32,0 L 512.064,480 z M 640.064,512l-32,0 l0-96 l 64,0 l0-64 l 32,0 l0,160 l-32,0 
			l0-64 l-32,0 L 640.064,512 z M 896.064,512l-32.032,0 l 0.16,128.928l-180.16,190.752l-43.968,0.032L 640.064,896 l-352,0 l0-63.936 L 243.136,832.096L 64.384,643.968L 63.936,253.056l 178.144-186.752
			l 45.984-0.032L 288.064,0 l 352,0 l0,65.92 l 42.912-0.032l 180.768,188.16L 863.872,352l 32.192,0 c 17.696,0, 32,14.304, 32,32l0,96 C 928.064,497.664, 913.76,512, 896.064,512z
			 M 798.624,278.592l-144.064-151.52L 270.656,127.424l-141.536,150.048l 0.352,341.92L 269.568,768.96l 387.904-0.384l 141.536-152.064L 798.624,278.592z"  />
<glyph unicode="&#xe058;" d="M 897.728,365.728c0-221.856-179.84-401.728-401.728-401.728
	c-221.856,0-401.728,179.872-401.728,401.728c0,215.104, 169.152,390.144, 381.664,400.672L 475.936,835.712 l-30.112,0 c-17.76,0-32.16,14.4-32.16,32.16
	s 14.4,32.128, 32.16,32.128l 96.384,0 c 17.76,0, 32.16-14.368, 32.16-32.128s-14.4-32.16-32.16-32.16l-34.112,0 l0-68.896 
	C 724.32,760.416, 897.728,583.488, 897.728,365.728z M 475.936,642.912L 475.936,716.224 c-99.488-5.632-187.712-52.48-248.512-123.456l 52.896-52.896l-22.72-22.752
	l-50.080,50.112c-40.768-57.536-65.024-127.584-65.024-203.488c0-3.392, 0.48-8.032, 0.48-8.032L 220.8,355.712 l0-32.16 L 145.28,323.552 
	c 7.808-65.664, 33.824-127.584, 72.576-177.088l 39.776,39.776l 22.72-22.72l-41.472-41.504c 60.128-63.872, 143.616-105.504, 237.056-110.784L 475.936,98.56 l 32.128,0 l0-87.744 
	c 95.648,3.264, 181.44,44.576, 243.168,109.12l-45.568,45.568l 22.72,22.72l 44.064-44.032c 39.68,49.92, 66.368,112.672, 74.304,179.328l-81.6,0 l0,32.16 l 83.872,0 
	c 0.096,3.328, 0.512,4.64, 0.512,8.032c0,78.016-25.6,149.792-68.416,208.16l-52.736-52.736l-22.72,22.72l 55.232,55.2
	c-62.304,70.496-152.096,116.192-252.8,119.584l0-73.728 L 475.936,642.912 z M 510.048,355.68l 112.512,0 c 8.864,0, 16.064-7.232, 16.064-16.064
	c0-8.864-7.2-16.096-16.064-16.096l-128.576,0 c-8.864,0-16.064,7.232-16.064,16.096L 477.92,562.56 c0,8.864, 7.2,16.064, 16.064,16.064
	s 16.064-7.2, 16.064-16.064L 510.048,355.68 z"  />
<glyph unicode="&#xe059;" d="M 896,383.008l-32,0 l0-224 c0-52.992-43.008-96-96-96l-128,0 l0-126.016 L 288-63.008 l0,126.016 L 160,63.008 c-53.024,0-96,43.008-96,96
	l0,544 c0,53.024, 42.976,96, 96,96l 128,0 l0,128 l 352,0 l0-128 l 128,0 c 52.992,0, 96-42.976, 96-96l0-224 l 32,0 c 17.664,0, 32-14.336, 32-32l0-32 C 928,397.344, 913.664,383.008, 896,383.008z M 800,671.008
	c0,35.36-28.672,64-64,64L 192,735.008 c-35.328,0-64-28.672-64-64l0-480 c0-35.328, 28.672-64, 64-64l 544,0 c 35.328,0, 64,28.672, 64,64L 800,671.008 z M 672,415.008l-32,0 l-32,0 l0,96 l 32,0 l0-64 l 32,0 l0,64 l 32,0 
	l0-160 l-32,0 L 672,415.008 z M 512,351.008l-32,0 l0,160 l 32,0 l 32,0 l 32,0 l0-160 l-32,0 L 512,351.008 z M 544,479.008l-32,0 l0-96 l 32,0 L 544,479.008 z M 416,415.008l 32,0 l0-32 l-32,0 L 416,415.008 z M 416,479.008l 32,0 l0-32 l-32,0 L 416,479.008 z
	 M 320,351.008l0,32 l 32,0 l0,32 l-32,0 l0,32 l 32,0 l0,32 l-32,0 l0,32 l 64,0 l0-32 l0-128 l-32,0 L 320,351.008 z M 224,351.008l0,96 l 32,0 l0,32 L 224,479.008 l0,32 l 64,0 l0-32 l0-64 L 256,415.008 l0-32 l 32,0 l0-32 L 256,351.008 L 224,351.008 z"  />
<glyph unicode="&#xe05a;" d="M 871.328,487.2c-43.968,121.824-151.2,215.328-284.512,245.088
	c 34.144,49.024, 90.752,81.248, 155.040,81.248c 104.448,0, 189.088-84.672, 189.088-189.12C 930.944,570.208, 907.84,521.664, 871.328,487.2z M 507.648,806.432
	l0-118.912 c 181.44-7.392, 326.368-156.416, 326.368-339.648c0-76.544-25.568-146.944-68.16-203.744l 78.848-136.608l-65.504-37.856l-67.488,116.928
	c-59.072-49.376-135.072-79.168-218.048-79.168c-82.528,0-158.176,29.408-217.088,78.24L 207.296-34.24l-65.504,37.856l 80.512,139.392
	c-43.136,57.024-68.992,127.84-68.992,204.864c0,182.016, 142.976,330.208, 322.688,339.456L 476,806.432 c-18.336,6.56-31.648,23.68-31.648,44.32
	c0,26.24, 21.28,47.488, 47.488,47.488c 26.24,0, 47.52-21.28, 47.52-47.488C 539.328,830.112, 526.016,812.992, 507.648,806.432z M 228.896,347.872
	c0-146.24, 118.528-264.736, 264.736-264.736c 146.176,0, 264.736,118.496, 264.736,264.736c0,146.176-118.56,264.704-264.736,264.704
	C 347.424,612.608, 228.896,494.048, 228.896,347.872z M 572.992,290.624l-95.008,0 c-17.504,0-31.68,14.176-31.68,31.68l0,126.688 
	c0,17.504, 14.176,31.68, 31.68,31.68c 17.472,0, 31.648-14.176, 31.648-31.68l0-95.008 l 63.328,0 c 17.504,0, 31.68-14.176, 31.68-31.68
	S 590.496,290.624, 572.992,290.624z M 120.704,487.2c-36.544,34.496-59.648,83.008-59.648,137.216c0,104.448, 84.672,189.12, 189.12,189.12
	c 64.256,0, 120.832-32.224, 155.040-81.248C 271.904,702.528, 164.672,609.024, 120.704,487.2z"  />
<glyph unicode="&#xe05b;" d="M 1247.264,574.262l-63.962-0.672l0,65.306 c0,52.992-42.982,95.944-95.944,95.944L 95.944,734.838 c-52.992,0-95.944-42.95-95.944-95.944l0-351.792 
			c0-52.96, 42.95-95.944, 95.944-95.944l 127.252,0 l-0.672-29.998L 959.434,161.16 l-0.672,29.998L 1087.358,191.16 c 52.96,0, 95.944,42.982, 95.944,95.944l0,65.946 l 65.274,0 L 1247.264,574.262z M 1151.322,287.102
			c0-35.308-28.656-63.962-63.962-63.962L 95.944,223.14 c-35.308,0-63.962,28.656-63.962,63.962l0,351.792 c0,35.308, 28.656,63.962, 63.962,63.962l 991.416,0 c 35.308,0, 63.962-28.656, 63.962-63.962L 1151.322,287.102 z M 1087.358,670.876L 95.944,670.876 
			c-17.686,0-31.982-14.296-31.982-31.982l0-351.792 c0-17.686, 14.296-31.982, 31.982-31.982l 991.416,0 c 17.654,0, 31.982,14.296, 31.982,31.982l0,351.792 C 1119.34,656.548, 1105.012,670.876, 1087.358,670.876z M 1031.296,575.476
			l-25.584-23.986l-77.746,0 l-21.748,23.986L 1031.296,575.476 z M 1001.97,475.536l 11.194-11.866l-13.432-11.866l-83.534,0 l-10.586,11.866l 12.792,11.866L 1001.97,475.536 z M 901.452,571.256
			l 21.716-23.986l-5.404-63.962l-16.31-15.032l-8.316,8.954L 901.452,571.256z M 693.894,571.256l 21.716-23.986l-5.404-63.962l-16.31-15.032l-8.316,8.954
			L 693.894,571.256z M 794.316,475.536l 11.226-11.866l-13.464-11.866l-83.438,0 l-10.554,11.866l 12.76,11.866L 794.316,475.536 z M 374.34,571.256l 21.716-23.986
			l-5.596-63.962l-16.15-15.064l-8.22,8.954L 374.34,571.256z M 474.728,475.536l 11.226-11.866l-13.432-11.866l-83.566,0 l-10.426,11.866l 12.76,11.866
			L 474.728,475.536 z M 296.626,575.476l-25.616-23.986l-77.714,0 l-21.748,23.986L 296.626,575.476 z M 166.782,571.256l 21.748-23.986l-5.628-63.962l-16.15-15.064l-8.22,8.954
			L 166.782,571.256z M 156.132,450.046l 9.594,9.242l 13.752-15l-5.372-63.994l-26.16-23.986L 156.132,450.046z M 151.91,351.864l 26.224,23.986l 77.586,0 
			l 21.396-23.986L 151.91,351.864 z M 281.914,356.374l-21.492,23.954l 5.372,63.994l 16.342,15l 7.996-9.242L 281.914,356.374z M 292.5,477.23l-9.37-8.954
			l-13.912,15.064l 5.596,63.962l 25.968,23.986L 292.5,477.23z M 363.69,450.046l 9.594,9.242l 13.752-15l-5.372-63.994l-26.16-23.954L 363.69,450.046z
			 M 359.436,351.864l 26.224,23.986l 77.618,0 l 21.396-23.986L 359.436,351.864 z M 489.472,356.342l-21.428,23.986l 5.404,63.962l 16.342,15.032l 8.028-9.242L 489.472,356.342z
			 M 478.598,551.49l-77.714,0 l-21.78,23.986l 125.046,0 L 478.598,551.49z M 594.050,351.864l-23.986,0 l 2.206,23.986l 23.986,0 L 594.050,351.864z M 608.122,514.264
			l-23.986,0 l 2.238,23.986l 23.986,0 L 608.122,514.264z M 679.184,351.864l 25.904,23.986l 77.714,0 l 21.428-23.986L 679.184,351.864 z M 809.026,356.374l-21.46,23.954l 5.436,63.962
			l 16.342,15.032l 7.996-9.242L 809.026,356.374z M 798.154,551.49l-77.714,0 l-21.78,23.986l 125.046,0 L 798.154,551.49z M 886.742,351.864l 25.936,23.986l 77.714,0 
			l 21.428-23.986L 886.742,351.864 z M 1016.584,356.374l-21.492,23.954l 5.372,63.994l 16.342,15l 7.996-9.242L 1016.584,356.374z M 1027.202,477.23l-9.402-8.954
			l-13.912,15.064l 5.628,63.962l 25.968,23.986L 1027.202,477.23z" horiz-adv-x="1248"  />
<glyph unicode="&#xe05c;" d="M 512,848c-229.792,0-416-186.24-416-416s 186.208-416, 416-416c 229.728,0, 416,186.24, 416,416
			S 741.76,848, 512,848z M 508.64,95.136c-185.568,0-336,150.432-336,336c0,185.568, 150.432,336, 336,336c 185.536,0, 336-150.432, 336-336
			C 844.64,245.568, 694.176,95.136, 508.64,95.136z M 605.76,411.808l-95.36,0 l0,161.024 c0,17.472-14.176,31.68-31.648,31.68
			c-17.504,0-31.68-14.176-31.68-31.68l0-192.672 c0-17.504, 14.176-31.648, 31.68-31.648l 127.008,0 c 17.504,0, 31.68,14.144, 31.68,31.648
			C 637.44,397.632, 623.264,411.808, 605.76,411.808z"  />
<glyph unicode="&#xe05d;" d="M 768,64l0,64 l-0.8,0 C 767.488,133.312, 768,138.592, 768,144L 768,416 l0,80 
	C 768,646.208, 646.208,768, 496,768S 224,646.208, 224,496L 224,416 l0-272 c0-5.408, 0.512-10.688, 0.8-16L 224,128 l0-64 c0,0-160,2.688-160,176c0,98.304, 51.424,141.664, 96,160.8
	L 160,496 C 160,681.568, 310.432,832, 496,832S 832,681.568, 832,496l0-95.2 c 44.576-19.168, 96-62.496, 96-160.8C 928,66.688, 768,64, 768,64z M 288,64L 256,64 L 256,416 l 32,0 L 288,64 z M 736,64
	l-32,0 L 704,416 l 32,0 L 736,64 z"  />
<glyph unicode="&#xe05e;" d="M 576,256c-35.328,0-64,28.672-64,64l0,64 c0,35.36, 28.672,64, 64,64l 384,0 l0-192 L 576,256 z M 624,397.344
	c-26.496,0-48-21.504-48-48c0-26.528, 21.504-48, 48-48c 26.528,0, 48,21.472, 48,48C 672,375.84, 650.528,397.344, 624,397.344z M 480,384l0-64 
	c0-52.992, 43.008-96, 96-96l 320,0 l0-128 c0-52.992-42.976-96-96-96L 128,0 c-52.992,0-96,43.008-96,96L 32,704 c0,53.024, 43.008,96, 96,96l 308.224,0 l-75.168-31.328L 112.032,768.672 
	c-26.496,0-48-21.504-48-48c0-26.528, 21.504-48, 48-48L 896,672.672 L 896,480 L 576,480 C 523.008,480, 480,437.024, 480,384z M 160.032,608l-64,0 l0-64 l 32,0 l0,32 l 32,0 L 160.032,608 z M 160.032,512
	l-64,0 l0-64 l 33.312,0 l-1.312,32l 32-0.672L 160.032,512 z M 160.032,416l-64,0 l0-64 l 32.672,0 l-0.672,32l 32,0 L 160.032,416 z M 160.032,320l-64,0 l0-64 l 32.672,0 l-0.672,32l 32-0.672L 160.032,320 z M 160.032,224l-64,0 l0-64 l 32,0 
	l0,32 l 32,0 L 160.032,224 z M 160.032,128l-64,0 l0-64 l 32.672,0 l-0.672,31.328l 32,0 L 160.032,128 z M 288.032,705.984L 664.032,864l 72-158.016L 288.032,705.984 z M 724.672,800L 800,800 
	c 28.032,0, 52.992-12.192, 70.56-31.328l-130.592,0 L 724.672,800z"  />
<glyph unicode="&#xe05f;" d="M 927.936,687.008l-68.288,68.288c-12.608,12.576-32.96,12.576-45.536,0L 404.672,345.856
	L 209.92,542.016c-12.576,12.576-32.928,12.576-45.536,0l-68.288-68.288c-12.576-12.608-12.576-32.96,0-45.536l 285.568-287.488
	c 12.576-12.576, 32.96-12.576, 45.536,0L 927.936,641.472C 940.512,654.016, 940.512,674.432, 927.936,687.008z"  />
<glyph unicode="&#xe060;" d="M 626.784,447.968l 195.072-195.072c 12.672-12.672, 12.672-33.248,0-45.92l-68.832-68.832
	c-12.672-12.672-33.216-12.672-45.92,0L 512,333.216l-195.104-195.072c-12.672-12.672-33.216-12.672-45.888,0l-68.864,68.832
	c-12.672,12.672-12.672,33.216,0,45.92l 195.104,195.072L 202.144,643.072c-12.672,12.672-12.672,33.248,0,45.92L 271.040,757.824
	c 12.672,12.672, 33.216,12.672, 45.888,0L 512,562.72l 195.104,195.104c 12.672,12.672, 33.216,12.672, 45.92,0l 68.832-68.864
	c 12.672-12.672, 12.672-33.216,0-45.92L 626.784,447.968z"  />
<glyph unicode="&#xe061;" d="M 549.184,821.088C 211.2,821.088,0,448,0,448s 209.184-373.088, 549.184-373.088
			C 867.2,74.912, 1108.576,448, 1108.576,448S 869.184,821.088, 549.184,821.088z M 552.192,279.968c-92.608,0-167.616,75.040-167.616,167.616
			s 75.040,167.648, 167.616,167.648s 167.648-75.072, 167.648-167.648S 644.768,279.968, 552.192,279.968z M 553.216,531.392c-46.080,0-83.424-37.376-83.424-83.424
			c0-46.080, 37.344-83.424, 83.424-83.424s 83.424,37.344, 83.424,83.424C 636.672,494.016, 599.328,531.392, 553.216,531.392z" horiz-adv-x="1120"  />
<glyph unicode="&#xe062;" d="M 528,177.696l0,31.872 c 107.264-3.168, 191.776-37.568, 191.776-79.584
	c0-44.128-92.992-81.92-207.744-81.92c-114.752,0-207.744,37.792-207.744,81.92c0,42.016, 84.512,76.448, 191.744,79.584l0-31.872 
	c-89.568-2.208-159.776-22.72-159.776-47.712c0-26.464, 78.688-51.936, 175.776-51.936c 97.056,0, 175.744,25.472, 175.744,51.936
	C 687.744,154.976, 617.568,175.456, 528,177.696z M 336.512,672.16c0,97.056, 80.672,175.776, 177.792,175.776c 97.088,0, 175.776-78.72, 175.776-175.776
	c0-83.424-58.176-153.152-136.192-171.136L 512,78.016l-42.016,424.192C 394.4,521.888, 336.512,590.4, 336.512,672.16z M 512,719.232
	c0,26.496-21.472,47.936-47.936,47.936c-26.496,0-47.968-21.44-47.968-47.936c0-26.464, 21.472-47.936, 47.968-47.936C 490.56,671.296, 512,692.736, 512,719.232z
	"  />
<glyph unicode="&#xe063;" d="M 768,96l-96,0 c-17.696,0-32,14.304-32,32l0,64 c0,17.696, 14.304,32, 32,32l 64,0 l0,192 l-224,0 l0-192 l 32,0 
	c 17.664,0, 32-14.304, 32-32l0-64 c0-17.696-14.336-32-32-32l-96,0 c-17.696,0-32,14.304-32,32l0,64 c0,17.696, 14.304,32, 32,32l 32,0 l0,192 L 256,416 l0-192 l 64,0 c 17.664,0, 32-14.304, 32-32l0-64 
	c0-17.696-14.336-32-32-32L 224,96 c-17.696,0-32,14.304-32,32l0,64 c0,17.696, 14.304,32, 32,32l0,192 l0,32 l 32,0 l 224,0 L 480,672 l-32,0 c-17.696,0-32,14.336-32,32L 416,768 c0,17.664, 14.304,32, 32,32l 96,0 
	c 17.664,0, 32-14.336, 32-32l0-64 c0-17.664-14.336-32-32-32l-32,0 l0-224 l 224,0 l 32,0 l0-32 l0-192 c 17.664,0, 32-14.304, 32-32l0-64 C 800,110.304, 785.664,96, 768,96z"  />
<glyph unicode="&#xe064;" d="M 767.104,97.12l-95.68,0 c-17.6,0-31.904,14.24-31.904,31.872l0,63.808 
	c0,17.568, 14.304,31.872, 31.904,31.872l 63.776,0 l0,159.488 l-223.264,0 l0-159.488 l 31.872,0 c 17.632,0, 31.904-14.304, 31.904-31.872l0-63.808 
	c0-17.632-14.272-31.872-31.904-31.872l-95.68,0 c-17.6,0-31.872,14.24-31.872,31.872l0,63.808 c0,17.568, 14.272,31.872, 31.872,31.872l 31.936,0 l0,159.488 
	L 256.768,384.16 l0-159.488 l 63.776,0 c 17.632,0, 31.904-14.304, 31.904-31.872l0-63.808 c0-17.632-14.272-31.872-31.904-31.872L 224.896,97.12 c-17.632,0-31.904,14.24-31.904,31.872
	l0,63.808 c0,17.568, 14.272,31.872, 31.904,31.872l0,159.488 l0,31.872 l 31.872,0 l 223.296,0 l0,127.584 l-95.68,0 c-17.632,0-31.904,14.272-31.904,31.904L 352.48,735.008 
	c0,17.6, 14.272,31.904, 31.904,31.904l 223.264,0 c 17.632,0, 31.872-14.272, 31.872-31.904l0-159.456 c0-17.6-14.24-31.904-31.872-31.904l-95.68,0 l0-127.584 l 223.264,0 
	l 31.904,0 l0-31.872 l0-159.488 c 17.6,0, 31.904-14.304, 31.904-31.872l0-63.808 C 799.008,111.36, 784.672,97.12, 767.104,97.12z M 224.896,192.8l0-63.808 l 95.648,0 
	l0,63.808 L 224.896,192.8 z M 607.616,575.52L 607.616,735.008 l-223.264,0 l0-159.456 L 607.616,575.552 z M 448.128,192.8l0-63.808 l 95.68,0 l0,63.808 L 448.128,192.8 z M 767.104,192.8l-95.68,0 l0-63.808 
	l 95.68,0 L 767.104,192.8 z"  />
<glyph unicode="&#xe065;" d="M 891.936,64c0,0, 176.64-0.192, 201.44,172.64c 11.808,188.992-170.752,226.24-170.752,226.24
	s 20.768,279.776-235.552,311.68c-219.68,22.432-286.528-181.728-286.528-181.728s-66.176,63.616-155.936,11.648c-80.352-49.6-66.144-140.416-66.144-140.416
	S0,429.376,0,247.488C 4,65.824, 193.824,64, 193.824,64" horiz-adv-x="1120"  />
<glyph unicode="&#xe066;" d="M 941.632,462.88c0,0, 20.768,279.776-235.552,311.68c-219.68,22.432-286.56-181.728-286.56-181.728
	s-66.144,63.616-155.904,11.648c-80.352-49.6-66.144-140.416-66.144-140.416s-178.432-34.688-178.432-216.576C 23.008,65.824, 212.768,64, 212.768,64L 512,64 l0,192 l-96,0 
	l 160,160l 160-160l-96,0 l0-192 l 270.944,0 c0,0, 176.64-0.192, 201.44,172.64C 1124.192,425.632, 941.632,462.88, 941.632,462.88z" horiz-adv-x="1120"  />
<glyph unicode="&#xe067;" d="M 479.68,418.72c0,0, 1.312,416.288, 0.32,416.288c-216.928,0-384-189.088-384-409.984
			c0-220.896, 179.104-393.984, 400-393.984c 220.864,0, 400,165.088, 400,385.984C 896,418.88, 479.68,418.72, 479.68,418.72z M 928,451.008
			c0,220.928-197.088,414.016-417.984,414.016c 3.072,0,0-414.016,0-414.016S 928,449.792, 928,451.008z"  />
<glyph unicode="&#xe068;" d="M 543.936,481.856c0,0, 3.072,383.552,0,383.552c 220.672,0, 383.552-162.88, 383.552-383.552
	C 927.488,480.64, 543.936,481.856, 543.936,481.856z M 895.552,403.136c0-229.472-186.048-415.52-415.52-415.52
	c-229.504,0-415.52,186.048-415.52,415.52c0,229.504, 186.016,415.52, 415.52,415.52c 10.784,0, 21.376-0.768, 31.968-1.6l0-367.168 l 381.056,0 
	C 894.656,435.168, 895.552,418.272, 895.552,403.136z M 861.6,415.936L 480.032,415.936 L 480.032,786.688 c-211.84,0-383.552-171.744-383.552-383.584
	s 171.712-383.52, 383.552-383.52s 383.552,171.68, 383.552,383.52C 863.584,444.384, 861.6,415.936, 861.6,415.936z"  />
<glyph unicode="&#xe069;" d="M 127.584,832L 96,832 l0-768 l 832,0 l0,30.816 l-799.872,1.6L 127.584,832z M 352,800c0,17.696-14.336,32-32,32L 224,832 
			C 206.304,832, 192,817.696, 192,800l0-640 l 160,0 L 352,800 z M 544,608c0,17.696-14.336,32-32,32l-96,0 c-17.696,0-32-14.304-32-32l0-448 l 160,0 L 544,608 z M 736,416c0,17.696-14.336,32-32,32l-96,0 
			c-17.696,0-32-14.304-32-32l0-256 l 160,0 L 736,416 z M 896,256l-96,0 c-17.696,0-32-14.304-32-32l0-64 l 160,0 l0,64 C 928,241.696, 913.664,256, 896,256z"  />
<glyph unicode="&#xe06a;" d="M 127.584,832L 96,832 l0-768 l 832,0 l0,30.816 l-799.872,1.6L 127.584,832z M 544,800c0,17.696-14.336,32-32,32l-96,0 
			c-17.696,0-32-14.304-32-32l0-640 l 160,0 L 544,800 z M 352,608c0,17.664-14.336,32-32,32L 224,640 c-17.696,0-32-14.336-32-32l0-448 l 160,0 L 352,608 z M 736,416c0,17.696-14.336,32-32,32l-96,0 
			c-17.696,0-32-14.304-32-32l0-256 l 160,0 L 736,416 z M 896,256l-96,0 c-17.696,0-32-14.304-32-32l0-64 l 160,0 l0,64 C 928,241.696, 913.664,256, 896,256z"  />
<glyph unicode="&#xe06b;" d="M 864,287.008L 224,287.008 l0-160 l 640,0 c 17.664,0, 32,14.304, 32,32l0,96 C 896,272.672, 881.664,287.008, 864,287.008z
			 M 704,351.008l0,96 c0,17.664-14.336,32-32,32L 224,479.008 l0-160 l 448,0 C 689.664,319.008, 704,333.312, 704,351.008z M 512,543.008l0,96 c0,17.664-14.336,32-32,32L 224,671.008 l0-160 l 256,0 
			C 497.664,511.008, 512,525.344, 512,543.008z M 320,735.008l0,96 c0,17.696-14.336,32-32,32L 224,863.008 l0-160 l 64,0 C 305.664,703.008, 320,717.344, 320,735.008z M 160,863.008L 128,863.008 l0-830.016 
			l 768,0 l0,32 L 160,64.992 L 160,863.008 z"  />
<glyph unicode="&#xe06c;" d="M 864,479.008L 224,479.008 l0-160 l 640,0 c 17.664,0, 32,14.304, 32,32l0,96 C 896,464.672, 881.664,479.008, 864,479.008z
			 M 704,159.008l0,96 c0,17.696-14.336,32-32,32L 224,287.008 l0-160 l 448,0 C 689.664,127.008, 704,141.312, 704,159.008z M 512,543.008l0,96 c0,17.664-14.336,32-32,32L 224,671.008 l0-160 l 256,0 
			C 497.664,511.008, 512,525.344, 512,543.008z M 320,735.008l0,96 c0,17.696-14.336,32-32,32L 224,863.008 l0-160 l 64,0 C 305.664,703.008, 320,717.344, 320,735.008z M 160,863.008L 128,863.008 l0-830.016 
			l 768,0 l0,32 L 160,64.992 L 160,863.008 z"  />
<glyph unicode="&#xe06d;" d="M 357.216,590.272c0,84.96, 69.312,153.824, 154.784,153.824s 154.784-68.864, 154.784-153.824
	S 597.472,436.48, 512,436.48S 357.216,505.344, 357.216,590.272z M 248.864,571.072c0-64.352, 78.528-200, 78.528-200L 512,63.424l 174.016,307.616
	c0,0, 89.12,136.64, 89.12,200c0,144.416-117.824,261.472-263.136,261.472S 248.864,715.488, 248.864,571.072z"  />
<glyph unicode="&#xe06e;" d="M 941.632,462.88c0,0, 20.736,279.776-235.552,311.68c-219.712,22.432-286.56-181.728-286.56-181.728
	s-66.144,63.616-155.936,11.648c-80.32-49.6-66.144-140.416-66.144-140.416s-178.432-34.656-178.432-216.576C 23.008,65.824, 212.768,64, 212.768,64L 576,64 l-160,160l 96,0 
	l0,192 l 128,0 l0-192 l 96,0 l-160-160l 334.944,0 c0,0, 176.64-0.192, 201.44,172.64C 1124.192,425.632, 941.632,462.88, 941.632,462.88z" horiz-adv-x="1120"  />
<glyph unicode="&#xe06f;" d="M0,512l0,96 l 120,0 l 240.992,241.024C 359.392,853.792, 358.016,858.656, 358.016,864
	c0,26.528, 21.472,48, 48,48c 26.496,0, 48-21.472, 48-48c0-26.496-21.504-48-48-48c-3.552,0-6.688,1.312-9.984,2.016L 185.984,608l 619.328,0 
	l-208.8,210.528C 592.384,817.376, 588.448,816, 584,816c-26.496,0-48,21.504-48,48c0,26.528, 21.504,48, 48,48s 48-21.472, 48-48
	c0-4.896-1.44-9.376-2.816-13.856L 871.328,608L 992,608 l0-96 L0,512 z M 795.808,35.136c-9.376-37.504-35.36-35.424-35.36-35.424L 229.408-1.312
	c-27.072,0-34.336,34.304-34.336,34.304L 54.688,479.552l 882.368,0.832L 795.808,35.136z M 319.968,416l-32,0 l0-160 l 32,0 L 319.968,416 z M 319.968,224l-32,0 l0-160 l 32,0 L 319.968,224 z M 383.968,416
	L 352,416 l0-160 l 31.968,0 L 383.968,416 z M 383.968,224L 352,224 l0-160 l 31.968,0 L 383.968,224 z M 447.968,416l-32,0 l0-160 l 32,0 L 447.968,416 z M 447.968,224l-32,0 l0-160 l 32,0 L 447.968,224 z M 512,416l-32,0 l0-160 l 32,0 L 512,416 z M 512,224l-32,0 l0-160 l 32,0 L 512,224 z
	 M 576,416l-32,0 l0-160 l 32,0 L 576,416 z M 576,224l-32,0 l0-160 l 32,0 L 576,224 z M 640,416l-32,0 l0-160 l 32,0 L 640,416 z M 640,224l-32,0 l0-160 l 32,0 L 640,224 z M 704,416l-32,0 l0-160 l 32,0 L 704,416 z M 704,224l-32,0 l0-160 l 32,0 L 704,224 z"  />
<glyph unicode="&#xe070;" d="M 269.418,666.736l 669.726,0 c 68.96,0, 68.96,71.516, 2.684,71.516L 478.92,738.252 
			c-26.524,0-39.752,39.752-39.752,39.752S 420.6,836.324, 383.468,836.324L 38.698,836.324 c-50.362,0-37.132-58.32-37.132-58.32s 76.918-654.132, 82.222-693.916
			S 130.22,32.576, 130.22,32.576l 90.146,578.492C 227.012,653.474, 256.156,665.394, 269.418,666.736z M 1075.562,641.588L 290.636,641.588 c-23.424,0-42.438-18.982-42.438-42.406
			l-82.19-524.072c0-23.456, 19.014-42.438, 42.438-42.438l 784.926,0 c 23.392,0, 42.438,18.982, 42.438,42.438l 82.19,524.072
			C 1118,622.606, 1099.050,641.588, 1075.562,641.588z" horiz-adv-x="1118"  />
<glyph unicode="&#xe071;" d="M 735.878,817.026c-45.276,0-133.208-63.95-207.84-63.95c-74.598,0-167.87,63.95-207.84,63.95
			c-274.444,0-431.666-738.052-226.48-738.052c 173.21,0, 196.52,215.832, 433.648,215.832c 191.852,0, 304.436-213.21, 432.338-213.21
			C 1164.858,81.596, 1010.354,817.026, 735.878,817.026z M 304.18,401.348c-79.458,0-143.888,64.462-143.888,143.888c0,79.458, 64.43,143.888, 143.888,143.888s 143.888-64.43, 143.888-143.888
			C 448.070,465.81, 383.67,401.348, 304.18,401.348z M 685.9,481.286c-17.682,0-31.976,14.292-31.976,31.976s 14.292,31.976, 31.976,31.976s 31.976-14.292, 31.976-31.976
			S 703.584,481.286, 685.9,481.286z M 783.842,385.36c-17.682,0-31.976,14.292-31.976,31.976s 14.292,31.976, 31.976,31.976s 31.976-14.292, 31.976-31.976S 801.492,385.36, 783.842,385.36z
			 M 783.842,577.212c-17.682,0-31.976,14.292-31.976,31.976s 14.292,31.976, 31.976,31.976s 31.976-14.292, 31.976-31.976S 801.492,577.212, 783.842,577.212z M 879.766,481.286c-17.682,0-31.976,14.292-31.976,31.976
			s 14.292,31.976, 31.976,31.976s 31.976-14.292, 31.976-31.976S 897.418,481.286, 879.766,481.286z M 304.18,625.174c-44.126,0-79.938-35.78-79.938-79.938s 35.812-79.938, 79.938-79.938
			c 44.158,0, 79.938,35.78, 79.938,79.938S 348.338,625.174, 304.18,625.174z" horiz-adv-x="1054"  />
<glyph unicode="&#xe072;" d="M 864.416,151.104l0-58.4 L 159.584,92.704 l0,58.4 c0,0-15.072,32.288, 66.72,109.728
	C 308.032,338.24, 297.28,538.336, 297.28,673.856s 190.336,138.4, 190.336,138.4l 6.528,0 c0-0.064,0,0.928,0,22.016c0,13.536-45.44,62.56-45.44,62.56
	l-0.672,29.664l 128.32,0 l-0.864-30.784c0,0-49.248-48.992-49.248-63.424c0-13.952,0-18.624,0-20l 10.144,0 c0,0, 190.336-2.88, 190.336-138.4
	S 715.968,338.24, 797.728,260.8S 864.416,151.104, 864.416,151.104z M 592.384,61.76c0-44.32-35.904-92.256-80.192-92.256S 432,17.44, 432,61.76
	C 432,60.768, 592.384,62.784, 592.384,61.76z"  />
<glyph unicode="&#xe073;" d="M 889.344,151.104l 0.032-58.4L 221.536,92.704 L 751.36,622.56
	c-0.96-130.528-0.672-293.632, 71.296-361.76C 904.416,183.36, 889.344,151.104, 889.344,151.104z M 133.568,96.64L 814.048,777.088l 22.656-22.688
	L 156.256,73.952L 133.568,96.64z M 251.264,260.8c 81.76,77.44, 71.008,277.504, 71.008,413.056s 190.336,138.4, 190.336,138.4l 6.496,0 
	c0-0.064,0,0.928,0,22.016c0,13.536-45.44,62.56-45.44,62.56l-0.672,29.664l 128.32,0 l-0.896-30.784c0,0-49.216-48.992-49.216-63.424
	c0-13.952,0-18.624,0-20l 10.144,0 c0,0, 121.632-2.048, 170.336-72.16L 222.592,231.008C 230.56,240.128, 239.744,249.92, 251.264,260.8z M 617.344,61.76
	c0-44.32-35.904-92.256-80.192-92.256c-44.32,0-80.224,47.936-80.224,92.256C 456.928,60.768, 617.344,62.784, 617.344,61.76z"  />
</font>
</defs>
</svg>
